  0
SECTION
  2
HEADER
  9
$ACADVER
  1
AC1015
  9
$ACADMAINTVER
 70
    20
  9
$DWGCODEPAGE
  3
ANSI_1252
  9
$INSBASE
 10
0.0
 20
0.0
 30
0.0
  9
$EXTMIN
 10
0.0
 20
0.0
 30
0.0
  9
$EXTMAX
 10
420.0
 20
297.0000076293946
 30
0.0
  9
$LIMMIN
 10
0.0
 20
0.0
  9
$LIMMAX
 10
420.0
 20
297.0
  9
$ORTHOMODE
 70
     0
  9
$REGENMODE
 70
     1
  9
$FILLMODE
 70
     1
  9
$QTEXTMODE
 70
     0
  9
$MIRRTEXT
 70
     0
  9
$LTSCALE
 40
1.0
  9
$ATTMODE
 70
     1
  9
$TEXTSIZE
 40
0.2
  9
$TRACEWID
 40
0.05
  9
$TEXTSTYLE
  7
Standard
  9
$CLAYER
  8
0
  9
$CELTYPE
  6
ByLayer
  9
$CECOLOR
 62
   256
  9
$CELTSCALE
 40
1.0
  9
$DISPSILH
 70
     0
  9
$DIMSCALE
 40
1.0
  9
$DIMASZ
 40
1.799999999999999
  9
$DIMEXO
 40
0.0625
  9
$DIMDLI
 40
0.38
  9
$DIMRND
 40
0.0
  9
$DIMDLE
 40
0.0
  9
$DIMEXE
 40
0.18
  9
$DIMTP
 40
0.0
  9
$DIMTM
 40
0.0
  9
$DIMTXT
 40
0.3499999940395355
  9
$DIMCEN
 40
0.09
  9
$DIMTSZ
 40
0.0
  9
$DIMTOL
 70
     0
  9
$DIMLIM
 70
     0
  9
$DIMTIH
 70
     1
  9
$DIMTOH
 70
     1
  9
$DIMSE1
 70
     0
  9
$DIMSE2
 70
     0
  9
$DIMTAD
 70
     0
  9
$DIMZIN
 70
     0
  9
$DIMBLK
  1

  9
$DIMASO
 70
     1
  9
$DIMSHO
 70
     1
  9
$DIMPOST
  1

  9
$DIMAPOST
  1

  9
$DIMALT
 70
     0
  9
$DIMALTD
 70
     2
  9
$DIMALTF
 40
25.4
  9
$DIMLFAC
 40
1.0
  9
$DIMTOFL
 70
     0
  9
$DIMTVP
 40
0.0
  9
$DIMTIX
 70
     0
  9
$DIMSOXD
 70
     0
  9
$DIMSAH
 70
     0
  9
$DIMBLK1
  1

  9
$DIMBLK2
  1

  9
$DIMSTYLE
  2
Standard
  9
$DIMCLRD
 70
     0
  9
$DIMCLRE
 70
     0
  9
$DIMCLRT
 70
     0
  9
$DIMTFAC
 40
1.0
  9
$DIMGAP
 40
0.09
  9
$DIMJUST
 70
     0
  9
$DIMSD1
 70
     0
  9
$DIMSD2
 70
     0
  9
$DIMTOLJ
 70
     1
  9
$DIMTZIN
 70
     0
  9
$DIMALTZ
 70
     0
  9
$DIMALTTZ
 70
     0
  9
$DIMUPT
 70
     0
  9
$DIMDEC
 70
     4
  9
$DIMTDEC
 70
     4
  9
$DIMALTU
 70
     2
  9
$DIMALTTD
 70
     2
  9
$DIMTXSTY
  7
Standard
  9
$DIMAUNIT
 70
     0
  9
$DIMADEC
 70
     0
  9
$DIMALTRND
 40
0.0
  9
$DIMAZIN
 70
     0
  9
$DIMDSEP
 70
    46
  9
$DIMATFIT
 70
     3
  9
$DIMFRAC
 70
     0
  9
$DIMLDRBLK
  1

  9
$DIMLUNIT
 70
     2
  9
$DIMLWD
 70
    -2
  9
$DIMLWE
 70
    -2
  9
$DIMTMOVE
 70
     0
  9
$LUNITS
 70
     2
  9
$LUPREC
 70
     4
  9
$SKETCHINC
 40
0.1
  9
$FILLETRAD
 40
0.0
  9
$AUNITS
 70
     0
  9
$AUPREC
 70
     0
  9
$MENU
  1
.
  9
$ELEVATION
 40
0.0
  9
$PELEVATION
 40
0.0
  9
$THICKNESS
 40
0.0
  9
$LIMCHECK
 70
     0
  9
$CHAMFERA
 40
0.0
  9
$CHAMFERB
 40
0.0
  9
$CHAMFERC
 40
0.0
  9
$CHAMFERD
 40
0.0
  9
$SKPOLY
 70
     0
  9
$TDCREATE
 40
2456105.633949051
  9
$TDUCREATE
 40
2456105.550615718
  9
$TDUPDATE
 40
2456105.645447685
  9
$TDUUPDATE
 40
2456105.562114352
  9
$TDINDWG
 40
0.0003441782
  9
$TDUSRTIMER
 40
0.0003441782
  9
$USRTIMER
 70
     1
  9
$ANGBASE
 50
0.0
  9
$ANGDIR
 70
     0
  9
$PDMODE
 70
     0
  9
$PDSIZE
 40
0.0
  9
$PLINEWID
 40
0.0
  9
$SPLFRAME
 70
     0
  9
$SPLINETYPE
 70
     6
  9
$SPLINESEGS
 70
     8
  9
$HANDSEED
  5
C87
  9
$SURFTAB1
 70
     6
  9
$SURFTAB2
 70
     6
  9
$SURFTYPE
 70
     6
  9
$SURFU
 70
     6
  9
$SURFV
 70
     6
  9
$UCSBASE
  2

  9
$UCSNAME
  2

  9
$UCSORG
 10
0.0
 20
0.0
 30
0.0
  9
$UCSXDIR
 10
1.0
 20
0.0
 30
0.0
  9
$UCSYDIR
 10
0.0
 20
1.0
 30
0.0
  9
$UCSORTHOREF
  2

  9
$UCSORTHOVIEW
 70
     0
  9
$UCSORGTOP
 10
0.0
 20
0.0
 30
0.0
  9
$UCSORGBOTTOM
 10
0.0
 20
0.0
 30
0.0
  9
$UCSORGLEFT
 10
0.0
 20
0.0
 30
0.0
  9
$UCSORGRIGHT
 10
0.0
 20
0.0
 30
0.0
  9
$UCSORGFRONT
 10
0.0
 20
0.0
 30
0.0
  9
$UCSORGBACK
 10
0.0
 20
0.0
 30
0.0
  9
$PUCSBASE
  2

  9
$PUCSNAME
  2

  9
$PUCSORG
 10
0.0
 20
0.0
 30
0.0
  9
$PUCSXDIR
 10
1.0
 20
0.0
 30
0.0
  9
$PUCSYDIR
 10
0.0
 20
1.0
 30
0.0
  9
$PUCSORTHOREF
  2

  9
$PUCSORTHOVIEW
 70
     0
  9
$PUCSORGTOP
 10
0.0
 20
0.0
 30
0.0
  9
$PUCSORGBOTTOM
 10
0.0
 20
0.0
 30
0.0
  9
$PUCSORGLEFT
 10
0.0
 20
0.0
 30
0.0
  9
$PUCSORGRIGHT
 10
0.0
 20
0.0
 30
0.0
  9
$PUCSORGFRONT
 10
0.0
 20
0.0
 30
0.0
  9
$PUCSORGBACK
 10
0.0
 20
0.0
 30
0.0
  9
$USERI1
 70
     0
  9
$USERI2
 70
     0
  9
$USERI3
 70
     0
  9
$USERI4
 70
     0
  9
$USERI5
 70
     0
  9
$USERR1
 40
0.0
  9
$USERR2
 40
0.0
  9
$USERR3
 40
0.0
  9
$USERR4
 40
0.0
  9
$USERR5
 40
0.0
  9
$WORLDVIEW
 70
     1
  9
$SHADEDGE
 70
     3
  9
$SHADEDIF
 70
    70
  9
$TILEMODE
 70
     1
  9
$MAXACTVP
 70
    64
  9
$PINSBASE
 10
0.0
 20
0.0
 30
0.0
  9
$PLIMCHECK
 70
     0
  9
$PEXTMIN
 10
0.0
 20
0.0
 30
0.0
  9
$PEXTMAX
 10
420.0
 20
297.0
 30
0.0
  9
$PLIMMIN
 10
0.0
 20
0.0
  9
$PLIMMAX
 10
420.0
 20
297.0
  9
$UNITMODE
 70
     0
  9
$VISRETAIN
 70
     1
  9
$PLINEGEN
 70
     0
  9
$PSLTSCALE
 70
     1
  9
$TREEDEPTH
 70
  3020
  9
$CMLSTYLE
  2
Standard
  9
$CMLJUST
 70
     0
  9
$CMLSCALE
 40
1.0
  9
$PROXYGRAPHICS
 70
     1
  9
$MEASUREMENT
 70
     1
  9
$CELWEIGHT
370
    -1
  9
$ENDCAPS
280
     0
  9
$JOINSTYLE
280
     0
  9
$LWDISPLAY
290
     0
  9
$INSUNITS
 70
     4
  9
$HYPERLINKBASE
  1

  9
$STYLESHEET
  1

  9
$XEDIT
290
     1
  9
$CEPSNTYPE
380
     0
  9
$PSTYLEMODE
290
     1
  9
$FINGERPRINTGUID
  2
{F14E0AB0-0EDB-40AD-873E-11EBB7231B38}
  9
$VERSIONGUID
  2
{7727C550-61FB-44A7-BF66-4D01DCC06053}
  9
$EXTNAMES
290
     1
  9
$PSVPSCALE
 40
0.0
  9
$OLESTARTUP
290
     0
  0
ENDSEC
  0
SECTION
  2
CLASSES
  0
CLASS
  1
ACDBDICTIONARYWDFLT
  2
AcDbDictionaryWithDefault
  3
ObjectDBX Classes
 90
        0
280
     0
281
     0
  0
CLASS
  1
MATERIAL
  2
AcDbMaterial
  3
ObjectDBX Classes
 90
     1153
280
     0
281
     0
  0
CLASS
  1
VISUALSTYLE
  2
AcDbVisualStyle
  3
ObjectDBX Classes
 90
     4095
280
     0
281
     0
  0
CLASS
  1
SCALE
  2
AcDbScale
  3
ObjectDBX Classes
 90
     1153
280
     0
281
     0
  0
CLASS
  1
TABLESTYLE
  2
AcDbTableStyle
  3
ObjectDBX Classes
 90
     4095
280
     0
281
     0
  0
CLASS
  1
MLEADERSTYLE
  2
AcDbMLeaderStyle
  3
ACDB_MLEADERSTYLE_CLASS
 90
     4095
280
     0
281
     0
  0
CLASS
  1
CELLSTYLEMAP
  2
AcDbCellStyleMap
  3
ObjectDBX Classes
 90
     1152
280
     0
281
     0
  0
CLASS
  1
DICTIONARYVAR
  2
AcDbDictionaryVar
  3
ObjectDBX Classes
 90
        0
280
     0
281
     0
  0
CLASS
  1
ACDBPLACEHOLDER
  2
AcDbPlaceHolder
  3
ObjectDBX Classes
 90
        0
280
     0
281
     0
  0
CLASS
  1
LAYOUT
  2
AcDbLayout
  3
ObjectDBX Classes
 90
        0
280
     0
281
     0
  0
CLASS
  1
ACME_DOCUMENT
  2
AcMeDbDoc
  3
AcMeServices
 90
     1024
280
     0
281
     0
  0
CLASS
  1
AMGSETTINGSOBJ
  2
AmgSettingsObj
  3
"AcadM|Product Description: AutoCAD Mechanical|Company: Autodesk, Inc."
 90
     1024
280
     0
281
     0
  0
CLASS
  1
ACMESCOPE
  2
AcMeScope
  3
AcMeServices
 90
     1024
280
     0
281
     0
  0
CLASS
  1
ACMECOMMANDHISTORY
  2
AcMeCommandHistory
  3
AcMeServices
 90
     1024
280
     0
281
     0
  0
CLASS
  1
ACIMSYSVARMAN
  2
AcImSysVarManager
  3
AcMeServices
 90
     1024
280
     0
281
     0
  0
CLASS
  1
ACIMINTSYSVAR
  2
AcImIntSysVar
  3
AcMeServices
 90
     1024
280
     0
281
     0
  0
CLASS
  1
ACMEDRAWINGMAN
  2
AcMeDrawingMan
  3
AcMeServices
 90
     1024
280
     0
281
     0
  0
CLASS
  1
ACMEVIEW
  2
AcMeView
  3
AcMeServices
 90
     1024
280
     0
281
     0
  0
CLASS
  1
ACDBENTITYCACHE
  2
AcMeEntityCache
  3
AcMeServices
 90
     1024
280
     0
281
     0
  0
CLASS
  1
ACMESTATEMGR
  2
AcMeStateMgr
  3
AcMeServices
 90
     1024
280
     0
281
     0
  0
CLASS
  1
ACGREFMASTER
  2
AcGrefMaster
  3
AcAttribServices
 90
     1024
280
     0
281
     0
  0
CLASS
  1
AM_DRAWING_MGR
  2
AcDmDwgMgr
  3
AcMechDwgViewMgmt
 90
     1024
280
     0
281
     0
  0
CLASS
  1
AM_DWG_DOCUMENT
  2
AcDmDwgDocument
  3
AcMechDwgViewMgmt
 90
     1024
280
     0
281
     0
  0
CLASS
  1
AM_DWG_SHEET
  2
AcDmSheet
  3
AcMechDwgViewMgmt
 90
     1024
280
     0
281
     0
  0
CLASS
  1
AM_VIEWDIMPARMAP
  2
AcDmViewDimParMap
  3
AcMechDwgViewMgmt
 90
     1024
280
     0
281
     0
  0
CLASS
  1
AMDTINTERNALREACTOR
  2
AmdtInternalReactor
  3
AcMeServices
 90
     1024
280
     0
281
     0
  0
CLASS
  1
ACIMREALSYSVAR
  2
AcImRealSysVar
  3
AcMeServices
 90
     1024
280
     0
281
     0
  0
CLASS
  1
AM_DWGMGR_NAME
  2
AcDmDwgMgrName
  3
AcMechDwgViewMgmt
 90
     1024
280
     0
281
     0
  0
CLASS
  1
ACME_DATABASE
  2
AcMeDbDatabase
  3
AcMeServices
 90
     1024
280
     0
281
     0
  0
CLASS
  1
ACRFINSADJUSTERMGR
  2
AcRfInsAdjusterMgr
  3
AcMeServices
 90
     1024
280
     0
281
     0
  0
CLASS
  1
ACGREFACADMASTER
  2
AcGrefacadMaster
  3
AcGrefServices
 90
     1024
280
     0
281
     0
  0
CLASS
  1
AMDTMENUSTATEMGR
  2
AmdtMenuStateMgr
  3
McadcomServices
 90
     1024
280
     0
281
     0
  0
CLASS
  1
AMDTMCOMMENUSTATE
  2
AmdtMcomMenuState
  3
McadcomServices
 90
     1024
280
     0
281
     0
  0
CLASS
  1
AMIMASTER
  2
AmiMaster
  3
AmiServices
 90
     1024
280
     0
281
     0
  0
CLASS
  1
MAPIAMMOUDLE
  2
MApiAmModule
  3
MApiAmServices
 90
     1024
280
     0
281
     0
  0
CLASS
  1
ACIMSTRSYSVAR
  2
AcImStrSysVar
  3
AcMeServices
 90
     1024
280
     0
281
     0
  0
CLASS
  1
AMDTADMENUSTATE
  2
AmdtAdMenuState
  3
DesignerServices
 90
     1024
280
     0
281
     0
  0
CLASS
  1
ADAPPL
  2
AcAdAppl
  3
DesignerServices
 90
     1024
280
     0
281
     0
  0
CLASS
  1
DEPMGR
  2
AcAdDepMgr
  3
DesignerServices
 90
     1024
280
     0
281
     0
  0
CLASS
  1
PARAMMGR
  2
AcAdParamMgr
  3
DesignerServices
 90
     1024
280
     0
281
     0
  0
CLASS
  1
PARAMSCOPE
  2
AcAdParamScope
  3
DesignerServices
 90
     1024
280
     0
281
     0
  0
CLASS
  1
NAMEDAPPL
  2
AcAdNamedAppl
  3
DesignerServices
 90
     1024
280
     0
281
     0
  0
CLASS
  1
AMDTDMMENUSTATE
  2
AmdtDmMenuState
  3
AcMechDwgViewMgmt
 90
     1024
280
     0
281
     0
  0
CLASS
  1
AMDTAMMENUSTATE
  2
AmdtAmMenuState
  3
DesignerAssemblies
 90
     1024
280
     0
281
     0
  0
CLASS
  1
ACAMPROJECT
  2
AcAmProject
  3
DesignerAssemblies
 90
     1024
280
     0
281
     0
  0
CLASS
  1
ACAMGRCOMPDEF
  2
AcAmGrCompDef
  3
DesignerAssemblies
 90
     1024
280
     0
281
     0
  0
CLASS
  1
ACAMCOMPDEF
  2
AcAmCompDef
  3
DesignerAssemblies
 90
     1024
280
     0
281
     0
  0
CLASS
  1
ACAMCOMPDEFMGR
  2
AcAmCompDefMgr
  3
DesignerAssemblies
 90
     1024
280
     0
281
     0
  0
CLASS
  1
AMCONTEXTMGR
  2
AcAmContextMgr
  3
DesignerAssemblies
 90
     1024
280
     0
281
     0
  0
CLASS
  1
ACAMCONTEXTMODELER
  2
AcAmContextModeler
  3
DesignerAssemblies
 90
     1024
280
     0
281
     0
  0
CLASS
  1
ACMDATADICTIONARY
  2
AcmDataDictionary
  3
"AcmSymBB|Product Description: AutoCAD Mechanical|Company: Autodesk, Inc."
 90
     1024
280
     0
281
     0
  0
CLASS
  1
CATALOGSTATE
  2
AcAmCatalogState
  3
DesignerAssemblies
 90
     1024
280
     0
281
     0
  0
CLASS
  1
ACAMGRCOMPDEFSET
  2
AcAmGrCompDefSet
  3
DesignerAssemblies
 90
     1024
280
     0
281
     0
  0
CLASS
  1
AMDTBROWSERDBTAB
  2
AmdtBrowserDbTab
  3
McadcomServices
 90
     1024
280
     0
281
     0
  0
CLASS
  1
CBROWSERAPPOBJECT
  2
CBrowserAppObject
  3
McadcomServices
 90
     1024
280
     0
281
     0
  0
CLASS
  1
DM_PLACEHOLDER
  2
AcDmSelsetPlaceholder
  3
AcMechDwgViewMgmt
 90
     1024
280
     0
281
     0
  0
CLASS
  1
EXACXREFPANELOBJECT
  2
ExAcXREFPanelObject
  3
EXAC_ESW
 90
     1025
280
     0
281
     0
  0
CLASS
  1
NPOCOLLECTION
  2
AcDbImpNonPersistentObjectsCollection
  3
ObjectDBX Classes
 90
     1153
280
     0
281
     0
  0
CLASS
  1
ACMSTANDARDISO
  2
AcmStandardISO
  3
"Amdt_StdImp|Product Description: AutoCAD Mechanical|Company: Autodesk, Inc."
 90
     1024
280
     0
281
     0
  0
CLASS
  1
AMDTEDGESTANDARDISO13715
  2
AmdtEdgeStdISO13715
  3
"Amdt_StdImp|Product Description: AutoCAD Mechanical|Company: Autodesk, Inc."
 90
     1024
280
     0
281
     0
  0
CLASS
  1
ACMSURFSTANDARDISO2002
  2
AcmSurfTextStdISO2002
  3
"Amdt_StdImp|Product Description: AutoCAD Mechanical|Company: Autodesk, Inc."
 90
     1024
280
     0
281
     0
  0
CLASS
  1
ACMFCFSTANDARDISO
  2
AcmFCFStdISO
  3
"Amdt_StdImp|Product Description: AutoCAD Mechanical|Company: Autodesk, Inc."
 90
     1024
280
     0
281
     0
  0
CLASS
  1
ACMWELDSTANDARDISO
  2
AcmWeldingStdISO
  3
"Amdt_StdImp|Product Description: AutoCAD Mechanical|Company: Autodesk, Inc."
 90
     1024
280
     0
281
     0
  0
CLASS
  1
ACMIDSTANDARDISO
  2
AcmIdStdISO
  3
"Amdt_StdImp|Product Description: AutoCAD Mechanical|Company: Autodesk, Inc."
 90
     1024
280
     0
281
     0
  0
CLASS
  1
ACMDATUMSTANDARDISO
  2
AcmDatumStdISO
  3
"Amdt_StdImp|Product Description: AutoCAD Mechanical|Company: Autodesk, Inc."
 90
     1024
280
     0
281
     0
  0
CLASS
  1
ACMBOMSTANDARDISO
  2
AcmBOMStdISO
  3
"Amdt_StdImp|Product Description: AutoCAD Mechanical|Company: Autodesk, Inc."
 90
     1024
280
     0
281
     0
  0
CLASS
  1
ACMDETAILSTANDARDISO
  2
AmdtDetailSymStdISO
  3
"Amdt_StdImp|Product Description: AutoCAD Mechanical|Company: Autodesk, Inc."
 90
     1024
280
     0
281
     0
  0
CLASS
  1
ACMSECTIONSTANDARDISO2001
  2
AmdtSectionSymStdISO2001
  3
"Amdt_StdImp|Product Description: AutoCAD Mechanical|Company: Autodesk, Inc."
 90
     1024
280
     0
281
     0
  0
CLASS
  1
ACMCENTERLINESTANDARDISO
  2
AmdtCenterLineStdISO
  3
"Amdt_StdImp|Product Description: AutoCAD Mechanical|Company: Autodesk, Inc."
 90
     1024
280
     0
281
     0
  0
CLASS
  1
ACMTHREADLINESTANDARDISO
  2
AmdtThreadLineStdISO
  3
"Amdt_StdImp|Product Description: AutoCAD Mechanical|Company: Autodesk, Inc."
 90
     1024
280
     0
281
     0
  0
CLASS
  1
ACMNOTESTANDARDISO
  2
AmdtNoteStdISO
  3
"Amdt_StdImp|Product Description: AutoCAD Mechanical|Company: Autodesk, Inc."
 90
     1024
280
     0
281
     0
  0
CLASS
  1
ACMTAPERSTANDARDISO
  2
AcmTaperStdISO
  3
"Amdt_StdImp|Product Description: AutoCAD Mechanical|Company: Autodesk, Inc."
 90
     1024
280
     0
281
     0
  0
CLASS
  1
ACMANOOTATIONVIEWSTANDARDISO
  2
AmdtAnViewStdISO
  3
"Amdt_StdImp|Product Description: AutoCAD Mechanical|Company: Autodesk, Inc."
 90
     1024
280
     0
281
     0
  0
CLASS
  1
ACAMGLAYSTD
  2
AcAmgLayStd
  3
"AmgLay|Product Description: AutoCAD Mechanical|Company: Autodesk, Inc."
 90
     1024
280
     0
281
     0
  0
CLASS
  1
ACAMGDIMSTD
  2
AcAmgDimStd
  3
"AmgDim|Product Description: AutoCAD Mechanical|Company: Autodesk, Inc."
 90
     1024
280
     0
281
     0
  0
CLASS
  1
ACAMGHOLECHARTSTDISO
  2
AcAmgHoleChartStdISO
  3
AmgDim|Product Description: AutoCAD Mechanical|Company: Autodesk, Inc.
 90
     1024
280
     0
281
     0
  0
CLASS
  1
AMGOBJPROPCFG
  2
AmgObjPropCfg
  3
"AmgLay|Product Description: AutoCAD Mechanical|Company: Autodesk, Inc."
 90
     1025
280
     0
281
     0
  0
CLASS
  1
ACAMGTITLESTD
  2
AcAmgTitleStd
  3
"AmgTitle|Product Description: AutoCAD Mechanical|Company: Autodesk, Inc."
 90
     4095
280
     0
281
     0
  0
CLASS
  1
AMDTNOTETEMPLATEDB
  2
AmdtNoteTemplateDB
  3
AcmSymBB|Product Description: AutoCAD Mechanical|Company: Autodesk, Inc.
 90
     1024
280
     0
281
     0
  0
CLASS
  1
ACAMGFILTERDAT
  2
AcAmgFilterDat
  3
"AcadM|Product Description: AutoCAD Mechanical|Company: Autodesk, Inc."
 90
     1024
280
     0
281
     0
  0
ENDSEC
  0
SECTION
  2
TABLES
  0
TABLE
  2
VPORT
  5
8
102
{ACAD_XDICTIONARY
360
B16
102
}
330
0
100
AcDbSymbolTable
 70
     1
  0
VPORT
  5
62
330
8
100
AcDbSymbolTableRecord
100
AcDbViewportTableRecord
  2
*Active
 70
     0
 10
0.0
 20
0.0
 11
1.0
 21
1.0
 12
167.1136361276094
 22
142.3636359235864
 13
0.0
 23
0.0
 14
1.0
 24
1.0
 15
0.0
 25
0.0
 16
0.0
 26
0.0
 36
1.0
 17
0.0
 27
0.0
 37
0.0
 40
296.9999998616996
 41
1.610192837465564
 42
50.0
 43
0.0
 44
0.0
 50
0.0
 51
0.0
 71
     0
 72
   100
 73
     1
 74
     1
 75
     0
 76
     0
 77
     0
 78
     0
281
     0
 65
     1
110
0.0
120
0.0
130
0.0
111
1.0
121
0.0
131
0.0
112
0.0
122
1.0
132
0.0
 79
     0
146
0.0
  0
ENDTAB
  0
TABLE
  2
LTYPE
  5
5
330
0
100
AcDbSymbolTable
 70
    69
  0
LTYPE
  5
66
330
5
100
AcDbSymbolTableRecord
100
AcDbLinetypeTableRecord
  2
ByBlock
 70
     0
  3

 72
    65
 73
     0
 40
0.0
  0
LTYPE
  5
67
330
5
100
AcDbSymbolTableRecord
100
AcDbLinetypeTableRecord
  2
ByLayer
 70
     0
  3

 72
    65
 73
     0
 40
0.0
  0
LTYPE
  5
68
330
5
100
AcDbSymbolTableRecord
100
AcDbLinetypeTableRecord
  2
Continuous
 70
     0
  3
Solid line
 72
    65
 73
     0
 40
0.0
  0
LTYPE
  5
7F
330
5
100
AcDbSymbolTableRecord
100
AcDbLinetypeTableRecord
  2
Section_View_Lines
 70
     0
  3
Section View Lines
 72
    65
 73
     4
 40
0.8406
 49
0.6614
 74
     0
 49
-0.0827
 74
     0
 49
0.0138
 74
     0
 49
-0.0827
 74
     0
  0
LTYPE
  5
80
330
5
100
AcDbSymbolTableRecord
100
AcDbLinetypeTableRecord
  2
CHAIN
 70
     0
  3
Chain ____ _ ____ _ ____ _ ____ _ ____ _ ____
 72
    65
 73
     4
 40
0.3543
 49
0.2362
 74
     0
 49
-0.0295
 74
     0
 49
0.0591
 74
     0
 49
-0.0295
 74
     0
  0
LTYPE
  5
81
330
5
100
AcDbSymbolTableRecord
100
AcDbLinetypeTableRecord
  2
DASH_DOT
 70
     0
  3
Dash dot _._._._._._._._._._._._._._._.
 72
    65
 73
     4
 40
0.182
 49
0.1181
 74
     0
 49
-0.0295
 74
     0
 49
0.0049
 74
     0
 49
-0.0295
 74
     0
  0
LTYPE
  5
82
330
5
100
AcDbSymbolTableRecord
100
AcDbLinetypeTableRecord
  2
DASH_DOUBLE_DOT
 70
     0
  3
Dash Double Dot __ __ . __ __ . __ __ . __ _
 72
    65
 73
     6
 40
0.2164
 49
0.1181
 74
     0
 49
-0.0295
 74
     0
 49
0.0049
 74
     0
 49
-0.0295
 74
     0
 49
0.0049
 74
     0
 49
-0.0295
 74
     0
  0
LTYPE
  5
83
330
5
100
AcDbSymbolTableRecord
100
AcDbLinetypeTableRecord
  2
DASH_TRIPLE_DOT
 70
     0
  3
Dash Triple-Dot _ . . . _ . . . _ . . . _
 72
    65
 73
     8
 40
0.2508
 49
0.1181
 74
     0
 49
-0.0295
 74
     0
 49
0.0049
 74
     0
 49
-0.0295
 74
     0
 49
0.0049
 74
     0
 49
-0.0295
 74
     0
 49
0.0049
 74
     0
 49
-0.0295
 74
     0
  0
LTYPE
  5
84
330
5
100
AcDbSymbolTableRecord
100
AcDbLinetypeTableRecord
  2
DASHED
 70
     0
  3
Dashed __ __ __ __ __ __ __ __ __ __ __ __ __ _
 72
    65
 73
     2
 40
0.2068
 49
0.1655
 74
     0
 49
-0.0413
 74
     0
  0
LTYPE
  5
85
330
5
100
AcDbSymbolTableRecord
100
AcDbLinetypeTableRecord
  2
DASHED_SPACE
 70
     0
  3
Dashed Space __ __ __ __ __ __ __ __ __ __ __ _
 72
    65
 73
     2
 40
0.2067
 49
0.1654
 74
     0
 49
-0.0413
 74
     0
  0
LTYPE
  5
86
330
5
100
AcDbSymbolTableRecord
100
AcDbLinetypeTableRecord
  2
DOTTED
 70
     0
  3
Dotted . . . . . . . . . . . . . . . . . . . . 
 72
    65
 73
     2
 40
0.0481
 49
0.0068
 74
     0
 49
-0.0413
 74
     0
  0
LTYPE
  5
87
330
5
100
AcDbSymbolTableRecord
100
AcDbLinetypeTableRecord
  2
DOUBLE_DASH_CHAIN
 70
     0
  3
Double Dash Chain ___ _ _ ___ _ _ ___ _ _ ___ _
 72
    65
 73
     6
 40
1.240299999999999
 49
0.6614
 74
     0
 49
-0.0827
 74
     0
 49
0.1654
 74
     0
 49
-0.0827
 74
     0
 49
0.1654
 74
     0
 49
-0.0827
 74
     0
  0
LTYPE
  5
88
330
5
100
AcDbSymbolTableRecord
100
AcDbLinetypeTableRecord
  2
DOUBLE_DASH_DOT
 70
     0
  3
Double Dash Dot __ __ . __ __ . __ __ . __ _
 72
    65
 73
     6
 40
0.3296
 49
0.1181
 74
     0
 49
-0.0295
 74
     0
 49
0.1181
 74
     0
 49
-0.0295
 74
     0
 49
0.0049
 74
     0
 49
-0.0295
 74
     0
  0
LTYPE
  5
89
330
5
100
AcDbSymbolTableRecord
100
AcDbLinetypeTableRecord
  2
DOUBLE_DASH_DOUBLE_DOT
 70
     0
  3
Double Dash Double Dot _ _ . . _ _ . . _ _
 72
    65
 73
     8
 40
0.364
 49
0.1181
 74
     0
 49
-0.0295
 74
     0
 49
0.1181
 74
     0
 49
-0.0295
 74
     0
 49
0.0049
 74
     0
 49
-0.0295
 74
     0
 49
0.0049
 74
     0
 49
-0.0295
 74
     0
  0
LTYPE
  5
8A
330
5
100
AcDbSymbolTableRecord
100
AcDbLinetypeTableRecord
  2
DOUBLE_DASH_TRIPLE_DOT
 70
     0
  3
Double Dash Triple Dot __ __ . . . __ __ . . .
 72
    65
 73
    10
 40
0.3984
 49
0.1181
 74
     0
 49
-0.0295
 74
     0
 49
0.1181
 74
     0
 49
-0.0295
 74
     0
 49
0.0049
 74
     0
 49
-0.0295
 74
     0
 49
0.0049
 74
     0
 49
-0.0295
 74
     0
 49
0.0049
 74
     0
 49
-0.0295
 74
     0
  0
LTYPE
  5
8B
330
5
100
AcDbSymbolTableRecord
100
AcDbLinetypeTableRecord
  2
LONG_DASH_DOTTED
 70
     0
  3
Long Dash Dotted ____ . ____ . ____ . ____ . _
 72
    65
 73
     4
 40
0.3001
 49
0.2362
 74
     0
 49
-0.0295
 74
     0
 49
0.0049
 74
     0
 49
-0.0295
 74
     0
  0
LTYPE
  5
8C
330
5
100
AcDbSymbolTableRecord
100
AcDbLinetypeTableRecord
  2
LONG_DASH_DOUBLE_DOT
 70
     0
  3
Long Dash Double Dot ____ . . ____ . . ____ . .
 72
    65
 73
     6
 40
0.3345
 49
0.2362
 74
     0
 49
-0.0295
 74
     0
 49
0.0049
 74
     0
 49
-0.0295
 74
     0
 49
0.0049
 74
     0
 49
-0.0295
 74
     0
  0
LTYPE
  5
8D
330
5
100
AcDbSymbolTableRecord
100
AcDbLinetypeTableRecord
  2
LONG_DASH_TRIPLE_DOT
 70
     0
  3
Long Dash Triple Dot ____ ... ____ ... ____
 72
    65
 73
     8
 40
0.3689
 49
0.2362
 74
     0
 49
-0.0295
 74
     0
 49
0.0049
 74
     0
 49
-0.0295
 74
     0
 49
0.0049
 74
     0
 49
-0.0295
 74
     0
 49
0.0049
 74
     0
 49
-0.0295
 74
     0
  0
LTYPE
  5
8E
330
5
100
AcDbSymbolTableRecord
100
AcDbLinetypeTableRecord
  2
BORDER
 70
     0
  3
Border __ __ . __ __ . __ __ . __ __ . __ __ .
 72
    65
 73
     6
 40
44.45
 49
12.7
 74
     0
 49
-6.349999999999999
 74
     0
 49
12.7
 74
     0
 49
-6.349999999999999
 74
     0
 49
0.0
 74
     0
 49
-6.349999999999999
 74
     0
  0
LTYPE
  5
8F
330
5
100
AcDbSymbolTableRecord
100
AcDbLinetypeTableRecord
  2
BORDER2
 70
     0
  3
Border (.5x) __.__.__.__.__.__.__.__.__.__.__.
 72
    65
 73
     6
 40
22.225
 49
6.349999999999999
 74
     0
 49
-3.174999999999999
 74
     0
 49
6.349999999999999
 74
     0
 49
-3.174999999999999
 74
     0
 49
0.0
 74
     0
 49
-3.174999999999999
 74
     0
  0
LTYPE
  5
90
330
5
100
AcDbSymbolTableRecord
100
AcDbLinetypeTableRecord
  2
BORDERX2
 70
     0
  3
Border (2x) ____  ____  .  ____  ____  .  ___
 72
    65
 73
     6
 40
88.9
 49
25.4
 74
     0
 49
-12.7
 74
     0
 49
25.4
 74
     0
 49
-12.7
 74
     0
 49
0.0
 74
     0
 49
-12.7
 74
     0
  0
LTYPE
  5
91
330
5
100
AcDbSymbolTableRecord
100
AcDbLinetypeTableRecord
  2
CENTER
 70
     0
  3
Center ____ _ ____ _ ____ _ ____ _ ____ _ ____
 72
    65
 73
     4
 40
50.8
 49
31.75
 74
     0
 49
-6.349999999999999
 74
     0
 49
6.349999999999999
 74
     0
 49
-6.349999999999999
 74
     0
  0
LTYPE
  5
92
330
5
100
AcDbSymbolTableRecord
100
AcDbLinetypeTableRecord
  2
CENTER2
 70
     0
  3
Center (.5x) ___ _ ___ _ ___ _ ___ _ ___ _ ___
 72
    65
 73
     4
 40
28.575
 49
19.05
 74
     0
 49
-3.174999999999999
 74
     0
 49
3.174999999999999
 74
     0
 49
-3.174999999999999
 74
     0
  0
LTYPE
  5
93
330
5
100
AcDbSymbolTableRecord
100
AcDbLinetypeTableRecord
  2
CENTERX2
 70
     0
  3
Center (2x) ________  __  ________  __  _____
 72
    65
 73
     4
 40
101.6
 49
63.5
 74
     0
 49
-12.7
 74
     0
 49
12.7
 74
     0
 49
-12.7
 74
     0
  0
LTYPE
  5
94
330
5
100
AcDbSymbolTableRecord
100
AcDbLinetypeTableRecord
  2
DASHDOT2
 70
     0
  3
Dash dot (.5x) _._._._._._._._._._._._._._._.
 72
    65
 73
     4
 40
12.7
 49
6.349999999999999
 74
     0
 49
-3.174999999999999
 74
     0
 49
0.0
 74
     0
 49
-3.174999999999999
 74
     0
  0
LTYPE
  5
95
330
5
100
AcDbSymbolTableRecord
100
AcDbLinetypeTableRecord
  2
DASHDOTX2
 70
     0
  3
Dash dot (2x) ____  .  ____  .  ____  .  ___
 72
    65
 73
     4
 40
50.8
 49
25.4
 74
     0
 49
-12.7
 74
     0
 49
0.0
 74
     0
 49
-12.7
 74
     0
  0
LTYPE
  5
96
330
5
100
AcDbSymbolTableRecord
100
AcDbLinetypeTableRecord
  2
DASHED2
 70
     0
  3
Dashed (.5x) _ _ _ _ _ _ _ _ _ _ _ _ _ _ _ _ _
 72
    65
 73
     2
 40
9.524999999999998
 49
6.349999999999999
 74
     0
 49
-3.174999999999999
 74
     0
  0
LTYPE
  5
97
330
5
100
AcDbSymbolTableRecord
100
AcDbLinetypeTableRecord
  2
DASHEDX2
 70
     0
  3
Dashed (2x) ____  ____  ____  ____  ____  ___
 72
    65
 73
     2
 40
38.1
 49
25.4
 74
     0
 49
-12.7
 74
     0
  0
LTYPE
  5
98
330
5
100
AcDbSymbolTableRecord
100
AcDbLinetypeTableRecord
  2
DIVIDE
 70
     0
  3
Divide ____ . . ____ . . ____ . . ____ . . ____
 72
    65
 73
     6
 40
31.75
 49
12.7
 74
     0
 49
-6.349999999999999
 74
     0
 49
0.0
 74
     0
 49
-6.349999999999999
 74
     0
 49
0.0
 74
     0
 49
-6.349999999999999
 74
     0
  0
LTYPE
  5
99
330
5
100
AcDbSymbolTableRecord
100
AcDbLinetypeTableRecord
  2
DIVIDE2
 70
     0
  3
Divide (.5x) __..__..__..__..__..__..__..__.._
 72
    65
 73
     6
 40
15.875
 49
6.349999999999999
 74
     0
 49
-3.174999999999999
 74
     0
 49
0.0
 74
     0
 49
-3.174999999999999
 74
     0
 49
0.0
 74
     0
 49
-3.174999999999999
 74
     0
  0
LTYPE
  5
9A
330
5
100
AcDbSymbolTableRecord
100
AcDbLinetypeTableRecord
  2
DIVIDEX2
 70
     0
  3
Divide (2x) ________  .  .  ________  .  .  _
 72
    65
 73
     6
 40
63.49999999999999
 49
25.4
 74
     0
 49
-12.7
 74
     0
 49
0.0
 74
     0
 49
-12.7
 74
     0
 49
0.0
 74
     0
 49
-12.7
 74
     0
  0
LTYPE
  5
9B
330
5
100
AcDbSymbolTableRecord
100
AcDbLinetypeTableRecord
  2
DOT
 70
     0
  3
Dot . . . . . . . . . . . . . . . . . . . . . .
 72
    65
 73
     2
 40
6.349999999999999
 49
0.0
 74
     0
 49
-6.349999999999999
 74
     0
  0
LTYPE
  5
9C
330
5
100
AcDbSymbolTableRecord
100
AcDbLinetypeTableRecord
  2
DOT2
 70
     0
  3
Dot (.5x) .....................................
 72
    65
 73
     2
 40
3.174999999999999
 49
0.0
 74
     0
 49
-3.174999999999999
 74
     0
  0
LTYPE
  5
9D
330
5
100
AcDbSymbolTableRecord
100
AcDbLinetypeTableRecord
  2
DOTX2
 70
     0
  3
Dot (2x) .  .  .  .  .  .  .  .  .  .  .  .  . 
 72
    65
 73
     2
 40
12.7
 49
0.0
 74
     0
 49
-12.7
 74
     0
  0
LTYPE
  5
9E
330
5
100
AcDbSymbolTableRecord
100
AcDbLinetypeTableRecord
  2
HIDDEN
 70
     0
  3
Hidden __ __ __ __ __ __ __ __ __ __ __ __ __ _
 72
    65
 73
     2
 40
9.524999999999998
 49
6.349999999999999
 74
     0
 49
-3.174999999999999
 74
     0
  0
LTYPE
  5
9F
330
5
100
AcDbSymbolTableRecord
100
AcDbLinetypeTableRecord
  2
HIDDEN2
 70
     0
  3
Hidden (.5x) _ _ _ _ _ _ _ _ _ _ _ _ _ _ _ _ _
 72
    65
 73
     2
 40
4.762499999999999
 49
3.174999999999999
 74
     0
 49
-1.587499999999999
 74
     0
  0
LTYPE
  5
A0
330
5
100
AcDbSymbolTableRecord
100
AcDbLinetypeTableRecord
  2
HIDDENX2
 70
     0
  3
Hidden (2x) ____ ____ ____ ____ ____ ____ ____
 72
    65
 73
     2
 40
19.05
 49
12.7
 74
     0
 49
-6.349999999999999
 74
     0
  0
LTYPE
  5
A1
330
5
100
AcDbSymbolTableRecord
100
AcDbLinetypeTableRecord
  2
PHANTOM
 70
     0
  3
Phantom ______  __  __  ______  __  __  ______
 72
    65
 73
     6
 40
63.5
 49
31.75
 74
     0
 49
-6.349999999999999
 74
     0
 49
6.349999999999999
 74
     0
 49
-6.349999999999999
 74
     0
 49
6.349999999999999
 74
     0
 49
-6.349999999999999
 74
     0
  0
LTYPE
  5
A2
330
5
100
AcDbSymbolTableRecord
100
AcDbLinetypeTableRecord
  2
PHANTOM2
 70
     0
  3
Phantom (.5x) ___ _ _ ___ _ _ ___ _ _ ___ _ _
 72
    65
 73
     6
 40
31.75
 49
15.875
 74
     0
 49
-3.174999999999999
 74
     0
 49
3.174999999999999
 74
     0
 49
-3.174999999999999
 74
     0
 49
3.174999999999999
 74
     0
 49
-3.174999999999999
 74
     0
  0
LTYPE
  5
A3
330
5
100
AcDbSymbolTableRecord
100
AcDbLinetypeTableRecord
  2
PHANTOMX2
 70
     0
  3
Phantom (2x) ____________    ____    ____   _
 72
    65
 73
     6
 40
127.0
 49
63.5
 74
     0
 49
-12.7
 74
     0
 49
12.7
 74
     0
 49
-12.7
 74
     0
 49
12.7
 74
     0
 49
-12.7
 74
     0
  0
LTYPE
  5
A4
330
5
100
AcDbSymbolTableRecord
100
AcDbLinetypeTableRecord
  2
ACAD_ISO02W100
 70
     0
  3
ISO dash __ __ __ __ __ __ __ __ __ __ __ __ __
 72
    65
 73
     2
 40
15.0
 49
12.0
 74
     0
 49
-3.0
 74
     0
  0
LTYPE
  5
A5
330
5
100
AcDbSymbolTableRecord
100
AcDbLinetypeTableRecord
  2
ACAD_ISO03W100
 70
     0
  3
ISO dash space __    __    __    __    __    __
 72
    65
 73
     2
 40
30.0
 49
12.0
 74
     0
 49
-18.0
 74
     0
  0
LTYPE
  5
A6
330
5
100
AcDbSymbolTableRecord
100
AcDbLinetypeTableRecord
  2
ACAD_ISO04W100
 70
     0
  3
ISO long-dash dot ____ . ____ . ____ . ____ . _
 72
    65
 73
     4
 40
30.0
 49
24.0
 74
     0
 49
-3.0
 74
     0
 49
0.0
 74
     0
 49
-3.0
 74
     0
  0
LTYPE
  5
A7
330
5
100
AcDbSymbolTableRecord
100
AcDbLinetypeTableRecord
  2
ACAD_ISO05W100
 70
     0
  3
ISO long-dash double-dot ____ .. ____ .. ____ .
 72
    65
 73
     6
 40
33.0
 49
24.0
 74
     0
 49
-3.0
 74
     0
 49
0.0
 74
     0
 49
-3.0
 74
     0
 49
0.0
 74
     0
 49
-3.0
 74
     0
  0
LTYPE
  5
A8
330
5
100
AcDbSymbolTableRecord
100
AcDbLinetypeTableRecord
  2
ACAD_ISO06W100
 70
     0
  3
ISO long-dash triple-dot ____ ... ____ ... ____
 72
    65
 73
     8
 40
36.0
 49
24.0
 74
     0
 49
-3.0
 74
     0
 49
0.0
 74
     0
 49
-3.0
 74
     0
 49
0.0
 74
     0
 49
-3.0
 74
     0
 49
0.0
 74
     0
 49
-3.0
 74
     0
  0
LTYPE
  5
A9
330
5
100
AcDbSymbolTableRecord
100
AcDbLinetypeTableRecord
  2
ACAD_ISO07W100
 70
     0
  3
ISO dot . . . . . . . . . . . . . . . . . . . .
 72
    65
 73
     2
 40
3.0
 49
0.0
 74
     0
 49
-3.0
 74
     0
  0
LTYPE
  5
AA
330
5
100
AcDbSymbolTableRecord
100
AcDbLinetypeTableRecord
  2
ACAD_ISO08W100
 70
     0
  3
ISO long-dash short-dash ____ __ ____ __ ____ _
 72
    65
 73
     4
 40
36.0
 49
24.0
 74
     0
 49
-3.0
 74
     0
 49
6.0
 74
     0
 49
-3.0
 74
     0
  0
LTYPE
  5
AB
330
5
100
AcDbSymbolTableRecord
100
AcDbLinetypeTableRecord
  2
ACAD_ISO09W100
 70
     0
  3
ISO long-dash double-short-dash ____ __ __ ____
 72
    65
 73
     6
 40
45.0
 49
24.0
 74
     0
 49
-3.0
 74
     0
 49
6.0
 74
     0
 49
-3.0
 74
     0
 49
6.0
 74
     0
 49
-3.0
 74
     0
  0
LTYPE
  5
AC
330
5
100
AcDbSymbolTableRecord
100
AcDbLinetypeTableRecord
  2
ACAD_ISO10W100
 70
     0
  3
ISO dash dot __ . __ . __ . __ . __ . __ . __ .
 72
    65
 73
     4
 40
18.0
 49
12.0
 74
     0
 49
-3.0
 74
     0
 49
0.0
 74
     0
 49
-3.0
 74
     0
  0
LTYPE
  5
AD
330
5
100
AcDbSymbolTableRecord
100
AcDbLinetypeTableRecord
  2
ACAD_ISO11W100
 70
     0
  3
ISO double-dash dot __ __ . __ __ . __ __ . __ 
 72
    65
 73
     6
 40
33.0
 49
12.0
 74
     0
 49
-3.0
 74
     0
 49
12.0
 74
     0
 49
-3.0
 74
     0
 49
0.0
 74
     0
 49
-3.0
 74
     0
  0
LTYPE
  5
AE
330
5
100
AcDbSymbolTableRecord
100
AcDbLinetypeTableRecord
  2
ACAD_ISO12W100
 70
     0
  3
ISO dash double-dot __ . . __ . . __ . . __ . .
 72
    65
 73
     6
 40
21.0
 49
12.0
 74
     0
 49
-3.0
 74
     0
 49
0.0
 74
     0
 49
-3.0
 74
     0
 49
0.0
 74
     0
 49
-3.0
 74
     0
  0
LTYPE
  5
AF
330
5
100
AcDbSymbolTableRecord
100
AcDbLinetypeTableRecord
  2
ACAD_ISO13W100
 70
     0
  3
ISO double-dash double-dot __ __ . . __ __ . . 
 72
    65
 73
     8
 40
36.0
 49
12.0
 74
     0
 49
-3.0
 74
     0
 49
12.0
 74
     0
 49
-3.0
 74
     0
 49
0.0
 74
     0
 49
-3.0
 74
     0
 49
0.0
 74
     0
 49
-3.0
 74
     0
  0
LTYPE
  5
B0
330
5
100
AcDbSymbolTableRecord
100
AcDbLinetypeTableRecord
  2
ACAD_ISO14W100
 70
     0
  3
ISO dash triple-dot __ . . . __ . . . __ . . . 
 72
    65
 73
     8
 40
24.0
 49
12.0
 74
     0
 49
-3.0
 74
     0
 49
0.0
 74
     0
 49
-3.0
 74
     0
 49
0.0
 74
     0
 49
-3.0
 74
     0
 49
0.0
 74
     0
 49
-3.0
 74
     0
  0
LTYPE
  5
B1
330
5
100
AcDbSymbolTableRecord
100
AcDbLinetypeTableRecord
  2
ACAD_ISO15W100
 70
     0
  3
ISO double-dash triple-dot __ __ . . . __ __ . 
 72
    65
 73
    10
 40
39.0
 49
12.0
 74
     0
 49
-3.0
 74
     0
 49
12.0
 74
     0
 49
-3.0
 74
     0
 49
0.0
 74
     0
 49
-3.0
 74
     0
 49
0.0
 74
     0
 49
-3.0
 74
     0
 49
0.0
 74
     0
 49
-3.0
 74
     0
  0
LTYPE
  5
B4
330
5
100
AcDbSymbolTableRecord
100
AcDbLinetypeTableRecord
  2
FENCELINE1
 70
     0
  3
Fenceline circle ----0-----0----0-----0----0---
 72
    65
 73
     4
 40
36.83
 49
6.349999999999999
 74
     0
 49
-2.54
 74
     4
 75
   133
340
B3
 46
2.54
 50
0.0
 44
-2.54
 45
0.0
 49
-2.54
 74
     0
 49
25.4
 74
     0
  0
LTYPE
  5
B5
330
5
100
AcDbSymbolTableRecord
100
AcDbLinetypeTableRecord
  2
FENCELINE2
 70
     0
  3
Fenceline square ----[]-----[]----[]-----[]----
 72
    65
 73
     4
 40
36.83
 49
6.349999999999999
 74
     0
 49
-2.54
 74
     4
 75
   132
340
B3
 46
2.54
 50
0.0
 44
-2.54
 45
0.0
 49
-2.54
 74
     0
 49
25.4
 74
     0
  0
LTYPE
  5
B6
330
5
100
AcDbSymbolTableRecord
100
AcDbLinetypeTableRecord
  2
TRACKS
 70
     0
  3
Tracks -|-|-|-|-|-|-|-|-|-|-|-|-|-|-|-|-|-|-|-|
 72
    65
 73
     2
 40
7.62
 49
3.81
 74
     4
 75
   130
340
B3
 46
6.349999999999999
 50
0.0
 44
0.0
 45
0.0
 49
3.81
 74
     0
  0
LTYPE
  5
B7
330
5
100
AcDbSymbolTableRecord
100
AcDbLinetypeTableRecord
  2
BATTING
 70
     0
  3
Batting SSSSSSSSSSSSSSSSSSSSSSSSSSSSSSSSSSSSSSS
 72
    65
 73
     4
 40
10.16254
 49
0.00254
 74
     0
 49
-2.54
 74
     4
 75
   134
340
B3
 46
2.54
 50
0.0
 44
-2.54
 45
0.0
 49
-5.08
 74
     4
 75
   134
340
B3
 46
2.54
 50
180.0
 44
2.54
 45
0.0
 49
-2.54
 74
     0
  0
LTYPE
  5
B8
330
5
100
AcDbSymbolTableRecord
100
AcDbLinetypeTableRecord
  2
HOT_WATER_SUPPLY
 70
     0
  3
Hot water supply ---- HW ---- HW ---- HW ----
 72
    65
 73
     3
 40
22.86
 49
12.7
 74
     0
 49
-5.08
 74
     2
 75
     0
340
60
 46
2.54
 50
0.0
 44
-2.54
 45
-1.27
  9
HW
 49
-5.08
 74
     0
  0
LTYPE
  5
B9
330
5
100
AcDbSymbolTableRecord
100
AcDbLinetypeTableRecord
  2
GAS_LINE
 70
     0
  3
Gas line ----GAS----GAS----GAS----GAS----GAS---
 72
    65
 73
     3
 40
24.13
 49
12.7
 74
     0
 49
-5.08
 74
     2
 75
     0
340
60
 46
2.54
 50
0.0
 44
-2.54
 45
-1.27
  9
GAS
 49
-6.349999999999999
 74
     0
  0
LTYPE
  5
BA
330
5
100
AcDbSymbolTableRecord
100
AcDbLinetypeTableRecord
  2
ZIGZAG
 70
     0
  3
Zig zag /\/\/\/\/\/\/\/\/\/\/\/\/\/\/\/\/\/\/\/
 72
    65
 73
     4
 40
20.32254
 49
0.00254
 74
     0
 49
-5.08
 74
     4
 75
   131
340
B3
 46
5.08
 50
0.0
 44
-5.08
 45
0.0
 49
-10.16
 74
     4
 75
   131
340
B3
 46
5.08
 50
180.0
 44
5.08
 45
0.0
 49
-5.08
 74
     0
  0
LTYPE
  5
BF3
330
5
100
AcDbSymbolTableRecord
100
AcDbLinetypeTableRecord
  2
AM_ISO02W050
 70
     0
  3
__ __ __ __ __ __ __ __ __ __ __ __ __ __ __
 72
    65
 73
     2
 40
7.5
 49
6.0
 74
     0
 49
-1.5
 74
     0
  0
LTYPE
  5
BF4
330
5
100
AcDbSymbolTableRecord
100
AcDbLinetypeTableRecord
  2
AM_ISO08W050
 70
     0
  3
____ . ____ . ____ . ____ . ____ . ____ . ____
 72
    65
 73
     4
 40
18.0
 49
12.0
 74
     0
 49
-1.5
 74
     0
 49
3.0
 74
     0
 49
-1.5
 74
     0
  0
LTYPE
  5
BF5
330
5
100
AcDbSymbolTableRecord
100
AcDbLinetypeTableRecord
  2
AM_ISO09W050
 70
     0
  3
_____ . . _____ . . _____ . . ____ .. ____
 72
    65
 73
     6
 40
22.5
 49
12.0
 74
     0
 49
-1.5
 74
     0
 49
3.0
 74
     0
 49
-1.5
 74
     0
 49
3.0
 74
     0
 49
-1.5
 74
     0
  0
LTYPE
  5
BF6
330
5
100
AcDbSymbolTableRecord
100
AcDbLinetypeTableRecord
  2
Amconstr
 70
     0
  3
_______________________
 72
    65
 73
     2
 40
9999.0
 49
9999.0
 74
     0
 49
0.0
 74
     0
  0
LTYPE
  5
BF7
330
5
100
AcDbSymbolTableRecord
100
AcDbLinetypeTableRecord
  2
AM_ISO08W050x2
 70
     0
  3
__ . __ . __ . __ . __ . __
 72
    65
 73
     4
 40
9.0
 49
6.0
 74
     0
 49
-0.75
 74
     0
 49
1.5
 74
     0
 49
-0.75
 74
     0
  0
LTYPE
  5
BF8
330
5
100
AcDbSymbolTableRecord
100
AcDbLinetypeTableRecord
  2
AM_ISO02W050x2
 70
     0
  3
 _ _ _ _ _ _ _ _ _ _ _ _
 72
    65
 73
     2
 40
3.75
 49
3.0
 74
     0
 49
-0.75
 74
     0
  0
LTYPE
  5
BFB
330
5
100
AcDbSymbolTableRecord
100
AcDbLinetypeTableRecord
  2
Amzigzag
 70
     0
  3
/\/-/\/-/\/-/\/-/\/-/\/
 72
    65
 73
     2
 40
11.0001
 49
0.0001
 74
     4
 75
   136
340
BFA
 46
0.04
 50
0.0
 44
0.0
 45
0.0
 49
-11.0
 74
     0
  0
LTYPE
  5
BFF
330
5
100
AcDbSymbolTableRecord
100
AcDbLinetypeTableRecord
  2
ACISOWELD
 70
     0
  3
_ _ _ _ _
 72
    65
 73
     2
 40
2.0
 49
2.0
 74
     0
 49
-1.0
 74
     0
  0
LTYPE
  5
C00
330
5
100
AcDbSymbolTableRecord
100
AcDbLinetypeTableRecord
  2
ACISOTGB
 70
     0
  3
__ . . __ . .
 72
    65
 73
     6
 40
9.0
 49
4.0
 74
     0
 49
-1.0
 74
     0
 49
1.0
 74
     0
 49
-1.0
 74
     0
 49
1.0
 74
     0
 49
-1.0
 74
     0
  0
LTYPE
  5
C01
330
5
100
AcDbSymbolTableRecord
100
AcDbLinetypeTableRecord
  2
ACISOTGL
 70
     0
  3
_ _ _ _ _
 72
    65
 73
     2
 40
3.0
 49
2.0
 74
     0
 49
-1.0
 74
     0
  0
ENDTAB
  0
TABLE
  2
LAYER
  5
2
330
0
100
AcDbSymbolTable
 70
    10
  0
LAYER
  5
5F
330
2
100
AcDbSymbolTableRecord
100
AcDbLayerTableRecord
  2
0
 70
     0
 62
     7
  6
Continuous
370
    -3
390
F
  0
LAYER
  5
C1
330
2
100
AcDbSymbolTableRecord
100
AcDbLayerTableRecord
  2
Bordo_0
 70
     0
 62
   179
  6
Continuous
370
    50
390
F
  0
LAYER
  5
C2
330
2
100
AcDbSymbolTableRecord
100
AcDbLayerTableRecord
  2
Bordo_2
 70
     0
 62
   179
  6
Continuous
370
    50
390
F
  0
LAYER
  5
C7
330
2
100
AcDbSymbolTableRecord
100
AcDbLayerTableRecord
  2
Centro(ISO)
 70
     0
 62
   150
  6
Continuous
370
    18
390
F
  0
LAYER
  5
DF
330
2
100
AcDbSymbolTableRecord
100
AcDbLayerTableRecord
  2
Geometria schizzo(ISO)
 70
     0
 62
   179
  6
Continuous
370
    35
390
F
  0
LAYER
  5
15F
330
2
100
AcDbSymbolTableRecord
100
AcDbLayerTableRecord
  2
Quote(ISO)
 70
     0
 62
    96
  6
Continuous
370
    18
390
F
  0
LAYER
  5
165
330
2
100
AcDbSymbolTableRecord
100
AcDbLayerTableRecord
  2
Simboli(ISO)
 70
     0
 62
   179
  6
Continuous
370
    18
390
F
  0
LAYER
  5
18A
330
2
100
AcDbSymbolTableRecord
100
AcDbLayerTableRecord
  2
Spigoli visibili(ISO)
 70
     0
 62
   179
  6
Continuous
370
    35
390
F
  0
LAYER
  5
18C
330
2
100
AcDbSymbolTableRecord
100
AcDbLayerTableRecord
  2
Tratteggio
 70
     0
 62
     1
  6
Continuous
370
     9
390
F
  0
LAYER
  5
4AC
330
2
100
AcDbSymbolTableRecord
100
AcDbLayerTableRecord
  2
Defpoints
 70
     0
 62
     7
  6
Continuous
290
     0
370
    -3
390
F
  0
ENDTAB
  0
TABLE
  2
STYLE
  5
3
330
0
100
AcDbSymbolTable
 70
    65
  0
STYLE
  5
60
330
3
100
AcDbSymbolTableRecord
100
AcDbTextStyleTableRecord
  2
Standard
 70
     0
 40
0.0
 41
1.0
 50
0.0
 71
     0
 42
0.2
  3
ARIAL.TTF
  4

1001
ACAD
1000
Arial
1071
      256
  0
STYLE
  5
65
330
3
100
AcDbSymbolTableRecord
100
AcDbTextStyleTableRecord
  2
Annotative
 70
     0
 40
0.0
 41
1.0
 50
0.0
 71
     0
 42
0.2
  3
txt
  4

1001
AcadAnnotative
1000
AnnotativeData
1002
{
1070
     1
1070
     1
1002
}
  0
STYLE
  5
B3
330
3
100
AcDbSymbolTableRecord
100
AcDbTextStyleTableRecord
  2

 70
     1
 40
0.0
 41
1.0
 50
0.0
 71
     0
 42
0.2
  3
ltypeshp.shx
  4

  0
STYLE
  5
18D
330
3
100
AcDbSymbolTableRecord
100
AcDbTextStyleTableRecord
  2
Bordo_1
 70
     0
 40
0.0
 41
1.0
 50
0.0
 71
     0
 42
0.2
  3
ARIAL.TTF
  4

1001
ACAD
1000
Arial
1071
      256
  0
STYLE
  5
18E
330
3
100
AcDbSymbolTableRecord
100
AcDbTextStyleTableRecord
  2
Corrente-ANSI
 70
     0
 40
0.0
 41
1.0
 50
0.0
 71
     0
 42
0.2
  3
ARIAL.TTF
  4

1001
ACAD
1000
Arial
1071
      256
  0
STYLE
  5
18F
330
3
100
AcDbSymbolTableRecord
100
AcDbTextStyleTableRecord
  2
Corrente-BSI
 70
     0
 40
0.0
 41
1.0
 50
0.0
 71
     0
 42
0.2
  3
ARIAL.TTF
  4

1001
ACAD
1000
Arial
1071
      256
  0
STYLE
  5
190
330
3
100
AcDbSymbolTableRecord
100
AcDbTextStyleTableRecord
  2
Corrente-DIN
 70
     0
 40
0.0
 41
1.0
 50
0.0
 71
     0
 42
0.2
  3
ARIAL.TTF
  4

1001
ACAD
1000
Arial
1071
      256
  0
STYLE
  5
191
330
3
100
AcDbSymbolTableRecord
100
AcDbTextStyleTableRecord
  2
Corrente-GB
 70
     0
 40
0.0
 41
1.0
 50
0.0
 71
     0
 42
0.2
  3
ARIAL.TTF
  4

1001
ACAD
1000
Arial
1071
      256
  0
STYLE
  5
192
330
3
100
AcDbSymbolTableRecord
100
AcDbTextStyleTableRecord
  2
Corrente-ISO
 70
     0
 40
0.0
 41
1.0
 50
0.0
 71
     0
 42
0.2
  3
ARIAL.TTF
  4

1001
ACAD
1000
Arial
1071
      256
  0
STYLE
  5
193
330
3
100
AcDbSymbolTableRecord
100
AcDbTextStyleTableRecord
  2
Corrente-JIS
 70
     0
 40
0.0
 41
1.0
 50
0.0
 71
     0
 42
0.2
  3
ARIAL.TTF
  4

1001
ACAD
1000
Arial
1071
      256
  0
STYLE
  5
194
330
3
100
AcDbSymbolTableRecord
100
AcDbTextStyleTableRecord
  2
DEFAULT-ANSI
 70
     0
 40
0.0
 41
1.0
 50
0.0
 71
     0
 42
0.2
  3
ARIAL.TTF
  4

1001
ACAD
1000
Arial
1071
      256
  0
STYLE
  5
195
330
3
100
AcDbSymbolTableRecord
100
AcDbTextStyleTableRecord
  2
DEFAULT-ANSI~0
 70
     0
 40
0.0
 41
1.0
 50
0.0
 71
     0
 42
0.2
  3
ARIAL.TTF
  4

1001
ACAD
1000
Arial
1071
      256
  0
STYLE
  5
196
330
3
100
AcDbSymbolTableRecord
100
AcDbTextStyleTableRecord
  2
DEFAULT-ANSIDa layer
 70
     0
 40
0.0
 41
1.0
 50
0.0
 71
     0
 42
0.2
  3
ARIAL.TTF
  4

1001
ACAD
1000
Arial
1071
      256
  0
STYLE
  5
197
330
3
100
AcDbSymbolTableRecord
100
AcDbTextStyleTableRecord
  2
DEFAULT-ANSITesto caratteri grandi
 70
     0
 40
0.0
 41
1.0
 50
0.0
 71
     0
 42
0.2
  3
ARIAL.TTF
  4

1001
ACAD
1000
Arial
1071
      256
  0
STYLE
  5
198
330
3
100
AcDbSymbolTableRecord
100
AcDbTextStyleTableRecord
  2
DEFAULT-BSI
 70
     0
 40
0.0
 41
1.0
 50
0.0
 71
     0
 42
0.2
  3
ARIAL.TTF
  4

1001
ACAD
1000
Arial
1071
      256
  0
STYLE
  5
199
330
3
100
AcDbSymbolTableRecord
100
AcDbTextStyleTableRecord
  2
DEFAULT-BSIDa layer
 70
     0
 40
0.0
 41
1.0
 50
0.0
 71
     0
 42
0.2
  3
ARIAL.TTF
  4

1001
ACAD
1000
Arial
1071
      256
  0
STYLE
  5
19A
330
3
100
AcDbSymbolTableRecord
100
AcDbTextStyleTableRecord
  2
DEFAULT-BSITesto caratteri grandi
 70
     0
 40
0.0
 41
1.0
 50
0.0
 71
     0
 42
0.2
  3
ARIAL.TTF
  4

1001
ACAD
1000
Arial
1071
      256
  0
STYLE
  5
19B
330
3
100
AcDbSymbolTableRecord
100
AcDbTextStyleTableRecord
  2
DEFAULT-DIN
 70
     0
 40
0.0
 41
1.0
 50
0.0
 71
     0
 42
0.2
  3
ARIAL.TTF
  4

1001
ACAD
1000
Arial
1071
      256
  0
STYLE
  5
19C
330
3
100
AcDbSymbolTableRecord
100
AcDbTextStyleTableRecord
  2
DEFAULT-DINDa layer
 70
     0
 40
0.0
 41
1.0
 50
0.0
 71
     0
 42
0.2
  3
ARIAL.TTF
  4

1001
ACAD
1000
Arial
1071
      256
  0
STYLE
  5
19D
330
3
100
AcDbSymbolTableRecord
100
AcDbTextStyleTableRecord
  2
DEFAULT-DINTesto caratteri grandi
 70
     0
 40
0.0
 41
1.0
 50
0.0
 71
     0
 42
0.2
  3
ARIAL.TTF
  4

1001
ACAD
1000
Arial
1071
      256
  0
STYLE
  5
19E
330
3
100
AcDbSymbolTableRecord
100
AcDbTextStyleTableRecord
  2
DEFAULT-GB
 70
     0
 40
0.0
 41
1.0
 50
0.0
 71
     0
 42
0.2
  3
ARIAL.TTF
  4

1001
ACAD
1000
Arial
1071
      256
  0
STYLE
  5
19F
330
3
100
AcDbSymbolTableRecord
100
AcDbTextStyleTableRecord
  2
DEFAULT-GBDa layer
 70
     0
 40
0.0
 41
1.0
 50
0.0
 71
     0
 42
0.2
  3
ARIAL.TTF
  4

1001
ACAD
1000
Arial
1071
      256
  0
STYLE
  5
1A0
330
3
100
AcDbSymbolTableRecord
100
AcDbTextStyleTableRecord
  2
DEFAULT-GBTesto caratteri grandi
 70
     0
 40
0.0
 41
1.0
 50
0.0
 71
     0
 42
0.2
  3
ARIAL.TTF
  4

1001
ACAD
1000
Arial
1071
      256
  0
STYLE
  5
1A1
330
3
100
AcDbSymbolTableRecord
100
AcDbTextStyleTableRecord
  2
DEFAULT-ISO
 70
     0
 40
0.0
 41
1.0
 50
0.0
 71
     0
 42
0.2
  3
ARIAL.TTF
  4

1001
ACAD
1000
Arial
1071
      256
  0
STYLE
  5
1A2
330
3
100
AcDbSymbolTableRecord
100
AcDbTextStyleTableRecord
  2
DEFAULT-ISO~0
 70
     0
 40
0.0
 41
1.0
 50
0.0
 71
     0
 42
0.2
  3
ARIAL.TTF
  4

1001
ACAD
1000
Arial
1071
      256
  0
STYLE
  5
1A3
330
3
100
AcDbSymbolTableRecord
100
AcDbTextStyleTableRecord
  2
DEFAULT-ISODa layer
 70
     0
 40
0.0
 41
1.0
 50
0.0
 71
     0
 42
0.2
  3
ARIAL.TTF
  4

1001
ACAD
1000
Arial
1071
      256
  0
STYLE
  5
1A4
330
3
100
AcDbSymbolTableRecord
100
AcDbTextStyleTableRecord
  2
DEFAULT-ISOTesto caratteri grandi
 70
     0
 40
0.0
 41
1.0
 50
0.0
 71
     0
 42
0.2
  3
ARIAL.TTF
  4

1001
ACAD
1000
Arial
1071
      256
  0
STYLE
  5
1A5
330
3
100
AcDbSymbolTableRecord
100
AcDbTextStyleTableRecord
  2
DEFAULT-JIS
 70
     0
 40
0.0
 41
1.0
 50
0.0
 71
     0
 42
0.2
  3
ARIAL.TTF
  4

1001
ACAD
1000
Arial
1071
      256
  0
STYLE
  5
1A6
330
3
100
AcDbSymbolTableRecord
100
AcDbTextStyleTableRecord
  2
DEFAULT-JIS~0
 70
     0
 40
0.0
 41
1.0
 50
0.0
 71
     0
 42
0.2
  3
ARIAL.TTF
  4

1001
ACAD
1000
Arial
1071
      256
  0
STYLE
  5
1A7
330
3
100
AcDbSymbolTableRecord
100
AcDbTextStyleTableRecord
  2
DEFAULT-JISDa layer
 70
     0
 40
0.0
 41
1.0
 50
0.0
 71
     0
 42
0.2
  3
ARIAL.TTF
  4

1001
ACAD
1000
Arial
1071
      256
  0
STYLE
  5
1A8
330
3
100
AcDbSymbolTableRecord
100
AcDbTextStyleTableRecord
  2
DEFAULT-JISTesto caratteri grandi
 70
     0
 40
0.0
 41
1.0
 50
0.0
 71
     0
 42
0.2
  3
ARIAL.TTF
  4

1001
ACAD
1000
Arial
1071
      256
  0
STYLE
  5
1A9
330
3
100
AcDbSymbolTableRecord
100
AcDbTextStyleTableRecord
  2
ISOCADMEC_1-1
 70
     0
 40
0.0
 41
1.064000010490417
 50
0.0
 71
     0
 42
0.2
  3
ARIAL.TTF
  4

1001
ACAD
1000
Arial
1071
      256
  0
STYLE
  5
1AA
330
3
100
AcDbSymbolTableRecord
100
AcDbTextStyleTableRecord
  2
MM-ANSI
 70
     0
 40
0.0
 41
1.0
 50
0.0
 71
     0
 42
0.2
  3
ARIAL.TTF
  4

1001
ACAD
1000
Arial
1071
      256
  0
STYLE
  5
1AB
330
3
100
AcDbSymbolTableRecord
100
AcDbTextStyleTableRecord
  2
STANDARDAM_ISO
 70
     0
 40
0.0
 41
1.064000010490417
 50
0.0
 71
     0
 42
0.2
  3
ISOCP.shx
  4

  0
STYLE
  5
1AC
330
3
100
AcDbSymbolTableRecord
100
AcDbTextStyleTableRecord
  2
STANDARDAM_ISO$3
 70
     0
 40
0.0
 41
1.064000010490417
 50
0.0
 71
     0
 42
0.2
  3
ISOCP.shx
  4

  0
STYLE
  5
1AD
330
3
100
AcDbSymbolTableRecord
100
AcDbTextStyleTableRecord
  2
STANDARDAM_ISO$4
 70
     0
 40
0.0
 41
1.064000010490417
 50
0.0
 71
     0
 42
0.2
  3
ISOCP.shx
  4

  0
STYLE
  5
1AE
330
3
100
AcDbSymbolTableRecord
100
AcDbTextStyleTableRecord
  2
STANDARDAM_ISO$6
 70
     0
 40
0.0
 41
1.064000010490417
 50
0.0
 71
     0
 42
0.2
  3
ISOCP.shx
  4

  0
STYLE
  5
1AF
330
3
100
AcDbSymbolTableRecord
100
AcDbTextStyleTableRecord
  2
STANDARDAM_ISO$7
 70
     0
 40
0.0
 41
1.064000010490417
 50
0.0
 71
     0
 42
0.2
  3
ISOCP.shx
  4

  0
STYLE
  5
1B0
330
3
100
AcDbSymbolTableRecord
100
AcDbTextStyleTableRecord
  2
STANDARDAM_ISO$SF
 70
     0
 40
0.0
 41
1.064000010490417
 50
0.0
 71
     0
 42
0.2
  3
ISOCP.shx
  4

  0
STYLE
  5
1B1
330
3
100
AcDbSymbolTableRecord
100
AcDbTextStyleTableRecord
  2
STANDARDAM_ISO$SH
 70
     0
 40
0.0
 41
1.064000010490417
 50
0.0
 71
     0
 42
0.2
  3
ISOCP.shx
  4

  0
STYLE
  5
1B2
330
3
100
AcDbSymbolTableRecord
100
AcDbTextStyleTableRecord
  2
STANDARDGEN-ISO
 70
     0
 40
0.0
 41
1.064000010490417
 50
0.0
 71
     0
 42
0.2
  3
ISOCP.shx
  4

  0
STYLE
  5
1B3
330
3
100
AcDbSymbolTableRecord
100
AcDbTextStyleTableRecord
  2
STANDARDGEN-ISO-AXE-F
 70
     0
 40
0.0
 41
1.064000010490417
 50
0.0
 71
     0
 42
0.2
  3
ISOCP.shx
  4

  0
STYLE
  5
1B4
330
3
100
AcDbSymbolTableRecord
100
AcDbTextStyleTableRecord
  2
STANDARDGEN-ISO-AXE-H
 70
     0
 40
0.0
 41
1.064000010490417
 50
0.0
 71
     0
 42
0.2
  3
ISOCP.shx
  4

  0
STYLE
  5
1B5
330
3
100
AcDbSymbolTableRecord
100
AcDbTextStyleTableRecord
  2
STANDARDGEN-ISO-POS
 70
     0
 40
0.0
 41
1.064000010490417
 50
0.0
 71
     0
 42
0.2
  3
ISOCP.shx
  4

  0
STYLE
  5
1B6
330
3
100
AcDbSymbolTableRecord
100
AcDbTextStyleTableRecord
  2
STANDARDGEN-ISO$3
 70
     0
 40
0.0
 41
1.064000010490417
 50
0.0
 71
     0
 42
0.2
  3
ISOCP.shx
  4

  0
STYLE
  5
1B7
330
3
100
AcDbSymbolTableRecord
100
AcDbTextStyleTableRecord
  2
STANDARDGEN-ISO$4
 70
     0
 40
0.0
 41
1.064000010490417
 50
0.0
 71
     0
 42
0.2
  3
ISOCP.shx
  4

  0
STYLE
  5
1B8
330
3
100
AcDbSymbolTableRecord
100
AcDbTextStyleTableRecord
  2
STANDARDGEN-ISO$6
 70
     0
 40
0.0
 41
1.064000010490417
 50
0.0
 71
     0
 42
0.2
  3
ISOCP.shx
  4

  0
STYLE
  5
1B9
330
3
100
AcDbSymbolTableRecord
100
AcDbTextStyleTableRecord
  2
STANDARDISO-25
 70
     0
 40
0.0
 41
1.064000010490417
 50
0.0
 71
     0
 42
0.2
  3
ISOCP.shx
  4

  0
STYLE
  5
1BA
330
3
100
AcDbSymbolTableRecord
100
AcDbTextStyleTableRecord
  2
STANDARDISO-35
 70
     0
 40
0.0
 41
1.064000010490417
 50
0.0
 71
     0
 42
0.2
  3
ISOCP.shx
  4

  0
STYLE
  5
1BB
330
3
100
AcDbSymbolTableRecord
100
AcDbTextStyleTableRecord
  2
STANDARDISO-5
 70
     0
 40
0.0
 41
1.064000010490417
 50
0.0
 71
     0
 42
0.2
  3
ISOCP.shx
  4

  0
STYLE
  5
1BC
330
3
100
AcDbSymbolTableRecord
100
AcDbTextStyleTableRecord
  2
STANDARDISO-7
 70
     0
 40
0.0
 41
1.064000010490417
 50
0.0
 71
     0
 42
0.2
  3
ISOCP.shx
  4

  0
STYLE
  5
1BD
330
3
100
AcDbSymbolTableRecord
100
AcDbTextStyleTableRecord
  2
STANDARDISO1
 70
     0
 40
0.0
 41
1.064000010490417
 50
0.0
 71
     0
 42
0.2
  3
ISOCP.shx
  4

  0
STYLE
  5
1BE
330
3
100
AcDbSymbolTableRecord
100
AcDbTextStyleTableRecord
  2
STANDARDISO1-4
 70
     0
 40
0.0
 41
1.064000010490417
 50
0.0
 71
     0
 42
0.2
  3
ISOCP.shx
  4

  0
STYLE
  5
1BF
330
3
100
AcDbSymbolTableRecord
100
AcDbTextStyleTableRecord
  2
STANDARDISO2
 70
     0
 40
0.0
 41
1.064000010490417
 50
0.0
 71
     0
 42
0.2
  3
ISOCP.shx
  4

  0
STYLE
  5
1C0
330
3
100
AcDbSymbolTableRecord
100
AcDbTextStyleTableRecord
  2
STANDARDSTANDARD
 70
     0
 40
0.0
 41
1.064000010490417
 50
0.0
 71
     0
 42
0.2
  3
ISOCP.shx
  4

  0
STYLE
  5
1C1
330
3
100
AcDbSymbolTableRecord
100
AcDbTextStyleTableRecord
  2
X . XXX
 70
     0
 40
0.0
 41
1.0
 50
0.0
 71
     0
 42
0.2
  3
ARIAL.TTF
  4

1001
ACAD
1000
Arial
1071
      256
  0
STYLE
  5
1C2
330
3
100
AcDbSymbolTableRecord
100
AcDbTextStyleTableRecord
  2
X.X spazio grande e testo
 70
     0
 40
0.0
 41
1.0
 50
0.0
 71
     0
 42
0.2
  3
ARIAL.TTF
  4

1001
ACAD
1000
Arial
1071
      256
  0
STYLE
  5
27E
330
3
100
AcDbSymbolTableRecord
100
AcDbTextStyleTableRecord
  2
Stile testo15
 70
     0
 40
0.0
 41
1.0
 50
0.0
 71
     0
 42
0.2
  3
ARIAL.TTF
  4

1001
ACAD
1000
Arial
1071
      256
  0
STYLE
  5
283
330
3
100
AcDbSymbolTableRecord
100
AcDbTextStyleTableRecord
  2
Stile testo116
 70
     0
 40
0.0
 41
0.899999976158142
 50
0.0
 71
     0
 42
0.2
  3
ARIAL.TTF
  4

1001
ACAD
1000
Arial
1071
      256
  0
STYLE
  5
285
330
3
100
AcDbSymbolTableRecord
100
AcDbTextStyleTableRecord
  2
Stile testo115
 70
     0
 40
0.0
 41
0.899999976158142
 50
0.0
 71
     0
 42
0.2
  3
ARIAL.TTF
  4

1001
ACAD
1000
Arial
1071
      256
  0
STYLE
  5
466
330
3
100
AcDbSymbolTableRecord
100
AcDbTextStyleTableRecord
  2
Stile testo6
 70
     0
 40
0.0
 41
1.0
 50
0.0
 71
     0
 42
0.2
  3
ARIAL.TTF
  4

1001
ACAD
1000
Arial
1071
      256
  0
STYLE
  5
469
330
3
100
AcDbSymbolTableRecord
100
AcDbTextStyleTableRecord
  2
Stile testo135
 70
     0
 40
0.0
 41
0.75
 50
0.0
 71
     0
 42
0.2
  3

  4

1001
ACAD
1000
Arial Black
1071
      256
  0
STYLE
  5
BFA
330
3
100
AcDbSymbolTableRecord
100
AcDbTextStyleTableRecord
  2

 70
     1
 40
0.0
 41
1.0
 50
0.0
 71
     0
 42
0.2
  3
genltshp.shx
  4

  0
STYLE
  5
BFD
330
3
100
AcDbSymbolTableRecord
100
AcDbTextStyleTableRecord
  2
ACISOTS
 70
     0
 40
1.0
 41
1.0
 50
0.0
 71
     0
 42
0.2
  3
isocp.shx
  4

  0
STYLE
  5
BFE
330
3
100
AcDbSymbolTableRecord
100
AcDbTextStyleTableRecord
  2
ACISOGDT
 70
     0
 40
0.0
 41
1.0
 50
0.0
 71
     0
 42
0.2
  3
amgdt.shx
  4

  0
ENDTAB
  0
TABLE
  2
VIEW
  5
6
330
0
100
AcDbSymbolTable
 70
     0
  0
ENDTAB
  0
TABLE
  2
UCS
  5
7
330
0
100
AcDbSymbolTable
 70
     0
  0
ENDTAB
  0
TABLE
  2
APPID
  5
9
330
0
100
AcDbSymbolTable
 70
    14
  0
APPID
  5
61
330
9
100
AcDbSymbolTableRecord
100
AcDbRegAppTableRecord
  2
ACAD
 70
     0
  0
APPID
  5
69
330
9
100
AcDbSymbolTableRecord
100
AcDbRegAppTableRecord
  2
AcadAnnotative
 70
     0
  0
APPID
  5
281
330
9
100
AcDbSymbolTableRecord
100
AcDbRegAppTableRecord
  2
AcadAnnoPO
 70
     0
  0
APPID
  5
9A9
330
9
100
AcDbSymbolTableRecord
100
AcDbRegAppTableRecord
  2
ACAD_DSTYLE_DIMRADIAL_EXTENSION
 70
     0
  0
APPID
  5
B42
330
9
100
AcDbSymbolTableRecord
100
AcDbRegAppTableRecord
  2
ACAD_MLEADERVER
 70
     0
  0
APPID
  5
B7F
330
9
100
AcDbSymbolTableRecord
100
AcDbRegAppTableRecord
  2
MCAD_NO_VIS
 70
     0
  0
APPID
  5
B80
330
9
100
AcDbSymbolTableRecord
100
AcDbRegAppTableRecord
  2
ACAD_TEMP_GRAPHIC
 70
     0
  0
APPID
  5
BAD
330
9
100
AcDbSymbolTableRecord
100
AcDbRegAppTableRecord
  2
AD_DRAW
 70
     0
  0
APPID
  5
BB0
330
9
100
AcDbSymbolTableRecord
100
AcDbRegAppTableRecord
  2
ACATTRIBSERVICES
 70
     0
  0
APPID
  5
BD0
330
9
100
AcDbSymbolTableRecord
100
AcDbRegAppTableRecord
  2
DESIGNERASSEMBLIES
 70
     0
  0
APPID
  5
BD6
330
9
100
AcDbSymbolTableRecord
100
AcDbRegAppTableRecord
  2
ACADM_DIM_EDIT
 70
     0
  0
APPID
  5
BD7
330
9
100
AcDbSymbolTableRecord
100
AcDbRegAppTableRecord
  2
AMDT_DM_ADJ
 70
     0
  0
APPID
  5
BEF
330
9
100
AcDbSymbolTableRecord
100
AcDbRegAppTableRecord
  2
ACAD_DSTYLE_DIMBREAK
 70
     0
  0
APPID
  5
BF0
330
9
100
AcDbSymbolTableRecord
100
AcDbRegAppTableRecord
  2
ACAD_DSTYLE_DIMJAG
 70
     0
  0
ENDTAB
  0
TABLE
  2
DIMSTYLE
  5
A
330
0
100
AcDbSymbolTable
 70
   100
100
AcDbDimStyleTable
 71
     2
340
1E7
340
63
  0
DIMSTYLE
105
63
330
A
100
AcDbSymbolTableRecord
100
AcDbDimStyleTableRecord
  2
Standard
 70
     0
 41
2.5
340
60
342
1F0
  0
DIMSTYLE
105
64
330
A
100
AcDbSymbolTableRecord
100
AcDbDimStyleTableRecord
  2
Annotative
 70
     0
340
60
1001
AcadAnnotative
1000
AnnotativeData
1002
{
1070
     1
1070
     1
1002
}
  0
DIMSTYLE
105
1C3
330
A
100
AcDbSymbolTableRecord
100
AcDbDimStyleTableRecord
  2
BSI - Metodo 2
 70
     0
 41
2.5
 42
0.5
 43
5.999999999999999
 44
2.999999999999999
 45
0.00000001
 46
10.0
 73
     0
 77
     1
 78
     8
 79
     2
140
3.5
143
0.03937
147
0.75
171
     3
172
     1
176
   250
177
   250
178
   250
179
     2
271
     2
272
     2
274
     3
278
    44
285
     8
340
1A2
371
    25
372
    25
  0
DIMSTYLE
105
1C4
330
A
100
AcDbSymbolTableRecord
100
AcDbDimStyleTableRecord
  2
BSI - Metodo 2$7
 70
     0
 41
2.5
 42
0.5
 43
5.999999999999999
 44
2.999999999999999
 45
0.00000001
 46
10.0
 73
     0
 77
     1
 78
     8
 79
     2
140
3.5
143
0.03937
147
0.75
171
     3
172
     1
176
   179
177
   250
178
   250
179
     2
271
     2
272
     2
274
     3
278
    44
285
     8
340
1A2
371
    25
372
    25
  0
DIMSTYLE
105
1C5
330
A
100
AcDbSymbolTableRecord
100
AcDbDimStyleTableRecord
  2
BSI - Metodo 2Testo caratteri grandi
 70
     0
 41
5.0
 42
0.5
 43
5.999999999999999
 44
2.999999999999999
 45
0.00000001
 46
10.0
 73
     0
 77
     1
 78
     8
 79
     2
140
5.25
143
0.03937
146
0.6666666666666666
147
0.75
171
     3
172
     1
176
   250
177
   250
178
   179
179
     2
271
     2
272
     2
274
     3
278
    44
285
     8
340
19A
371
    25
372
    25
  0
DIMSTYLE
105
1C6
330
A
100
AcDbSymbolTableRecord
100
AcDbDimStyleTableRecord
  2
BSI - Metodo 2Testo caratteri grandi$7
 70
     0
 41
5.0
 42
0.5
 43
5.999999999999999
 44
2.999999999999999
 45
0.00000001
 46
10.0
 73
     0
 77
     1
 78
     8
 79
     2
140
5.25
143
0.03937
146
0.6666666666666666
147
0.75
171
     3
172
     1
176
   179
177
   250
178
   179
179
     2
271
     2
272
     2
274
     3
278
    44
285
     8
340
19A
371
    25
372
    25
  0
DIMSTYLE
105
1D5
330
A
100
AcDbSymbolTableRecord
100
AcDbDimStyleTableRecord
  2
DEFAULT-GB
 70
     0
 41
4.0
 42
0.0
 43
5.999999999999999
 44
5.0
 45
0.00000001
 46
10.0
 73
     0
 74
     0
 77
     1
 78
     8
 79
     2
140
3.5
143
0.03937
147
0.75
171
     3
172
     1
176
   250
177
   250
178
   250
179
     3
271
     2
272
     2
274
     3
275
     1
285
     8
340
1A2
341
1C7
342
1C7
371
    25
372
    25
  0
DIMSTYLE
105
1D6
330
A
100
AcDbSymbolTableRecord
100
AcDbDimStyleTableRecord
  2
DEFAULT-GB$7
 70
     0
 41
4.0
 42
0.0
 43
5.999999999999999
 44
5.0
 45
0.00000001
 46
10.0
 73
     0
 74
     0
 77
     1
 78
     8
 79
     2
140
3.5
143
0.03937
147
0.75
171
     3
172
     1
176
   179
177
   250
178
   250
179
     3
271
     2
272
     2
274
     3
275
     1
285
     8
340
1A2
341
1C7
342
1C7
371
    25
372
    25
  0
DIMSTYLE
105
1D7
330
A
100
AcDbSymbolTableRecord
100
AcDbDimStyleTableRecord
  2
DEFAULT-GBTesto caratteri grandi
 70
     0
 41
8.0
 42
0.0
 43
5.999999999999999
 44
5.0
 45
0.00000001
 46
10.0
 73
     0
 74
     0
 77
     1
 78
     8
 79
     2
140
5.25
143
0.03937
146
0.6666666666666666
147
0.75
171
     3
172
     1
176
   250
177
   250
178
   179
179
     3
271
     2
272
     2
274
     3
275
     1
285
     8
340
1A0
341
1C7
342
1C7
371
    25
372
    25
  0
DIMSTYLE
105
1D8
330
A
100
AcDbSymbolTableRecord
100
AcDbDimStyleTableRecord
  2
DEFAULT-GBTesto caratteri grandi$7
 70
     0
 41
8.0
 42
0.0
 43
5.999999999999999
 44
5.0
 45
0.00000001
 46
10.0
 73
     0
 74
     0
 77
     1
 78
     8
 79
     2
140
5.25
143
0.03937
146
0.6666666666666666
147
0.75
171
     3
172
     1
176
   179
177
   250
178
   179
179
     3
271
     2
272
     2
274
     3
275
     1
285
     8
340
1A0
341
1C7
342
1C7
371
    25
372
    25
  0
DIMSTYLE
105
1D9
330
A
100
AcDbSymbolTableRecord
100
AcDbDimStyleTableRecord
  2
DEFAULT-JIS - Metodo 2
 70
     0
 41
2.5
 42
0.0
 43
5.999999999999999
 44
3.174999999999999
 45
0.00000001
 46
10.0
 77
     1
140
4.5
143
0.03937
147
0.8
171
     3
172
     1
176
   250
177
   250
178
   250
271
     2
272
     2
274
     3
340
1A6
341
1DA
342
1DA
371
    25
372
    25
  0
DIMSTYLE
105
1E0
330
A
100
AcDbSymbolTableRecord
100
AcDbDimStyleTableRecord
  2
DEFAULT-JIS - Metodo 2$7
 70
     0
 41
2.5
 42
0.0
 43
5.999999999999999
 44
3.174999999999999
 45
0.00000001
 46
10.0
 77
     1
140
4.5
143
0.03937
147
0.8
171
     3
172
     1
176
   179
177
   250
178
   250
271
     2
272
     2
274
     3
340
1A6
341
1DA
342
1DA
371
    25
372
    25
  0
DIMSTYLE
105
1E1
330
A
100
AcDbSymbolTableRecord
100
AcDbDimStyleTableRecord
  2
DEFAULT-JIS - Metodo 2Testo caratteri grandi
 70
     0
 41
5.0
 42
0.0
 43
5.999999999999999
 44
3.174999999999999
 45
0.00000001
 46
10.0
 77
     1
140
6.749999523162841
143
0.03937
146
0.666666713761698
147
0.8
171
     3
172
     1
176
   250
177
   250
178
   179
271
     2
272
     2
274
     3
340
1A8
341
1DA
342
1DA
371
    25
372
    25
  0
DIMSTYLE
105
1E2
330
A
100
AcDbSymbolTableRecord
100
AcDbDimStyleTableRecord
  2
DEFAULT-JIS - Metodo 2Testo caratteri grandi$7
 70
     0
 41
5.0
 42
0.0
 43
5.999999999999999
 44
3.174999999999999
 45
0.00000001
 46
10.0
 77
     1
140
6.749999523162841
143
0.03937
146
0.666666713761698
147
0.8
171
     3
172
     1
176
   179
177
   250
178
   179
271
     2
272
     2
274
     3
340
1A8
341
1DA
342
1DA
371
    25
372
    25
  0
DIMSTYLE
105
1E3
330
A
100
AcDbSymbolTableRecord
100
AcDbDimStyleTableRecord
  2
DIN - Altro
 70
     0
 41
2.5
 42
0.0
 43
5.999999999999999
 44
3.174999999999999
 45
0.00000001
 46
10.0
 77
     1
140
3.5
143
0.03937
147
0.8
171
     3
172
     1
176
   250
177
   250
178
   250
271
     2
272
     2
274
     3
278
    44
340
1A2
371
    25
372
    25
  0
DIMSTYLE
105
1E4
330
A
100
AcDbSymbolTableRecord
100
AcDbDimStyleTableRecord
  2
DIN - Altro$7
 70
     0
 41
2.5
 42
0.0
 43
5.999999999999999
 44
3.174999999999999
 45
0.00000001
 46
10.0
 77
     1
140
3.5
143
0.03937
147
0.8
171
     3
172
     1
176
   179
177
   250
178
   250
271
     2
272
     2
274
     3
278
    44
340
1A2
371
    25
372
    25
  0
DIMSTYLE
105
1E5
330
A
100
AcDbSymbolTableRecord
100
AcDbDimStyleTableRecord
  2
DIN - AltroTesto caratteri grandi
 70
     0
 41
5.0
 42
0.0
 43
5.999999999999999
 44
3.174999999999999
 45
0.00000001
 46
10.0
 77
     1
140
5.25
143
0.03937
146
0.6666666666666666
147
0.8
171
     3
172
     1
176
   250
177
   250
178
   179
271
     2
272
     2
274
     3
278
    44
340
19D
371
    25
372
    25
  0
DIMSTYLE
105
1E6
330
A
100
AcDbSymbolTableRecord
100
AcDbDimStyleTableRecord
  2
DIN - AltroTesto caratteri grandi$7
 70
     0
 41
5.0
 42
0.0
 43
5.999999999999999
 44
3.174999999999999
 45
0.00000001
 46
10.0
 77
     1
140
5.25
143
0.03937
146
0.6666666666666666
147
0.8
171
     3
172
     1
176
   179
177
   250
178
   179
271
     2
272
     2
274
     3
278
    44
340
19D
371
    25
372
    25
  0
DIMSTYLE
105
1E7
102
{ACAD_REACTORS
330
4AB
330
582
330
658
330
82A
330
900
330
9B8
102
}
330
A
100
AcDbSymbolTableRecord
100
AcDbDimStyleTableRecord
  2
MAURO
 70
     0
 41
2.5
 42
1.0
 43
10.0
 44
1.0
 45
0.00000001
 46
10.0
 73
     0
 77
     1
 78
     8
 79
     2
140
3.5
143
0.03937
146
0.7142857142857144
147
0.762
171
     3
172
     1
176
    96
177
    96
178
     7
179
     3
271
     3
272
     3
274
     3
284
     8
286
     8
340
192
371
    25
372
    25
  0
DIMSTYLE
105
1E8
330
A
100
AcDbSymbolTableRecord
100
AcDbDimStyleTableRecord
  2
MAURO$7
 70
     0
 41
2.5
 42
1.0
 43
10.0
 44
1.0
 45
0.00000001
 46
10.0
 73
     0
 77
     1
 78
     8
 79
     2
140
3.5
143
0.03937
146
0.7142857142857144
147
0.762
171
     3
172
     1
176
   179
177
    96
178
     7
179
     3
271
     3
272
     3
274
     3
284
     8
286
     8
340
192
371
    15
372
    25
  0
DIMSTYLE
105
1E9
330
A
100
AcDbSymbolTableRecord
100
AcDbDimStyleTableRecord
  2
MAUROTesto caratteri grandi
 70
     0
 41
5.0
 42
1.0
 43
10.0
 44
1.0
 45
0.00000001
 46
10.0
 73
     0
 77
     1
 78
     8
 79
     2
140
5.25
143
0.03937
146
0.4761904761904762
147
0.762
171
     3
172
     1
176
    96
177
    96
178
   179
179
     3
271
     3
272
     3
274
     3
284
     8
286
     8
340
1A4
371
    25
372
    25
  0
DIMSTYLE
105
1EA
330
A
100
AcDbSymbolTableRecord
100
AcDbDimStyleTableRecord
  2
MAUROTesto caratteri grandi$7
 70
     0
 41
5.0
 42
1.0
 43
10.0
 44
1.0
 45
0.00000001
 46
10.0
 73
     0
 77
     1
 78
     8
 79
     2
140
5.25
143
0.03937
146
0.4761904761904762
147
0.762
171
     3
172
     1
176
   179
177
    96
178
   179
179
     3
271
     3
272
     3
274
     3
284
     8
286
     8
340
1A4
371
    15
372
    25
  0
DIMSTYLE
105
1EB
330
A
100
AcDbSymbolTableRecord
100
AcDbDimStyleTableRecord
  2
X.XX pollici [mm]
 70
     0
  4
 mm
 41
2.5
 42
2.387599999999999
 43
6.349999999999999
 44
3.174999999999999
 45
0.00000001
 46
10.0
 73
     0
140
3.04800009727478
144
0.0393700787401575
147
1.600199999999999
170
     1
176
     7
177
     7
178
     7
179
     1
271
     3
272
     2
340
1C1
371
    25
372
    25
  0
DIMSTYLE
105
1EC
330
A
100
AcDbSymbolTableRecord
100
AcDbDimStyleTableRecord
  2
X.XX pollici [mm]$7
 70
     0
  4
 mm
 41
2.5
 42
2.387599999999999
 43
6.349999999999999
 44
3.174999999999999
 45
0.00000001
 46
10.0
 73
     0
140
3.04800009727478
144
0.0393700787401575
147
1.600199999999999
170
     1
176
   179
177
     7
178
     7
179
     1
271
     3
272
     2
340
1C1
371
    25
372
    25
  0
DIMSTYLE
105
1ED
330
A
100
AcDbSymbolTableRecord
100
AcDbDimStyleTableRecord
  2
X.XX pollici [mm]Testo caratteri grandi
 70
     0
  4
 mm
 41
5.0
 42
2.387599999999999
 43
6.349999999999999
 44
3.174999999999999
 45
0.00000001
 46
10.0
 73
     0
140
4.57200002670288
144
0.0393700787401575
146
0.6666666840491819
147
1.600199999999999
170
     1
176
     7
177
     7
178
   179
179
     1
271
     3
272
     2
340
197
371
    25
372
    25
  0
DIMSTYLE
105
1EE
330
A
100
AcDbSymbolTableRecord
100
AcDbDimStyleTableRecord
  2
X.XX pollici [mm]Testo caratteri grandi$7
 70
     0
  4
 mm
 41
5.0
 42
2.387599999999999
 43
6.349999999999999
 44
3.174999999999999
 45
0.00000001
 46
10.0
 73
     0
140
4.57200002670288
144
0.0393700787401575
146
0.6666666840491819
147
1.600199999999999
170
     1
176
   179
177
     7
178
   179
179
     1
271
     3
272
     2
340
197
371
    25
372
    25
  0
DIMSTYLE
105
1EF
330
A
100
AcDbSymbolTableRecord
100
AcDbDimStyleTableRecord
  2
1_32 FRAZIONE
 70
     0
 41
2.5
340
60
342
1F0
  0
DIMSTYLE
105
1F7
330
A
100
AcDbSymbolTableRecord
100
AcDbDimStyleTableRecord
  2
1_64 FRAZIONE
 70
     0
 41
2.5
340
60
342
1F0
  0
DIMSTYLE
105
1F8
102
{ACAD_REACTORS
330
BDE
102
}
330
A
100
AcDbSymbolTableRecord
100
AcDbDimStyleTableRecord
  2
AM_ISO
 70
     0
 41
2.5
340
60
342
1F0
  0
DIMSTYLE
105
1F9
330
A
100
AcDbSymbolTableRecord
100
AcDbDimStyleTableRecord
  2
AM_ISO$3
 70
     0
 41
2.5
340
60
342
1F0
  0
DIMSTYLE
105
1FA
330
A
100
AcDbSymbolTableRecord
100
AcDbDimStyleTableRecord
  2
AM_ISO$4
 70
     0
 41
2.5
340
60
342
1F0
  0
DIMSTYLE
105
1FB
330
A
100
AcDbSymbolTableRecord
100
AcDbDimStyleTableRecord
  2
AM_ISO$6
 70
     0
 41
2.5
340
60
342
1F0
  0
DIMSTYLE
105
1FC
330
A
100
AcDbSymbolTableRecord
100
AcDbDimStyleTableRecord
  2
AM_ISO$7
 70
     0
 41
2.5
340
60
342
1F0
  0
DIMSTYLE
105
1FD
330
A
100
AcDbSymbolTableRecord
100
AcDbDimStyleTableRecord
  2
AM_ISO$SF
 70
     0
 41
2.5
340
60
342
1F0
  0
DIMSTYLE
105
1FE
330
A
100
AcDbSymbolTableRecord
100
AcDbDimStyleTableRecord
  2
AM_ISO$SH
 70
     0
 41
2.5
340
60
342
1F0
  0
DIMSTYLE
105
1FF
330
A
100
AcDbSymbolTableRecord
100
AcDbDimStyleTableRecord
  2
ANSI ALLINEATI
 70
     0
 41
2.5
340
60
342
1F0
  0
DIMSTYLE
105
200
330
A
100
AcDbSymbolTableRecord
100
AcDbDimStyleTableRecord
  2
ANSI FRAZIONE - ALLINEATI
 70
     0
 41
2.5
340
60
342
1F0
  0
DIMSTYLE
105
201
330
A
100
AcDbSymbolTableRecord
100
AcDbDimStyleTableRecord
  2
CADMEC_1-1
 70
     0
 41
2.5
340
60
342
1F0
  0
DIMSTYLE
105
202
330
A
100
AcDbSymbolTableRecord
100
AcDbDimStyleTableRecord
  2
DEFAULT-ANSI
 70
     0
 41
2.5
340
60
342
1F0
  0
DIMSTYLE
105
203
330
A
100
AcDbSymbolTableRecord
100
AcDbDimStyleTableRecord
  2
DEFAULT-ANSI FRAZIONE
 70
     0
 41
2.5
340
60
342
1F0
  0
DIMSTYLE
105
204
330
A
100
AcDbSymbolTableRecord
100
AcDbDimStyleTableRecord
  2
DEFAULT-BSI
 70
     0
 41
2.5
340
60
342
1F0
  0
DIMSTYLE
105
205
330
A
100
AcDbSymbolTableRecord
100
AcDbDimStyleTableRecord
  2
DEFAULT-DIN
 70
     0
 41
2.5
340
60
342
1F0
  0
DIMSTYLE
105
206
330
A
100
AcDbSymbolTableRecord
100
AcDbDimStyleTableRecord
  2
DEFAULT-DIN - Metodo 2a
 70
     0
 41
2.5
340
60
342
1F0
  0
DIMSTYLE
105
207
330
A
100
AcDbSymbolTableRecord
100
AcDbDimStyleTableRecord
  2
DEFAULT-DIN - Metodo 2b
 70
     0
 41
2.5
340
60
342
1F0
  0
DIMSTYLE
105
208
330
A
100
AcDbSymbolTableRecord
100
AcDbDimStyleTableRecord
  2
DEFAULT-ISO
 70
     0
 41
2.5
340
60
342
1F0
  0
DIMSTYLE
105
209
330
A
100
AcDbSymbolTableRecord
100
AcDbDimStyleTableRecord
  2
DEFAULT-ISO-Metodo 1b
 70
     0
 41
2.5
340
60
342
1F0
  0
DIMSTYLE
105
20A
330
A
100
AcDbSymbolTableRecord
100
AcDbDimStyleTableRecord
  2
DEFAULT-ISO-Metodo 2a
 70
     0
 41
2.5
340
60
342
1F0
  0
DIMSTYLE
105
20B
330
A
100
AcDbSymbolTableRecord
100
AcDbDimStyleTableRecord
  2
DEFAULT-ISO-Metodo 2b
 70
     0
 41
2.5
340
60
342
1F0
  0
DIMSTYLE
105
20C
330
A
100
AcDbSymbolTableRecord
100
AcDbDimStyleTableRecord
  2
DEFAULT-JIS
 70
     0
 41
2.5
340
60
342
1F0
  0
DIMSTYLE
105
20D
330
A
100
AcDbSymbolTableRecord
100
AcDbDimStyleTableRecord
  2
DEFAULT-JIS - Metodo 1b
 70
     0
 41
2.5
340
60
342
1F0
  0
DIMSTYLE
105
20E
330
A
100
AcDbSymbolTableRecord
100
AcDbDimStyleTableRecord
  2
Direttrice-Indicatore origine(ANSI)
 70
     0
 41
2.5
340
60
342
1F0
  0
DIMSTYLE
105
20F
330
A
100
AcDbSymbolTableRecord
100
AcDbDimStyleTableRecord
  2
Direttrice-Indicatore origine(BSI)
 70
     0
 41
2.5
340
60
342
1F0
  0
DIMSTYLE
105
210
330
A
100
AcDbSymbolTableRecord
100
AcDbDimStyleTableRecord
  2
Direttrice-Indicatore origine(DIN)
 70
     0
 41
2.5
340
60
342
1F0
  0
DIMSTYLE
105
211
330
A
100
AcDbSymbolTableRecord
100
AcDbDimStyleTableRecord
  2
Direttrice-Indicatore origine(GB)
 70
     0
 41
4.0
340
60
342
1F0
  0
DIMSTYLE
105
212
330
A
100
AcDbSymbolTableRecord
100
AcDbDimStyleTableRecord
  2
Direttrice-Indicatore origine(ISO)
 70
     0
 41
2.5
340
60
342
1F0
  0
DIMSTYLE
105
213
330
A
100
AcDbSymbolTableRecord
100
AcDbDimStyleTableRecord
  2
Direttrice-Indicatore origine(JIS)
 70
     0
 41
2.5
340
60
342
1F0
  0
DIMSTYLE
105
214
330
A
100
AcDbSymbolTableRecord
100
AcDbDimStyleTableRecord
  2
Direttrice-punto(ANSI)
 70
     0
 41
2.5
340
60
342
1F0
  0
DIMSTYLE
105
215
330
A
100
AcDbSymbolTableRecord
100
AcDbDimStyleTableRecord
  2
Direttrice-punto(BSI)
 70
     0
 41
2.5
340
60
342
1F0
  0
DIMSTYLE
105
216
330
A
100
AcDbSymbolTableRecord
100
AcDbDimStyleTableRecord
  2
Direttrice-punto(DIN)
 70
     0
 41
2.5
340
60
342
1F0
  0
DIMSTYLE
105
217
330
A
100
AcDbSymbolTableRecord
100
AcDbDimStyleTableRecord
  2
Direttrice-punto(GB)
 70
     0
 41
4.0
340
60
342
1F0
  0
DIMSTYLE
105
218
330
A
100
AcDbSymbolTableRecord
100
AcDbDimStyleTableRecord
  2
Direttrice-punto(ISO)
 70
     0
 41
2.5
340
60
342
1F0
  0
DIMSTYLE
105
219
330
A
100
AcDbSymbolTableRecord
100
AcDbDimStyleTableRecord
  2
Direttrice-punto(JIS)
 70
     0
 41
2.5
340
60
342
1F0
  0
DIMSTYLE
105
224
330
A
100
AcDbSymbolTableRecord
100
AcDbDimStyleTableRecord
  2
Direttrice-riferimento(ANSI)
 70
     0
 41
2.5
340
60
342
1F0
  0
DIMSTYLE
105
225
330
A
100
AcDbSymbolTableRecord
100
AcDbDimStyleTableRecord
  2
Direttrice-riferimento(BSI)
 70
     0
 41
2.5
340
60
342
1F0
  0
DIMSTYLE
105
226
330
A
100
AcDbSymbolTableRecord
100
AcDbDimStyleTableRecord
  2
Direttrice-riferimento(DIN)
 70
     0
 41
2.5
340
60
342
1F0
  0
DIMSTYLE
105
248
330
A
100
AcDbSymbolTableRecord
100
AcDbDimStyleTableRecord
  2
Direttrice-riferimento(GB)
 70
     0
 41
4.0
340
60
342
1F0
  0
DIMSTYLE
105
249
330
A
100
AcDbSymbolTableRecord
100
AcDbDimStyleTableRecord
  2
Direttrice-riferimento(ISO)
 70
     0
 41
2.5
340
60
342
1F0
  0
DIMSTYLE
105
24A
330
A
100
AcDbSymbolTableRecord
100
AcDbDimStyleTableRecord
  2
Direttrice-riferimento(JIS)
 70
     0
 41
2.5
340
60
342
1F0
  0
DIMSTYLE
105
24B
330
A
100
AcDbSymbolTableRecord
100
AcDbDimStyleTableRecord
  2
Direttrice(ANSI)
 70
     0
 41
2.5
340
60
342
1F0
  0
DIMSTYLE
105
24C
330
A
100
AcDbSymbolTableRecord
100
AcDbDimStyleTableRecord
  2
Direttrice(BSI)
 70
     0
 41
2.5
340
60
342
1F0
  0
DIMSTYLE
105
24D
330
A
100
AcDbSymbolTableRecord
100
AcDbDimStyleTableRecord
  2
Direttrice(DIN)
 70
     0
 41
2.5
340
60
342
1F0
  0
DIMSTYLE
105
24E
330
A
100
AcDbSymbolTableRecord
100
AcDbDimStyleTableRecord
  2
Direttrice(GB)
 70
     0
 41
4.0
340
60
342
1F0
  0
DIMSTYLE
105
24F
330
A
100
AcDbSymbolTableRecord
100
AcDbDimStyleTableRecord
  2
Direttrice(ISO)
 70
     0
 41
2.5
340
60
342
1F0
  0
DIMSTYLE
105
250
330
A
100
AcDbSymbolTableRecord
100
AcDbDimStyleTableRecord
  2
Direttrice(JIS)
 70
     0
 41
2.5
340
60
342
1F0
  0
DIMSTYLE
105
251
330
A
100
AcDbSymbolTableRecord
100
AcDbDimStyleTableRecord
  2
GEN-ISO
 70
     0
 41
2.5
340
60
342
1F0
  0
DIMSTYLE
105
252
330
A
100
AcDbSymbolTableRecord
100
AcDbDimStyleTableRecord
  2
GEN-ISO-AXE-F
 70
     0
 41
2.5
340
60
342
1F0
  0
DIMSTYLE
105
253
330
A
100
AcDbSymbolTableRecord
100
AcDbDimStyleTableRecord
  2
GEN-ISO-AXE-H
 70
     0
 41
2.5
340
60
342
1F0
  0
DIMSTYLE
105
254
330
A
100
AcDbSymbolTableRecord
100
AcDbDimStyleTableRecord
  2
GEN-ISO-POS
 70
     0
 41
2.5
340
60
342
1F0
  0
DIMSTYLE
105
255
330
A
100
AcDbSymbolTableRecord
100
AcDbDimStyleTableRecord
  2
GEN-ISO$3
 70
     0
 41
2.5
340
60
342
1F0
  0
DIMSTYLE
105
256
330
A
100
AcDbSymbolTableRecord
100
AcDbDimStyleTableRecord
  2
GEN-ISO$4
 70
     0
 41
2.5
340
60
342
1F0
  0
DIMSTYLE
105
257
330
A
100
AcDbSymbolTableRecord
100
AcDbDimStyleTableRecord
  2
GEN-ISO$6
 70
     0
 41
2.5
340
60
342
1F0
  0
DIMSTYLE
105
258
330
A
100
AcDbSymbolTableRecord
100
AcDbDimStyleTableRecord
  2
ISO-25
 70
     0
 41
2.5
340
60
342
1F0
  0
DIMSTYLE
105
259
330
A
100
AcDbSymbolTableRecord
100
AcDbDimStyleTableRecord
  2
ISO-35
 70
     0
 41
2.5
340
60
342
1F0
  0
DIMSTYLE
105
25A
330
A
100
AcDbSymbolTableRecord
100
AcDbDimStyleTableRecord
  2
ISO-5
 70
     0
 41
2.5
340
60
342
1F0
  0
DIMSTYLE
105
25B
330
A
100
AcDbSymbolTableRecord
100
AcDbDimStyleTableRecord
  2
ISO-7
 70
     0
 41
2.5
340
60
342
1F0
  0
DIMSTYLE
105
25C
330
A
100
AcDbSymbolTableRecord
100
AcDbDimStyleTableRecord
  2
ISO1
 70
     0
 41
2.5
340
60
342
1F0
  0
DIMSTYLE
105
25D
330
A
100
AcDbSymbolTableRecord
100
AcDbDimStyleTableRecord
  2
ISO1-4
 70
     0
 41
2.5
340
60
342
1F0
  0
DIMSTYLE
105
25E
330
A
100
AcDbSymbolTableRecord
100
AcDbDimStyleTableRecord
  2
ISO2
 70
     0
 41
2.5
340
60
342
1F0
  0
DIMSTYLE
105
25F
330
A
100
AcDbSymbolTableRecord
100
AcDbDimStyleTableRecord
  2
MM-ANSI
 70
     0
 41
2.5
340
60
342
1F0
  0
DIMSTYLE
105
260
330
A
100
AcDbSymbolTableRecord
100
AcDbDimStyleTableRecord
  2
X . XXX
 70
     0
 41
2.5
340
60
342
1F0
  0
DIMSTYLE
105
261
330
A
100
AcDbSymbolTableRecord
100
AcDbDimStyleTableRecord
  2
X.X spazio grande e testo
 70
     0
 41
2.5
340
60
342
1F0
  0
DIMSTYLE
105
262
330
A
100
AcDbSymbolTableRecord
100
AcDbDimStyleTableRecord
  2
X.XX mm [pollici]
 70
     0
 41
2.5
340
60
342
1F0
  0
DIMSTYLE
105
263
330
A
100
AcDbSymbolTableRecord
100
AcDbDimStyleTableRecord
  2
X.XX Tol. di scostamento
 70
     0
 41
2.5
340
60
342
1F0
  0
DIMSTYLE
105
264
330
A
100
AcDbSymbolTableRecord
100
AcDbDimStyleTableRecord
  2
X.XXX
 70
     0
 41
2.5
340
60
342
1F0
  0
DIMSTYLE
105
265
330
A
100
AcDbSymbolTableRecord
100
AcDbDimStyleTableRecord
  2
X.XXX +_- tolleranza
 70
     0
 41
2.5
340
60
342
1F0
  0
DIMSTYLE
105
266
330
A
100
AcDbSymbolTableRecord
100
AcDbDimStyleTableRecord
  2
X.XXX +tolleranza_-tolleranza
 70
     0
 41
2.5
340
60
342
1F0
  0
DIMSTYLE
105
267
330
A
100
AcDbSymbolTableRecord
100
AcDbDimStyleTableRecord
  2
X.XXX Limiti - Impilati
 70
     0
 41
2.5
340
60
342
1F0
  0
DIMSTYLE
105
268
330
A
100
AcDbSymbolTableRecord
100
AcDbDimStyleTableRecord
  2
X.XXX mm [pollici]
 70
     0
 41
2.5
340
60
342
1F0
  0
DIMSTYLE
105
269
330
A
100
AcDbSymbolTableRecord
100
AcDbDimStyleTableRecord
  2
X.XXX piccola tolleranza
 70
     0
 41
2.5
340
60
342
1F0
  0
DIMSTYLE
105
26A
330
A
100
AcDbSymbolTableRecord
100
AcDbDimStyleTableRecord
  2
X.XXX radiale
 70
     0
 41
2.5
340
60
342
1F0
  0
ENDTAB
  0
TABLE
  2
BLOCK_RECORD
  5
1
330
0
100
AcDbSymbolTable
 70
    18
  0
BLOCK_RECORD
  5
77
330
1
100
AcDbSymbolTableRecord
100
AcDbBlockTableRecord
  2
*Model_Space
340
7A
  0
BLOCK_RECORD
  5
73
330
1
100
AcDbSymbolTableRecord
100
AcDbBlockTableRecord
  2
*Paper_Space
340
76
  0
BLOCK_RECORD
  5
7B
330
1
100
AcDbSymbolTableRecord
100
AcDbBlockTableRecord
  2
*Paper_Space0
340
7E
  0
BLOCK_RECORD
  5
1C7
330
1
100
AcDbSymbolTableRecord
100
AcDbBlockTableRecord
  2
Filled-1
340
0
  0
BLOCK_RECORD
  5
1DA
330
1
100
AcDbSymbolTableRecord
100
AcDbBlockTableRecord
  2
_Open
340
0
  0
BLOCK_RECORD
  5
1F0
330
1
100
AcDbSymbolTableRecord
100
AcDbBlockTableRecord
  2
_Closed
340
0
  0
BLOCK_RECORD
  5
21A
330
1
100
AcDbSymbolTableRecord
100
AcDbBlockTableRecord
  2
DatumFilled45
340
0
  0
BLOCK_RECORD
  5
227
330
1
100
AcDbSymbolTableRecord
100
AcDbBlockTableRecord
  2
DatumThickLine
340
0
  0
BLOCK_RECORD
  5
26B
330
1
100
AcDbSymbolTableRecord
100
AcDbBlockTableRecord
  2
REVISIONE
340
0
  0
BLOCK_RECORD
  5
28A
330
1
100
AcDbSymbolTableRecord
100
AcDbBlockTableRecord
  2
TIMBRO PER APPROVAZIONE
340
0
  0
BLOCK_RECORD
  5
299
330
1
100
AcDbSymbolTableRecord
100
AcDbBlockTableRecord
  2
TIMBRO INVIO DISEGNI
340
0
  0
BLOCK_RECORD
  5
2A4
330
1
100
AcDbSymbolTableRecord
100
AcDbBlockTableRecord
  2
Bordi Default Border
340
0
  0
BLOCK_RECORD
  5
3E6
330
1
100
AcDbSymbolTableRecord
100
AcDbBlockTableRecord
  2
Cartigli COMUNELLO
340
0
  0
BLOCK_RECORD
  5
4AD
330
1
100
AcDbSymbolTableRecord
100
AcDbBlockTableRecord
  2
*D11
340
0
  0
BLOCK_RECORD
  5
583
330
1
100
AcDbSymbolTableRecord
100
AcDbBlockTableRecord
  2
*D12
340
0
  0
BLOCK_RECORD
  5
659
330
1
100
AcDbSymbolTableRecord
100
AcDbBlockTableRecord
  2
*D13
340
0
  0
BLOCK_RECORD
  5
82B
330
1
100
AcDbSymbolTableRecord
100
AcDbBlockTableRecord
  2
*D14
340
0
  0
BLOCK_RECORD
  5
901
330
1
100
AcDbSymbolTableRecord
100
AcDbBlockTableRecord
  2
*D15
340
0
  0
BLOCK_RECORD
  5
9B9
330
1
100
AcDbSymbolTableRecord
100
AcDbBlockTableRecord
  2
*D16
340
0
  0
ENDTAB
  0
ENDSEC
  0
SECTION
  2
BLOCKS
  0
BLOCK
  5
78
330
77
100
AcDbEntity
  8
0
100
AcDbBlockBegin
  2
*Model_Space
 70
     0
 10
0.0
 20
0.0
 30
0.0
  3
*Model_Space
  1

  0
ENDBLK
  5
79
330
77
100
AcDbEntity
  8
0
100
AcDbBlockEnd
  0
BLOCK
  5
74
330
73
100
AcDbEntity
 67
     1
  8
0
100
AcDbBlockBegin
  2
*Paper_Space
 70
     0
 10
0.0
 20
0.0
 30
0.0
  3
*Paper_Space
  1

  0
ENDBLK
  5
75
330
73
100
AcDbEntity
 67
     1
  8
0
100
AcDbBlockEnd
  0
BLOCK
  5
7C
330
7B
100
AcDbEntity
 67
     1
  8
0
100
AcDbBlockBegin
  2
*Paper_Space0
 70
     0
 10
0.0
 20
0.0
 30
0.0
  3
*Paper_Space0
  1

  0
ENDBLK
  5
7D
330
7B
100
AcDbEntity
 67
     1
  8
0
100
AcDbBlockEnd
  0
BLOCK
  5
1C8
330
1C7
100
AcDbEntity
  8
0
100
AcDbBlockBegin
  2
Filled-1
 70
     0
 10
0.0
 20
0.0
 30
0.0
  3
Filled-1
  1

  0
LINE
  5
1CA
330
1C7
100
AcDbEntity
  8
0
 62
     0
100
AcDbLine
 10
-1.0
 20
0.0
 30
0.0
 11
0.0
 21
0.0
 31
0.0
  0
POLYLINE
  5
1CB
330
1C7
100
AcDbEntity
  8
0
 62
     0
100
AcDb2dPolyline
 66
     1
 10
0.0
 20
0.0
 30
0.0
 70
   128
  0
VERTEX
  5
1CC
330
1CB
100
AcDbEntity
  8
0
 62
     0
100
AcDbVertex
100
AcDb2dVertex
 10
-1.0
 20
-0.125
 30
0.0
  0
VERTEX
  5
1CD
330
1CB
100
AcDbEntity
  8
0
 62
     0
100
AcDbVertex
100
AcDb2dVertex
 10
0.0
 20
0.0
 30
0.0
  0
VERTEX
  5
1CF
330
1CB
100
AcDbEntity
  8
0
 62
     0
100
AcDbVertex
100
AcDb2dVertex
 10
-1.0
 20
0.125
 30
0.0
  0
VERTEX
  5
1D0
330
1CB
100
AcDbEntity
  8
0
 62
     0
100
AcDbVertex
100
AcDb2dVertex
 10
-1.0
 20
-0.125
 30
0.0
  0
SEQEND
  5
1CE
330
1CB
100
AcDbEntity
  8
0
 62
     0
  0
SOLID
  5
1D1
330
1C7
100
AcDbEntity
  8
0
 62
     0
100
AcDbTrace
 10
-1.0
 20
-0.125
 30
0.0
 11
0.0
 21
0.0
 31
0.0
 12
-1.0
 22
0.125
 32
0.0
 13
-1.0
 23
-0.125
 33
0.0
  0
LINE
  5
1D2
330
1C7
100
AcDbEntity
  8
0
 62
     0
100
AcDbLine
 10
-1.0
 20
-0.125
 30
0.0
 11
0.0
 21
0.0
 31
0.0
  0
LINE
  5
1D3
330
1C7
100
AcDbEntity
  8
0
 62
     0
100
AcDbLine
 10
0.0
 20
0.0
 30
0.0
 11
-1.0
 21
0.125
 31
0.0
  0
LINE
  5
1D4
330
1C7
100
AcDbEntity
  8
0
 62
     0
100
AcDbLine
 10
-1.0
 20
0.125
 30
0.0
 11
-1.0
 21
-0.125
 31
0.0
  0
ENDBLK
  5
1C9
330
1C7
100
AcDbEntity
  8
0
100
AcDbBlockEnd
  0
BLOCK
  5
1DE
330
1DA
100
AcDbEntity
  8
0
100
AcDbBlockBegin
  2
_Open
 70
     0
 10
0.0
 20
0.0
 30
0.0
  3
_Open
  1

  0
LINE
  5
1DB
330
1DA
100
AcDbEntity
  8
0
  6
ByBlock
 62
     0
370
    -2
100
AcDbLine
 10
-1.0
 20
0.1666666666666666
 30
0.0
 11
0.0
 21
0.0
 31
0.0
  0
LINE
  5
1DC
330
1DA
100
AcDbEntity
  8
0
  6
ByBlock
 62
     0
370
    -2
100
AcDbLine
 10
-1.0
 20
-0.1666666666666666
 30
0.0
 11
0.0
 21
0.0
 31
0.0
  0
LINE
  5
1DD
330
1DA
100
AcDbEntity
  8
0
  6
ByBlock
 62
     0
370
    -2
100
AcDbLine
 10
0.0
 20
0.0
 30
0.0
 11
-1.0
 21
0.0
 31
0.0
  0
ENDBLK
  5
1DF
330
1DA
100
AcDbEntity
  8
0
100
AcDbBlockEnd
  0
BLOCK
  5
1F5
330
1F0
100
AcDbEntity
  8
0
100
AcDbBlockBegin
  2
_Closed
 70
     0
 10
0.0
 20
0.0
 30
0.0
  3
_Closed
  1

  0
LINE
  5
1F1
330
1F0
100
AcDbEntity
  8
0
  6
ByBlock
 62
     0
370
    -2
100
AcDbLine
 10
-1.0
 20
0.1666666666666666
 30
0.0
 11
0.0
 21
0.0
 31
0.0
  0
LINE
  5
1F2
330
1F0
100
AcDbEntity
  8
0
  6
ByBlock
 62
     0
370
    -2
100
AcDbLine
 10
0.0
 20
0.0
 30
0.0
 11
-1.0
 21
-0.1666666666666666
 31
0.0
  0
LINE
  5
1F3
330
1F0
100
AcDbEntity
  8
0
  6
ByBlock
 62
     0
370
    -2
100
AcDbLine
 10
-1.0
 20
0.1666666666666666
 30
0.0
 11
-1.0
 21
-0.1666666666666666
 31
0.0
  0
LINE
  5
1F4
330
1F0
100
AcDbEntity
  8
0
  6
ByBlock
 62
     0
370
    -2
100
AcDbLine
 10
0.0
 20
0.0
 30
0.0
 11
-1.0
 21
0.0
 31
0.0
  0
ENDBLK
  5
1F6
330
1F0
100
AcDbEntity
  8
0
100
AcDbBlockEnd
  0
BLOCK
  5
21B
330
21A
100
AcDbEntity
  8
0
100
AcDbBlockBegin
  2
DatumFilled45
 70
     0
 10
0.0
 20
0.0
 30
0.0
  3
DatumFilled45
  1

  0
POLYLINE
  5
21D
330
21A
100
AcDbEntity
  8
0
 62
     0
100
AcDb2dPolyline
 66
     1
 10
0.0
 20
0.0
 30
0.0
 70
   128
  0
VERTEX
  5
21E
330
21D
100
AcDbEntity
  8
0
 62
     0
100
AcDbVertex
100
AcDb2dVertex
 10
0.0
 20
1.0
 30
0.0
  0
VERTEX
  5
21F
330
21D
100
AcDbEntity
  8
0
 62
     0
100
AcDbVertex
100
AcDb2dVertex
 10
0.0
 20
-1.0
 30
0.0
  0
VERTEX
  5
221
330
21D
100
AcDbEntity
  8
0
 62
     0
100
AcDbVertex
100
AcDb2dVertex
 10
-1.0
 20
0.0
 30
0.0
  0
VERTEX
  5
222
330
21D
100
AcDbEntity
  8
0
 62
     0
100
AcDbVertex
100
AcDb2dVertex
 10
0.0
 20
1.0
 30
0.0
  0
SEQEND
  5
220
330
21D
100
AcDbEntity
  8
0
 62
     0
  0
SOLID
  5
223
330
21A
100
AcDbEntity
  8
0
 62
     0
100
AcDbTrace
 10
0.0
 20
1.0
 30
0.0
 11
0.0
 21
-1.0
 31
0.0
 12
-1.0
 22
0.0
 32
0.0
 13
0.0
 23
1.0
 33
0.0
  0
ENDBLK
  5
21C
330
21A
100
AcDbEntity
  8
0
100
AcDbBlockEnd
  0
BLOCK
  5
228
330
227
100
AcDbEntity
  8
0
100
AcDbBlockBegin
  2
DatumThickLine
 70
     0
 10
0.0
 20
0.0
 30
0.0
  3
DatumThickLine
  1

  0
POLYLINE
  5
22A
330
227
100
AcDbEntity
  8
0
 62
     0
100
AcDb2dPolyline
 66
     1
 10
0.0
 20
0.0
 30
0.0
 70
   128
  0
VERTEX
  5
22B
330
22A
100
AcDbEntity
  8
0
 62
     0
100
AcDbVertex
100
AcDb2dVertex
 10
-0.25
 20
1.0
 30
0.0
  0
VERTEX
  5
22C
330
22A
100
AcDbEntity
  8
0
 62
     0
100
AcDbVertex
100
AcDb2dVertex
 10
-0.25
 20
-1.0
 30
0.0
  0
VERTEX
  5
22E
330
22A
100
AcDbEntity
  8
0
 62
     0
100
AcDbVertex
100
AcDb2dVertex
 10
-0.5
 20
-1.0
 30
0.0
  0
VERTEX
  5
22F
330
22A
100
AcDbEntity
  8
0
 62
     0
100
AcDbVertex
100
AcDb2dVertex
 10
-0.25
 20
1.0
 30
0.0
  0
SEQEND
  5
22D
330
22A
100
AcDbEntity
  8
0
 62
     0
  0
SOLID
  5
230
330
227
100
AcDbEntity
  8
0
 62
     0
100
AcDbTrace
 10
-0.25
 20
1.0
 30
0.0
 11
-0.25
 21
-1.0
 31
0.0
 12
-0.5
 22
-1.0
 32
0.0
 13
-0.25
 23
1.0
 33
0.0
  0
POLYLINE
  5
231
330
227
100
AcDbEntity
  8
0
 62
     0
100
AcDb2dPolyline
 66
     1
 10
0.0
 20
0.0
 30
0.0
 70
   128
  0
VERTEX
  5
232
330
231
100
AcDbEntity
  8
0
 62
     0
100
AcDbVertex
100
AcDb2dVertex
 10
-0.25
 20
1.0
 30
0.0
  0
VERTEX
  5
233
330
231
100
AcDbEntity
  8
0
 62
     0
100
AcDbVertex
100
AcDb2dVertex
 10
-0.5
 20
-1.0
 30
0.0
  0
VERTEX
  5
235
330
231
100
AcDbEntity
  8
0
 62
     0
100
AcDbVertex
100
AcDb2dVertex
 10
-0.5
 20
-1.0
 30
0.0
  0
VERTEX
  5
236
330
231
100
AcDbEntity
  8
0
 62
     0
100
AcDbVertex
100
AcDb2dVertex
 10
-0.25
 20
1.0
 30
0.0
  0
SEQEND
  5
234
330
231
100
AcDbEntity
  8
0
 62
     0
  0
SOLID
  5
237
330
227
100
AcDbEntity
  8
0
 62
     0
100
AcDbTrace
 10
-0.25
 20
1.0
 30
0.0
 11
-0.5
 21
-1.0
 31
0.0
 12
-0.5
 22
-1.0
 32
0.0
 13
-0.25
 23
1.0
 33
0.0
  0
POLYLINE
  5
238
330
227
100
AcDbEntity
  8
0
 62
     0
100
AcDb2dPolyline
 66
     1
 10
0.0
 20
0.0
 30
0.0
 70
   128
  0
VERTEX
  5
239
330
238
100
AcDbEntity
  8
0
 62
     0
100
AcDbVertex
100
AcDb2dVertex
 10
-0.25
 20
1.0
 30
0.0
  0
VERTEX
  5
23A
330
238
100
AcDbEntity
  8
0
 62
     0
100
AcDbVertex
100
AcDb2dVertex
 10
-0.5
 20
-1.0
 30
0.0
  0
VERTEX
  5
23C
330
238
100
AcDbEntity
  8
0
 62
     0
100
AcDbVertex
100
AcDb2dVertex
 10
-0.5
 20
1.0
 30
0.0
  0
VERTEX
  5
23D
330
238
100
AcDbEntity
  8
0
 62
     0
100
AcDbVertex
100
AcDb2dVertex
 10
-0.25
 20
1.0
 30
0.0
  0
SEQEND
  5
23B
330
238
100
AcDbEntity
  8
0
 62
     0
  0
SOLID
  5
23E
330
227
100
AcDbEntity
  8
0
 62
     0
100
AcDbTrace
 10
-0.25
 20
1.0
 30
0.0
 11
-0.5
 21
-1.0
 31
0.0
 12
-0.5
 22
1.0
 32
0.0
 13
-0.25
 23
1.0
 33
0.0
  0
POLYLINE
  5
23F
330
227
100
AcDbEntity
  8
0
 62
     0
100
AcDb2dPolyline
 66
     1
 10
0.0
 20
0.0
 30
0.0
 70
   128
  0
VERTEX
  5
240
330
23F
100
AcDbEntity
  8
0
 62
     0
100
AcDbVertex
100
AcDb2dVertex
 10
-0.25
 20
1.0
 30
0.0
  0
VERTEX
  5
241
330
23F
100
AcDbEntity
  8
0
 62
     0
100
AcDbVertex
100
AcDb2dVertex
 10
-0.5
 20
1.0
 30
0.0
  0
VERTEX
  5
243
330
23F
100
AcDbEntity
  8
0
 62
     0
100
AcDbVertex
100
AcDb2dVertex
 10
-0.25
 20
1.0
 30
0.0
  0
VERTEX
  5
244
330
23F
100
AcDbEntity
  8
0
 62
     0
100
AcDbVertex
100
AcDb2dVertex
 10
-0.25
 20
1.0
 30
0.0
  0
SEQEND
  5
242
330
23F
100
AcDbEntity
  8
0
 62
     0
  0
SOLID
  5
245
330
227
100
AcDbEntity
  8
0
 62
     0
100
AcDbTrace
 10
-0.25
 20
1.0
 30
0.0
 11
-0.5
 21
1.0
 31
0.0
 12
-0.25
 22
1.0
 32
0.0
 13
-0.25
 23
1.0
 33
0.0
  0
LINE
  5
246
330
227
100
AcDbEntity
  8
0
 62
     0
100
AcDbLine
 10
-1.0
 20
0.0
 30
0.0
 11
-0.5
 21
0.0
 31
0.0
  0
LINE
  5
247
330
227
100
AcDbEntity
  8
0
 62
     0
100
AcDbLine
 10
-0.5
 20
0.0
 30
0.0
 11
-1.0
 21
0.0
 31
0.0
  0
ENDBLK
  5
229
330
227
100
AcDbEntity
  8
0
100
AcDbBlockEnd
  0
BLOCK
  5
26C
330
26B
100
AcDbEntity
  8
0
100
AcDbBlockBegin
  2
REVISIONE
 70
     2
 10
0.0
 20
0.0
 30
0.0
  3
REVISIONE
  1

  0
LINE
  5
26E
330
26B
100
AcDbEntity
  8
Geometria schizzo(ISO)
100
AcDbLine
 10
-95.0
 20
-6.499999999999994
 30
0.0
 11
-95.0
 21
6.49999999999995
 31
0.0
  0
LINE
  5
26F
330
26B
100
AcDbEntity
  8
Geometria schizzo(ISO)
100
AcDbLine
 10
-95.00000000000001
 20
6.49999999999995
 30
0.0
 11
94.99999999999998
 21
6.500000000000003
 31
0.0
  0
LINE
  5
270
330
26B
100
AcDbEntity
  8
Geometria schizzo(ISO)
100
AcDbLine
 10
95.0
 20
6.500000000000003
 30
0.0
 11
95.0
 21
-6.499999999999985
 31
0.0
  0
LINE
  5
271
330
26B
100
AcDbEntity
  8
Geometria schizzo(ISO)
100
AcDbLine
 10
95.0
 20
-6.499999999999985
 30
0.0
 11
-95.0
 21
-6.499999999999994
 31
0.0
  0
LINE
  5
272
330
26B
100
AcDbEntity
  8
Geometria schizzo(ISO)
100
AcDbLine
 10
14.28199999999996
 20
6.500000000000003
 30
0.0
 11
14.28199999999996
 21
-6.499999999999994
 31
0.0
  0
LINE
  5
273
330
26B
100
AcDbEntity
  8
Geometria schizzo(ISO)
100
AcDbLine
 10
20.14999999999997
 20
6.500000000000003
 30
0.0
 11
20.14999999999997
 21
-6.499999999999994
 31
0.0
  0
LINE
  5
274
330
26B
100
AcDbEntity
  8
Geometria schizzo(ISO)
100
AcDbLine
 10
45.09999999999998
 20
6.500000000000003
 30
0.0
 11
45.09999999999998
 21
-6.499999999999985
 31
0.0
  0
LINE
  5
275
330
26B
100
AcDbEntity
  8
Geometria schizzo(ISO)
100
AcDbLine
 10
70.04999999999999
 20
6.500000000000003
 30
0.0
 11
70.04999999999999
 21
-6.499999999999985
 31
0.0
  0
LINE
  5
276
330
26B
100
AcDbEntity
  8
Geometria schizzo(ISO)
100
AcDbLine
 10
-95.0
 20
-1.500000000000021
 30
0.0
 11
95.0
 21
-1.499999999999976
 31
0.0
  0
LINE
  5
277
330
26B
100
AcDbEntity
  8
Geometria schizzo(ISO)
100
AcDbLine
 10
20.14999999999997
 20
2.499999999999982
 30
0.0
 11
95.0
 21
2.500000000000017
 31
0.0
  0
MTEXT
  5
278
330
26B
100
AcDbEntity
  8
Simboli(ISO)
 62
    96
100
AcDbMText
 10
-40.24999999999997
 20
-4.249999999999989
 30
0.0
 40
2.489199936389923
 41
109.5
 71
     5
 72
     1
  1
\fArial|b0|i0;\H2.4892;Descrizione Revisione
  7
Corrente-ISO
 73
     1
 44
1.0
1001
ACAD
1000
MTEXTBEGIN
1070
    73
1070
     1
1070
    44
1040
1.0
1070
    74
1070
     0
1000
MTEXTEND
  0
MTEXT
  5
27A
330
26B
100
AcDbEntity
  8
Simboli(ISO)
 62
    96
100
AcDbMText
 10
17.20910565308934
 20
-4.010830382627901
 30
0.0
 40
2.489199936389923
 41
5.876843529209256
 71
     5
 72
     1
  1
\fArial|b0|i0;\W0.90;\H2.4892;Rev
  7
Corrente-ISO
 73
     1
 44
1.0
1001
ACAD
1000
MTEXTBEGIN
1070
    73
1070
     1
1070
    44
1040
1.0
1070
    74
1070
     0
1000
MTEXTEND
  0
MTEXT
  5
27B
330
26B
100
AcDbEntity
  8
Simboli(ISO)
 62
    96
100
AcDbMText
 10
32.68356521178614
 20
-4.036669839269944
 30
0.0
 40
2.489199936389923
 41
24.96635793550775
 71
     5
 72
     1
  1
\fArial|b0|i0;\H2.4892;Disegnato
  7
Corrente-ISO
 73
     1
 44
1.0
1001
ACAD
1000
MTEXTBEGIN
1070
    73
1070
     1
1070
    44
1040
1.0
1070
    74
1070
     0
1000
MTEXTEND
  0
MTEXT
  5
27C
330
26B
100
AcDbEntity
  8
Simboli(ISO)
 62
    96
100
AcDbMText
 10
57.57373402865312
 20
-4.00232928281115
 30
0.0
 40
2.489199936389923
 41
24.92816610583702
 71
     5
 72
     1
  1
\fArial|b0|i0;\H2.4892;Verificato
  7
Corrente-ISO
 73
     1
 44
1.0
1001
ACAD
1000
MTEXTBEGIN
1070
    73
1070
     1
1070
    44
1040
1.0
1070
    74
1070
     0
1000
MTEXTEND
  0
MTEXT
  5
27D
330
26B
100
AcDbEntity
  8
Simboli(ISO)
 62
    96
100
AcDbMText
 10
82.5334947683379
 20
-4.033923917081256
 30
0.0
 40
2.489199936389923
 41
24.9913553735324
 71
     5
 72
     1
  1
\fArial|b0|i0;\H2.4892;Approvato
  7
Corrente-ISO
 73
     1
 44
1.0
1001
ACAD
1000
MTEXTBEGIN
1070
    73
1070
     1
1070
    44
1040
1.0
1070
    74
1070
     0
1000
MTEXTEND
  0
ATTDEF
  5
27F
102
{ACAD_XDICTIONARY
360
A6F
102
}
330
26B
100
AcDbEntity
  8
Simboli(ISO)
 62
     7
100
AcDbText
 10
-93.74928292882428
 20
2.972124334461173
 30
0.0
 40
2.489199936389923
  1
MODIFICATO QUOTA DA 20 A 25
  7
Stile testo15
100
AcDbAttributeDefinition
  3
DESCRIZIONE 1
  2
DESCRIZIONE_1_001
 70
     0
  0
ATTDEF
  5
282
102
{ACAD_XDICTIONARY
360
A72
102
}
330
26B
100
AcDbEntity
  8
Simboli(ISO)
 62
     7
100
AcDbText
 10
-93.82699530276289
 20
-0.595967676708459
 30
0.0
 40
2.489199936389923
  1
MODIFICATO INTERASSE DA 80 A 90
  7
Stile testo15
100
AcDbAttributeDefinition
  3
DESCRIZIONE 2
  2
DESCRIZIONE_2_001
 70
     0
  0
ATTDEF
  5
284
102
{ACAD_XDICTIONARY
360
A75
102
}
330
26B
100
AcDbEntity
  8
Simboli(ISO)
 62
     7
100
AcDbText
 10
15.07942979937668
 20
0.7317788596934767
 30
0.0
 40
3.499999940395355
  1
01
 41
0.9
  7
Stile testo116
100
AcDbAttributeDefinition
  3
NR.REV
  2
NR.REV_001
 70
     0
  0
ATTDEF
  5
286
102
{ACAD_XDICTIONARY
360
A7A
102
}
330
26B
100
AcDbEntity
  8
Simboli(ISO)
 62
     7
100
AcDbText
 10
24.69266896187769
 20
5.319801944745019
 30
0.0
 40
2.489199936389923
  1
FRIGETTO
 41
0.9
  7
Stile testo115
100
AcDbAttributeDefinition
  3
DISEGNATO
  2
DISEGNATO_001
 70
     0
  0
ATTDEF
  5
287
102
{ACAD_XDICTIONARY
360
A7D
102
}
330
26B
100
AcDbEntity
  8
Simboli(ISO)
 62
     7
100
AcDbText
 10
25.77243061391258
 20
-0.7581010970848934
 30
0.0
 40
2.489199936389923
  1
12-12-01
  7
Stile testo15
100
AcDbAttributeDefinition
  3
DATA
  2
DATA_001
 70
     0
  0
ATTDEF
  5
288
102
{ACAD_XDICTIONARY
360
A80
102
}
330
26B
100
AcDbEntity
  8
Simboli(ISO)
 62
     7
100
AcDbText
 10
50.77760502093152
 20
-0.743400818037856
 30
0.0
 40
2.489199936389923
  1
12-12-01
  7
Stile testo15
100
AcDbAttributeDefinition
  3
DATA
  2
DATA_001
 70
     0
  0
ATTDEF
  5
289
102
{ACAD_XDICTIONARY
360
A83
102
}
330
26B
100
AcDbEntity
  8
Simboli(ISO)
 62
     7
100
AcDbText
 10
75.72397831235503
 20
-0.7581010970848579
 30
0.0
 40
2.489199936389923
  1
12-12-01
  7
Stile testo15
100
AcDbAttributeDefinition
  3
DATA
  2
DATA_001
 70
     0
  0
ATTDEF
  5
C17
102
{ACAD_XDICTIONARY
360
C18
102
}
330
26B
100
AcDbEntity
  8
Simboli(ISO)
 62
     7
100
AcDbText
 10
26.79083019066148
 20
1.126988591226022
 30
0.0
 40
2.489199936389923
  1
MAURO
 41
0.9
  7
Stile testo115
100
AcDbAttributeDefinition
  3
DISEGNATO
  2
DISEGNATO_002
 70
     0
  0
ENDBLK
  5
26D
330
26B
100
AcDbEntity
  8
0
100
AcDbBlockEnd
  0
BLOCK
  5
28B
330
28A
100
AcDbEntity
  8
0
100
AcDbBlockBegin
  2
TIMBRO PER APPROVAZIONE
 70
     0
 10
0.0
 20
0.0
 30
0.0
  3
TIMBRO PER APPROVAZIONE
  1

  0
LINE
  5
28D
330
28A
100
AcDbEntity
  8
Geometria schizzo(ISO)
 62
     7
100
AcDbLine
 10
34.85000000000001
 20
-9.100000000000004
 30
0.0
 11
-34.84999999999999
 21
-9.099999999999997
 31
0.0
  0
LINE
  5
28E
330
28A
100
AcDbEntity
  8
Geometria schizzo(ISO)
 62
     7
100
AcDbLine
 10
35.25
 20
-16.5
 30
0.0
 11
-35.24999999999999
 21
-16.5
 31
0.0
  0
LINE
  5
28F
330
28A
100
AcDbEntity
  8
Geometria schizzo(ISO)
 62
     7
100
AcDbLine
 10
-35.24999999999999
 20
-16.5
 30
0.0
 11
-35.25
 21
16.5
 31
0.0
  0
LINE
  5
290
330
28A
100
AcDbEntity
  8
Geometria schizzo(ISO)
 62
     7
100
AcDbLine
 10
-35.25
 20
16.5
 30
0.0
 11
35.25000000000001
 21
16.5
 31
0.0
  0
LINE
  5
291
330
28A
100
AcDbEntity
  8
Geometria schizzo(ISO)
 62
     7
100
AcDbLine
 10
35.25
 20
16.5
 30
0.0
 11
35.25
 21
-16.5
 31
0.0
  0
MTEXT
  5
292
330
28A
100
AcDbEntity
  8
Simboli(ISO)
 62
     7
100
AcDbMText
 10
-33.7105069207141
 20
-14.19215346071146
 30
0.0
 40
2.5
 41
0.0
 71
     7
 72
     1
  1
\fSwis721 BT|b0|i0;\H2.5000;DATA.........................FIRMA..........................
  7
Corrente-ISO
 73
     1
 44
1.25
1001
ACAD
1000
MTEXTBEGIN
1070
    73
1070
     1
1070
    44
1040
1.25
1070
    74
1070
     0
1000
MTEXTEND
  0
MTEXT
  5
293
330
28A
100
AcDbEntity
  8
Simboli(ISO)
 62
     7
100
AcDbMText
 10
-25.72449588474212
 20
11.13847904581678
 30
0.0
 40
3.499999940395355
 41
0.0
 71
     7
 72
     1
  1
\fSwis721 BT|b0|i0;\H3.5000;RESTITUIRE FIRMATO
  7
Corrente-ISO
 73
     1
 44
1.25
1001
ACAD
1000
MTEXTBEGIN
1070
    73
1070
     1
1070
    44
1040
1.25
1070
    74
1070
     0
1000
MTEXTEND
  0
MTEXT
  5
294
330
28A
100
AcDbEntity
  8
Simboli(ISO)
 62
     7
100
AcDbMText
 10
-28.95171691808511
 20
7.316396977395109
 30
0.0
 40
2.000000029802322
 41
0.0
 71
     7
 72
     1
  1
\fSwis721 BT|b0|i0;\H2.0000;L'APPROVAZIONE DEL DISEGNO DEFINISCE
  7
Corrente-ISO
 73
     1
 44
1.25
1001
ACAD
1000
MTEXTBEGIN
1070
    73
1070
     1
1070
    44
1040
1.25
1070
    74
1070
     0
1000
MTEXTEND
  0
MTEXT
  5
295
330
28A
100
AcDbEntity
  8
Simboli(ISO)
 62
     7
100
AcDbMText
 10
-25.76940871751251
 20
4.544968949952115
 30
0.0
 40
2.000000029802322
 41
0.0
 71
     7
 72
     1
  1
\fSwis721 BT|b0|i0;\H2.0000;L'ORDINE ED IL SUO PROSEGUIMENTO
  7
Corrente-ISO
 73
     1
 44
1.25
1001
ACAD
1000
MTEXTBEGIN
1070
    73
1070
     1
1070
    44
1040
1.25
1070
    74
1070
     0
1000
MTEXTEND
  0
MTEXT
  5
296
330
28A
100
AcDbEntity
  8
Simboli(ISO)
 62
     7
100
AcDbMText
 10
-31.13563506443334
 20
-5.098775396401857
 30
0.0
 40
2.000000029802322
 41
0.0
 71
     7
 72
     1
  1
\fSwis721 BT|b0|i0;\H2.0000;THE APPROVAL OF THE DRAWING DETERMINES
  7
Corrente-ISO
 73
     1
 44
1.25
1001
ACAD
1000
MTEXTBEGIN
1070
    73
1070
     1
1070
    44
1040
1.25
1070
    74
1070
     0
1000
MTEXTEND
  0
MTEXT
  5
297
330
28A
100
AcDbEntity
  8
Simboli(ISO)
 62
     7
100
AcDbMText
 10
-24.30740641391715
 20
-7.870204115351859
 30
0.0
 40
2.000000029802322
 41
0.0
 71
     7
 72
     1
  1
\fSwis721 BT|b0|i0;\H2.0000;THE ORDER AND ITS PROSECUTION
  7
Corrente-ISO
 73
     1
 44
1.25
1001
ACAD
1000
MTEXTBEGIN
1070
    73
1070
     1
1070
    44
1040
1.25
1070
    74
1070
     0
1000
MTEXTEND
  0
MTEXT
  5
298
330
28A
100
AcDbEntity
  8
Simboli(ISO)
 62
     7
100
AcDbMText
 10
-19.82985272453558
 20
-2.084089723680357
 30
0.0
 40
3.499999940395355
 41
0.0
 71
     7
 72
     1
  1
\fSwis721 BT|b0|i0;\H3.5000;RETURN SIGNED
  7
Corrente-ISO
 73
     1
 44
1.25
1001
ACAD
1000
MTEXTBEGIN
1070
    73
1070
     1
1070
    44
1040
1.25
1070
    74
1070
     0
1000
MTEXTEND
  0
ENDBLK
  5
28C
330
28A
100
AcDbEntity
  8
0
100
AcDbBlockEnd
  0
BLOCK
  5
29A
330
299
100
AcDbEntity
  8
0
100
AcDbBlockBegin
  2
TIMBRO INVIO DISEGNI
 70
     0
 10
0.0
 20
0.0
 30
0.0
  3
TIMBRO INVIO DISEGNI
  1

  0
LINE
  5
29C
330
299
100
AcDbEntity
  8
Geometria schizzo(ISO)
  6
Continuous
370
   140
100
AcDbLine
 10
0.0
 20
22.49999999999998
 30
0.0
 11
0.0
 21
0.0
 31
0.0
  0
LINE
  5
29D
330
299
100
AcDbEntity
  8
Geometria schizzo(ISO)
  6
Continuous
370
   140
100
AcDbLine
 10
0.0
 20
0.0
 30
0.0
 11
70.50000000000008
 21
0.0
 31
0.0
  0
LINE
  5
29E
330
299
100
AcDbEntity
  8
Geometria schizzo(ISO)
  6
Continuous
370
   140
100
AcDbLine
 10
70.50000000000008
 20
0.0
 30
0.0
 11
70.50000000000003
 21
22.5
 31
0.0
  0
LINE
  5
29F
330
299
100
AcDbEntity
  8
Geometria schizzo(ISO)
  6
Continuous
370
   140
100
AcDbLine
 10
70.50000000000003
 20
22.5
 30
0.0
 11
0.0
 21
22.49999999999998
 31
0.0
  0
MTEXT
  5
2A0
330
299
100
AcDbEntity
  8
Simboli(ISO)
 62
     7
100
AcDbMText
 10
2.899336189043077
 20
19.99303336238528
 30
0.0
 40
2.489199936389923
 41
66.17203235626219
 71
     1
 72
     1
  1
\fArial|b1|i0;\H2.4892;INVIO DISEGNO TRAMITE COMPUTER
  7
Corrente-ISO
 73
     1
 44
1.0
1001
ACAD
1000
MTEXTBEGIN
1070
    73
1070
     1
1070
    44
1040
1.0
1070
    74
1070
     0
1000
MTEXTEND
  0
MTEXT
  5
2A1
330
299
100
AcDbEntity
  8
Simboli(ISO)
 62
     7
100
AcDbMText
 10
6.717374444392016
 20
13.05512495578345
 30
0.0
 40
2.209800034761428
 41
56.78950309753417
 71
     1
 72
     1
  1
\fArial|b0|i0;\H2.2098;FIRME DI VERIFICA E APPROVAZIONE
  7
Corrente-ISO
 73
     1
 44
1.0
1001
ACAD
1000
MTEXTBEGIN
1070
    73
1070
     1
1070
    44
1040
1.0
1070
    74
1070
     0
1000
MTEXTEND
  0
MTEXT
  5
2A2
330
299
100
AcDbEntity
  8
Simboli(ISO)
 62
     7
100
AcDbMText
 10
6.65344964311584
 20
9.044092769503713
 30
0.0
 40
2.209800034761428
 41
57.3048973083496
 71
     1
 72
     1
  1
\fArial|b0|i0;\H2.2098;RIPORTATE SUL DISEGNO ORIGINALE
  7
Corrente-ISO
 73
     1
 44
1.0
1001
ACAD
1000
MTEXTBEGIN
1070
    73
1070
     1
1070
    44
1040
1.0
1070
    74
1070
     0
1000
MTEXTEND
  0
MTEXT
  5
2A3
330
299
100
AcDbEntity
  8
Simboli(ISO)
 62
     7
100
AcDbMText
 10
4.053371845049107
 20
4.974204064852525
 30
0.0
 40
2.209800034761428
 41
62.52453804016113
 71
     1
 72
     1
  1
\fArial|b0|i0;\H2.2098;ARCHIVIATE PRESSO L'UFFICIO TECNICO
  7
Corrente-ISO
 73
     1
 44
1.0
1001
ACAD
1000
MTEXTBEGIN
1070
    73
1070
     1
1070
    44
1040
1.0
1070
    74
1070
     0
1000
MTEXTEND
  0
ENDBLK
  5
29B
330
299
100
AcDbEntity
  8
0
100
AcDbBlockEnd
  0
BLOCK
  5
2A5
330
2A4
100
AcDbEntity
  8
0
100
AcDbBlockBegin
  2
Bordi Default Border
 70
     0
 10
0.0
 20
0.0
 30
0.0
  3
Bordi Default Border
  1

  0
POLYLINE
  5
2A7
330
2A4
100
AcDbEntity
  8
Bordo_0
100
AcDb2dPolyline
 66
     1
 10
0.0
 20
0.0
 30
0.0
 70
   128
  0
VERTEX
  5
2A8
330
2A7
100
AcDbEntity
  8
Bordo_0
100
AcDbVertex
100
AcDb2dVertex
 10
10.0
 20
10.0
 30
0.0
  0
VERTEX
  5
2A9
330
2A7
100
AcDbEntity
  8
Bordo_0
100
AcDbVertex
100
AcDb2dVertex
 10
10.0
 20
287.0000076293946
 30
0.0
  0
VERTEX
  5
2AB
330
2A7
100
AcDbEntity
  8
Bordo_0
100
AcDbVertex
100
AcDb2dVertex
 10
410.0
 20
287.0000076293946
 30
0.0
  0
VERTEX
  5
2AC
330
2A7
100
AcDbEntity
  8
Bordo_0
100
AcDbVertex
100
AcDb2dVertex
 10
410.0
 20
10.0
 30
0.0
  0
VERTEX
  5
2AD
330
2A7
100
AcDbEntity
  8
Bordo_0
100
AcDbVertex
100
AcDb2dVertex
 10
10.0
 20
10.0
 30
0.0
  0
SEQEND
  5
2AA
330
2A7
100
AcDbEntity
  8
Bordo_0
  0
POLYLINE
  5
2AE
330
2A4
100
AcDbEntity
  8
Bordo_0
100
AcDb2dPolyline
 66
     1
 10
0.0
 20
0.0
 30
0.0
 70
   128
  0
VERTEX
  5
2AF
330
2AE
100
AcDbEntity
  8
Bordo_0
100
AcDbVertex
100
AcDb2dVertex
 10
210.0
 20
0.0
 30
0.0
  0
VERTEX
  5
2B0
330
2AE
100
AcDbEntity
  8
Bordo_0
100
AcDbVertex
100
AcDb2dVertex
 10
210.0
 20
10.0
 30
0.0
  0
VERTEX
  5
2B2
330
2AE
100
AcDbEntity
  8
Bordo_0
100
AcDbVertex
100
AcDb2dVertex
 10
207.1132469177246
 20
5.0
 30
0.0
  0
VERTEX
  5
2B3
330
2AE
100
AcDbEntity
  8
Bordo_0
100
AcDbVertex
100
AcDb2dVertex
 10
212.8867530822754
 20
5.0
 30
0.0
  0
VERTEX
  5
2B4
330
2AE
100
AcDbEntity
  8
Bordo_0
100
AcDbVertex
100
AcDb2dVertex
 10
210.0
 20
10.0
 30
0.0
  0
SEQEND
  5
2B1
330
2AE
100
AcDbEntity
  8
Bordo_0
  0
POLYLINE
  5
2B5
330
2A4
100
AcDbEntity
  8
Bordo_0
100
AcDb2dPolyline
 66
     1
 10
0.0
 20
0.0
 30
0.0
 70
   128
  0
VERTEX
  5
2B6
330
2B5
100
AcDbEntity
  8
Bordo_0
100
AcDbVertex
100
AcDb2dVertex
 10
210.0
 20
297.0000076293946
 30
0.0
  0
VERTEX
  5
2B7
330
2B5
100
AcDbEntity
  8
Bordo_0
100
AcDbVertex
100
AcDb2dVertex
 10
210.0
 20
287.0000076293946
 30
0.0
  0
VERTEX
  5
2B9
330
2B5
100
AcDbEntity
  8
Bordo_0
100
AcDbVertex
100
AcDb2dVertex
 10
207.1132469177246
 20
292.0000076293945
 30
0.0
  0
VERTEX
  5
2BA
330
2B5
100
AcDbEntity
  8
Bordo_0
100
AcDbVertex
100
AcDb2dVertex
 10
212.8867530822754
 20
292.0000076293945
 30
0.0
  0
VERTEX
  5
2BB
330
2B5
100
AcDbEntity
  8
Bordo_0
100
AcDbVertex
100
AcDb2dVertex
 10
210.0
 20
287.0000076293946
 30
0.0
  0
SEQEND
  5
2B8
330
2B5
100
AcDbEntity
  8
Bordo_0
  0
POLYLINE
  5
2BC
330
2A4
100
AcDbEntity
  8
Bordo_0
100
AcDb2dPolyline
 66
     1
 10
0.0
 20
0.0
 30
0.0
 70
   128
  0
VERTEX
  5
2BD
330
2BC
100
AcDbEntity
  8
Bordo_0
100
AcDbVertex
100
AcDb2dVertex
 10
0.0
 20
148.5000038146973
 30
0.0
  0
VERTEX
  5
2BE
330
2BC
100
AcDbEntity
  8
Bordo_0
100
AcDbVertex
100
AcDb2dVertex
 10
10.0
 20
148.5000038146973
 30
0.0
  0
VERTEX
  5
2C0
330
2BC
100
AcDbEntity
  8
Bordo_0
100
AcDbVertex
100
AcDb2dVertex
 10
5.0
 20
151.3867473602295
 30
0.0
  0
VERTEX
  5
2C1
330
2BC
100
AcDbEntity
  8
Bordo_0
100
AcDbVertex
100
AcDb2dVertex
 10
5.0
 20
145.6132507324219
 30
0.0
  0
VERTEX
  5
2C2
330
2BC
100
AcDbEntity
  8
Bordo_0
100
AcDbVertex
100
AcDb2dVertex
 10
10.0
 20
148.5000038146973
 30
0.0
  0
SEQEND
  5
2BF
330
2BC
100
AcDbEntity
  8
Bordo_0
  0
POLYLINE
  5
2C3
330
2A4
100
AcDbEntity
  8
Bordo_0
100
AcDb2dPolyline
 66
     1
 10
0.0
 20
0.0
 30
0.0
 70
   128
  0
VERTEX
  5
2C4
330
2C3
100
AcDbEntity
  8
Bordo_0
100
AcDbVertex
100
AcDb2dVertex
 10
420.0
 20
148.5000038146973
 30
0.0
  0
VERTEX
  5
2C5
330
2C3
100
AcDbEntity
  8
Bordo_0
100
AcDbVertex
100
AcDb2dVertex
 10
410.0
 20
148.5000038146973
 30
0.0
  0
VERTEX
  5
2C7
330
2C3
100
AcDbEntity
  8
Bordo_0
100
AcDbVertex
100
AcDb2dVertex
 10
415.0
 20
151.3867473602295
 30
0.0
  0
VERTEX
  5
2C8
330
2C3
100
AcDbEntity
  8
Bordo_0
100
AcDbVertex
100
AcDb2dVertex
 10
415.0
 20
145.6132507324219
 30
0.0
  0
VERTEX
  5
2C9
330
2C3
100
AcDbEntity
  8
Bordo_0
100
AcDbVertex
100
AcDb2dVertex
 10
410.0
 20
148.5000038146973
 30
0.0
  0
SEQEND
  5
2C6
330
2C3
100
AcDbEntity
  8
Bordo_0
  0
LINE
  5
2CA
330
2A4
100
AcDbEntity
  8
Bordo_0
100
AcDbLine
 10
70.0
 20
10.0
 30
0.0
 11
70.0
 21
6.100000143051147
 31
0.0
  0
LINE
  5
2CB
330
2A4
100
AcDbEntity
  8
Bordo_0
100
AcDbLine
 10
70.0
 20
287.0000076293946
 30
0.0
 11
70.0
 21
290.9000015258789
 31
0.0
  0
LINE
  5
2CC
330
2A4
100
AcDbEntity
  8
Bordo_0
100
AcDbLine
 10
140.0
 20
10.0
 30
0.0
 11
140.0
 21
6.100000143051147
 31
0.0
  0
LINE
  5
2CD
330
2A4
100
AcDbEntity
  8
Bordo_0
100
AcDbLine
 10
140.0
 20
287.0000076293946
 30
0.0
 11
140.0
 21
290.9000015258789
 31
0.0
  0
LINE
  5
2CE
330
2A4
100
AcDbEntity
  8
Bordo_0
100
AcDbLine
 10
280.0
 20
10.0
 30
0.0
 11
280.0
 21
6.100000143051147
 31
0.0
  0
LINE
  5
2CF
330
2A4
100
AcDbEntity
  8
Bordo_0
100
AcDbLine
 10
280.0
 20
287.0000076293946
 30
0.0
 11
280.0
 21
290.9000015258789
 31
0.0
  0
LINE
  5
2D0
330
2A4
100
AcDbEntity
  8
Bordo_0
100
AcDbLine
 10
350.0
 20
10.0
 30
0.0
 11
350.0
 21
6.100000143051147
 31
0.0
  0
LINE
  5
2D1
330
2A4
100
AcDbEntity
  8
Bordo_0
100
AcDbLine
 10
350.0
 20
287.0000076293946
 30
0.0
 11
350.0
 21
290.9000015258789
 31
0.0
  0
MTEXT
  5
2D2
330
2A4
100
AcDbEntity
  8
Bordo_2
100
AcDbMText
 10
384.1980168835889
 20
287.4
 30
0.0
 40
3.499999940395355
 41
0.0
 71
     7
 72
     1
  1
1
  7
Bordo_1
 73
     1
 44
1.0
1001
ACAD
1000
MTEXTBEGIN
1070
    73
1070
     1
1070
    44
1040
1.0
1070
    74
1070
     0
1000
MTEXTEND
  0
MTEXT
  5
2D3
330
2A4
100
AcDbEntity
  8
Bordo_2
100
AcDbMText
 10
384.1980168835889
 20
6.100000059604644
 30
0.0
 40
3.499999940395355
 41
0.0
 71
     7
 72
     1
  1
1
  7
Bordo_1
 73
     1
 44
1.0
1001
ACAD
1000
MTEXTBEGIN
1070
    73
1070
     1
1070
    44
1040
1.0
1070
    74
1070
     0
1000
MTEXTEND
  0
MTEXT
  5
2D4
330
2A4
100
AcDbEntity
  8
Bordo_2
100
AcDbMText
 10
313.7892158440201
 20
287.4
 30
0.0
 40
3.499999940395355
 41
0.0
 71
     7
 72
     1
  1
2
  7
Bordo_1
 73
     1
 44
1.0
1001
ACAD
1000
MTEXTBEGIN
1070
    73
1070
     1
1070
    44
1040
1.0
1070
    74
1070
     0
1000
MTEXTEND
  0
MTEXT
  5
2D5
330
2A4
100
AcDbEntity
  8
Bordo_2
100
AcDbMText
 10
313.7892158440201
 20
6.100000059604644
 30
0.0
 40
3.499999940395355
 41
0.0
 71
     7
 72
     1
  1
2
  7
Bordo_1
 73
     1
 44
1.0
1001
ACAD
1000
MTEXTBEGIN
1070
    73
1070
     1
1070
    44
1040
1.0
1070
    74
1070
     0
1000
MTEXTEND
  0
MTEXT
  5
2D6
330
2A4
100
AcDbEntity
  8
Bordo_2
100
AcDbMText
 10
243.8564160149081
 20
287.3413109757006
 30
0.0
 40
3.499999940395355
 41
0.0
 71
     7
 72
     1
  1
3
  7
Bordo_1
 73
     1
 44
1.0
1001
ACAD
1000
MTEXTBEGIN
1070
    73
1070
     1
1070
    44
1040
1.0
1070
    74
1070
     0
1000
MTEXTEND
  0
MTEXT
  5
2D7
330
2A4
100
AcDbEntity
  8
Bordo_2
100
AcDbMText
 10
243.8564160149081
 20
6.041311035305261
 30
0.0
 40
3.499999940395355
 41
0.0
 71
     7
 72
     1
  1
3
  7
Bordo_1
 73
     1
 44
1.0
1001
ACAD
1000
MTEXTBEGIN
1070
    73
1070
     1
1070
    44
1040
1.0
1070
    74
1070
     0
1000
MTEXTEND
  0
MTEXT
  5
2D8
330
2A4
100
AcDbEntity
  8
Bordo_2
100
AcDbMText
 10
173.70521563041
 20
287.4
 30
0.0
 40
3.499999940395355
 41
0.0
 71
     7
 72
     1
  1
4
  7
Bordo_1
 73
     1
 44
1.0
1001
ACAD
1000
MTEXTBEGIN
1070
    73
1070
     1
1070
    44
1040
1.0
1070
    74
1070
     0
1000
MTEXTEND
  0
MTEXT
  5
2D9
330
2A4
100
AcDbEntity
  8
Bordo_2
100
AcDbMText
 10
173.70521563041
 20
6.100000059604644
 30
0.0
 40
3.499999940395355
 41
0.0
 71
     7
 72
     1
  1
4
  7
Bordo_1
 73
     1
 44
1.0
1001
ACAD
1000
MTEXTBEGIN
1070
    73
1070
     1
1070
    44
1040
1.0
1070
    74
1070
     0
1000
MTEXTEND
  0
MTEXT
  5
2DA
330
2A4
100
AcDbEntity
  8
Bordo_2
100
AcDbMText
 10
103.8536160077878
 20
287.3413109757006
 30
0.0
 40
3.499999940395355
 41
0.0
 71
     7
 72
     1
  1
5
  7
Bordo_1
 73
     1
 44
1.0
1001
ACAD
1000
MTEXTBEGIN
1070
    73
1070
     1
1070
    44
1040
1.0
1070
    74
1070
     0
1000
MTEXTEND
  0
MTEXT
  5
2DB
330
2A4
100
AcDbEntity
  8
Bordo_2
100
AcDbMText
 10
103.8536160077878
 20
6.041311035305261
 30
0.0
 40
3.499999940395355
 41
0.0
 71
     7
 72
     1
  1
5
  7
Bordo_1
 73
     1
 44
1.0
1001
ACAD
1000
MTEXTBEGIN
1070
    73
1070
     1
1070
    44
1040
1.0
1070
    74
1070
     0
1000
MTEXTEND
  0
MTEXT
  5
2DC
330
2A4
100
AcDbEntity
  8
Bordo_2
100
AcDbMText
 10
33.83401595794546
 20
287.3413109757006
 30
0.0
 40
3.499999940395355
 41
0.0
 71
     7
 72
     1
  1
6
  7
Bordo_1
 73
     1
 44
1.0
1001
ACAD
1000
MTEXTBEGIN
1070
    73
1070
     1
1070
    44
1040
1.0
1070
    74
1070
     0
1000
MTEXTEND
  0
MTEXT
  5
2DD
330
2A4
100
AcDbEntity
  8
Bordo_2
100
AcDbMText
 10
33.83401595794546
 20
6.041311035305261
 30
0.0
 40
3.499999940395355
 41
0.0
 71
     7
 72
     1
  1
6
  7
Bordo_1
 73
     1
 44
1.0
1001
ACAD
1000
MTEXTBEGIN
1070
    73
1070
     1
1070
    44
1040
1.0
1070
    74
1070
     0
1000
MTEXTEND
  0
LINE
  5
2DE
330
2A4
100
AcDbEntity
  8
Bordo_0
100
AcDbLine
 10
10.0
 20
74.25000190734863
 30
0.0
 11
6.100000143051147
 21
74.25000190734863
 31
0.0
  0
LINE
  5
2DF
330
2A4
100
AcDbEntity
  8
Bordo_0
100
AcDbLine
 10
410.0
 20
74.25000190734863
 30
0.0
 11
413.8999938964843
 21
74.25000190734863
 31
0.0
  0
LINE
  5
2E0
330
2A4
100
AcDbEntity
  8
Bordo_0
100
AcDbLine
 10
10.0
 20
222.7499961853027
 30
0.0
 11
6.100000143051147
 21
222.7499961853027
 31
0.0
  0
LINE
  5
2E1
330
2A4
100
AcDbEntity
  8
Bordo_0
100
AcDbLine
 10
410.0
 20
222.7499961853027
 30
0.0
 11
413.8999938964843
 21
222.7499961853027
 31
0.0
  0
MTEXT
  5
2E2
330
2A4
100
AcDbEntity
  8
Bordo_2
100
AcDbMText
 10
6.206442621438576
 20
35.37500002980233
 30
0.0
 40
3.499999940395355
 41
0.0
 71
     7
 72
     1
  1
A
  7
Bordo_1
 73
     1
 44
1.0
1001
ACAD
1000
MTEXTBEGIN
1070
    73
1070
     1
1070
    44
1040
1.0
1070
    74
1070
     0
1000
MTEXTEND
  0
MTEXT
  5
2E3
330
2A4
100
AcDbEntity
  8
Bordo_2
100
AcDbMText
 10
410.5064425618338
 20
35.37500002980233
 30
0.0
 40
3.499999940395355
 41
0.0
 71
     7
 72
     1
  1
A
  7
Bordo_1
 73
     1
 44
1.0
1001
ACAD
1000
MTEXTBEGIN
1070
    73
1070
     1
1070
    44
1040
1.0
1070
    74
1070
     0
1000
MTEXTEND
  0
MTEXT
  5
2E4
330
2A4
100
AcDbEntity
  8
Bordo_2
100
AcDbMText
 10
6.593912902519599
 20
109.6250000298023
 30
0.0
 40
3.499999940395355
 41
0.0
 71
     7
 72
     1
  1
B
  7
Bordo_1
 73
     1
 44
1.0
1001
ACAD
1000
MTEXTBEGIN
1070
    73
1070
     1
1070
    44
1040
1.0
1070
    74
1070
     0
1000
MTEXTEND
  0
MTEXT
  5
2E5
330
2A4
100
AcDbEntity
  8
Bordo_2
100
AcDbMText
 10
410.8939128429149
 20
109.6250000298023
 30
0.0
 40
3.499999940395355
 41
0.0
 71
     7
 72
     1
  1
B
  7
Bordo_1
 73
     1
 44
1.0
1001
ACAD
1000
MTEXTBEGIN
1070
    73
1070
     1
1070
    44
1040
1.0
1070
    74
1070
     0
1000
MTEXTEND
  0
MTEXT
  5
2E6
330
2A4
100
AcDbEntity
  8
Bordo_2
100
AcDbMText
 10
6.338794476247101
 20
183.8163110055029
 30
0.0
 40
3.499999940395355
 41
0.0
 71
     7
 72
     1
  1
C
  7
Bordo_1
 73
     1
 44
1.0
1001
ACAD
1000
MTEXTBEGIN
1070
    73
1070
     1
1070
    44
1040
1.0
1070
    74
1070
     0
1000
MTEXTEND
  0
MTEXT
  5
2E7
330
2A4
100
AcDbEntity
  8
Bordo_2
100
AcDbMText
 10
410.6387944166424
 20
183.8163110055029
 30
0.0
 40
3.499999940395355
 41
0.0
 71
     7
 72
     1
  1
C
  7
Bordo_1
 73
     1
 44
1.0
1001
ACAD
1000
MTEXTBEGIN
1070
    73
1070
     1
1070
    44
1040
1.0
1070
    74
1070
     0
1000
MTEXTEND
  0
MTEXT
  5
2E8
330
2A4
100
AcDbEntity
  8
Bordo_2
100
AcDbMText
 10
6.478794832263828
 20
258.1250000298023
 30
0.0
 40
3.499999940395355
 41
0.0
 71
     7
 72
     1
  1
D
  7
Bordo_1
 73
     1
 44
1.0
1001
ACAD
1000
MTEXTBEGIN
1070
    73
1070
     1
1070
    44
1040
1.0
1070
    74
1070
     0
1000
MTEXTEND
  0
MTEXT
  5
2E9
330
2A4
100
AcDbEntity
  8
Bordo_2
100
AcDbMText
 10
410.7787947726591
 20
258.1250000298023
 30
0.0
 40
3.499999940395355
 41
0.0
 71
     7
 72
     1
  1
D
  7
Bordo_1
 73
     1
 44
1.0
1001
ACAD
1000
MTEXTBEGIN
1070
    73
1070
     1
1070
    44
1040
1.0
1070
    74
1070
     0
1000
MTEXTEND
  0
ENDBLK
  5
2A6
330
2A4
100
AcDbEntity
  8
0
100
AcDbBlockEnd
  0
BLOCK
  5
3E7
330
3E6
100
AcDbEntity
  8
0
100
AcDbBlockBegin
  2
Cartigli COMUNELLO
 70
     2
 10
0.0
 20
0.0
 30
0.0
  3
Cartigli COMUNELLO
  1

  0
HATCH
  5
3F5
330
3E6
100
AcDbEntity
  8
Tratteggio
 62
     7
100
AcDbHatch
 10
0.0
 20
0.0
 30
0.0
210
0.0
220
0.0
230
1.0
  2
SOLID
 70
     1
 71
     0
 91
        2
 92
        0
 93
        6
 72
     1
 10
13.50007588364672
 20
19.89302050081428
 11
30.89993084866332
 21
19.89302050081416
 72
     1
 10
30.89993084866332
 20
19.89302050081416
 11
30.89993084866332
 21
23.04299424448097
 72
     1
 10
30.89993084866332
 20
23.04299424448097
 11
27.77220960581477
 21
23.04299424448103
 72
     2
 10
22.20000336615506
 20
37.30358966223789
 40
15.31058666564578
 50
68.65735037136855
 51
111.3426496286315
 73
     0
 72
     1
 10
16.62779712649531
 20
23.04299424448104
 11
13.50007588364672
 21
23.04299424448097
 72
     1
 10
13.50007588364672
 20
23.04299424448097
 11
13.50007588364672
 21
19.89302050081428
 97
        0
 92
        1
 93
        6
 72
     1
 10
32.69991584504435
 20
18.09303550443317
 11
32.69991584504435
 21
24.84297924086209
 72
     1
 10
32.69991584504435
 20
24.84297924086208
 11
27.42202839407664
 21
24.84297924086206
 72
     2
 10
22.20000336615506
 20
37.30358966223789
 40
13.51060166926475
 50
67.26229019813374
 51
112.7377098018664
 73
     0
 72
     1
 10
16.97797833823344
 20
24.84297924086206
 11
11.70009088726569
 21
24.84297924086208
 72
     1
 10
11.70009088726569
 20
24.84297924086208
 11
11.70009088726569
 21
18.09303550443317
 72
     1
 10
11.70009088726569
 20
18.09303550443317
 11
32.69991584504435
 21
18.09303550443317
 97
        0
 75
     0
 76
     1
 98
        1
 10
0.0
 20
0.0
  0
HATCH
  5
3FE
330
3E6
100
AcDbEntity
  8
Tratteggio
 62
     7
100
AcDbHatch
 10
0.0
 20
0.0
 30
0.0
210
0.0
220
0.0
230
1.0
  2
SOLID
 70
     1
 71
     0
 91
        1
 92
        1
 93
        8
 72
     1
 10
95.05771295395282
 20
26.74999998775002
 11
27.77386600155343
 21
26.74999998775007
 72
     2
 10
22.20000336615506
 20
39.84359466344421
 40
14.23060667047108
 50
66.94084417726135
 51
113.0591558227387
 73
     0
 72
     1
 10
16.62614073075666
 20
26.74999998775004
 11
10.0
 21
26.74999998775003
 72
     1
 10
10.0
 20
26.74999998775003
 11
10.00000000000025
 21
26.24999998775003
 72
     1
 10
10.00000000000025
 20
26.24999998775003
 11
16.52506224989093
 21
26.24999998775001
 72
     2
 10
22.20000336615506
 20
39.84359466344421
 40
14.73060667047108
 50
247.3408443660875
 51
292.6591556339125
 73
     1
 72
     1
 10
27.87494448241919
 20
26.24999998775003
 11
95.05771295395282
 21
26.24999998775003
 72
     1
 10
95.05771295395282
 20
26.24999998775003
 11
95.05771295395282
 21
26.74999998775002
 97
        0
 75
     0
 76
     1
 98
        1
 10
0.0
 20
0.0
  0
HATCH
  5
40B
330
3E6
100
AcDbEntity
  8
Tratteggio
 62
     7
100
AcDbHatch
 10
0.0
 20
0.0
 30
0.0
210
0.0
220
0.0
230
1.0
  2
SOLID
 70
     1
 71
     0
 91
        2
 92
        0
 93
        6
 72
     1
 10
30.90009088726564
 20
32.93297924086207
 11
30.90009088726564
 21
29.78297924086208
 72
     1
 10
30.90009088726564
 20
29.78297924086208
 11
26.91257430898715
 21
29.78297924086208
 72
     2
 10
22.20009088726563
 20
39.83297924086207
 40
11.1
 50
64.87793981336809
 51
115.1220601866318
 73
     0
 72
     1
 10
17.48760746554413
 20
29.78297924086206
 11
13.50009088726564
 21
29.78297924086206
 72
     1
 10
13.50009088726564
 20
29.78297924086206
 11
13.50009088726564
 21
32.93297924086207
 72
     1
 10
13.50009088726564
 20
32.93297924086207
 11
30.90009088726564
 21
32.93297924086207
 97
        0
 92
        1
 93
        6
 72
     1
 10
11.70009088726567
 20
34.7329792408621
 11
32.70009088726567
 21
34.73297924086214
 72
     1
 10
32.70009088726567
 20
34.73297924086214
 11
32.70009088726565
 21
27.98297924086213
 72
     1
 10
32.70009088726565
 20
27.98297924086213
 11
27.30247474189664
 21
27.98297924086202
 72
     2
 10
22.20009088726567
 20
39.84297924086207
 40
12.911
 50
66.72176127080208
 51
113.2782387291978
 73
     0
 72
     1
 10
17.09770703263471
 20
27.98297924086201
 11
11.70009088726569
 21
27.98297924086199
 72
     1
 10
11.70009088726569
 20
27.98297924086199
 11
11.70009088726567
 21
34.7329792408621
 97
        0
 75
     0
 76
     1
 98
        1
 10
0.0
 20
0.0
  0
LINE
  5
40C
330
3E6
100
AcDbEntity
  8
Geometria schizzo(ISO)
  6
Continuous
 62
     7
370
    50
100
AcDbLine
 10
200.0
 20
67.5
 30
0.0
 11
10.0
 21
67.5
 31
0.0
  0
LINE
  5
40D
330
3E6
100
AcDbEntity
  8
Geometria schizzo(ISO)
  6
Continuous
 62
     7
370
    50
100
AcDbLine
 10
10.0
 20
59.5
 30
0.0
 11
200.0
 21
59.5
 31
0.0
  0
LINE
  5
40E
330
3E6
100
AcDbEntity
  8
Geometria schizzo(ISO)
  6
Continuous
 62
     7
370
    50
100
AcDbLine
 10
10.0
 20
54.5
 30
0.0
 11
200.0000000000002
 21
54.5
 31
0.0
  0
LINE
  5
40F
330
3E6
100
AcDbEntity
  8
Geometria schizzo(ISO)
  6
Continuous
 62
     7
370
    50
100
AcDbLine
 10
9.999999999999998
 20
46.49999997550015
 30
0.0
 11
200.0000000000002
 21
46.49999997550015
 31
0.0
  0
LINE
  5
410
330
3E6
100
AcDbEntity
  8
Geometria schizzo(ISO)
  6
Continuous
 62
     7
370
    50
100
AcDbLine
 10
10.0
 20
38.49999997550006
 30
0.0
 11
200.0000000000002
 21
38.49999997550006
 31
0.0
  0
LINE
  5
411
330
3E6
100
AcDbEntity
  8
Geometria schizzo(ISO)
  6
Continuous
 62
     7
370
    50
100
AcDbLine
 10
10.0
 20
14.5
 30
0.0
 11
200.0
 21
14.5
 31
0.0
  0
LINE
  5
412
330
3E6
100
AcDbEntity
  8
Geometria schizzo(ISO)
  6
Continuous
 62
     7
370
    50
100
AcDbLine
 10
10.0
 20
10.0
 30
0.0
 11
200.0
 21
10.0
 31
0.0
  0
LINE
  5
413
330
3E6
100
AcDbEntity
  8
Geometria schizzo(ISO)
  6
Continuous
 62
     7
370
    50
100
AcDbLine
 10
126.5003211145929
 20
30.50000000000001
 30
0.0
 11
200.0
 21
30.50000000000001
 31
0.0
  0
LINE
  5
414
330
3E6
100
AcDbEntity
  8
Geometria schizzo(ISO)
  6
Continuous
 62
     7
370
    50
100
AcDbLine
 10
126.5003211145929
 20
22.5
 30
0.0
 11
200.0
 21
22.5
 31
0.0
  0
LINE
  5
415
330
3E6
100
AcDbEntity
  8
Geometria schizzo(ISO)
  6
Continuous
 62
     7
370
    50
100
AcDbLine
 10
10.0
 20
10.0
 30
0.0
 11
9.999999999999998
 21
67.5
 31
0.0
  0
LINE
  5
416
330
3E6
100
AcDbEntity
  8
Geometria schizzo(ISO)
  6
Continuous
 62
     7
370
    50
100
AcDbLine
 10
82.71476190476196
 20
67.5
 30
0.0
 11
82.71476190476199
 21
38.49999997550006
 31
0.0
  0
LINE
  5
417
330
3E6
100
AcDbEntity
  8
Geometria schizzo(ISO)
  6
Continuous
 62
     7
370
    50
100
AcDbLine
 10
34.23825396825403
 20
46.49999997550015
 30
0.0
 11
34.23825396825403
 21
38.49999997550006
 31
0.0
  0
LINE
  5
418
330
3E6
100
AcDbEntity
  8
Geometria schizzo(ISO)
  6
Continuous
 62
     7
370
    50
100
AcDbLine
 10
58.47650793650799
 20
46.49999997550015
 30
0.0
 11
58.47650793650799
 21
38.49999997550003
 31
0.0
  0
LINE
  5
419
330
3E6
100
AcDbEntity
  8
Geometria schizzo(ISO)
  6
Continuous
 62
     7
370
    50
100
AcDbLine
 10
111.6495238095238
 20
67.5
 30
0.0
 11
111.6495238095238
 21
38.4999999755002
 31
0.0
  0
LINE
  5
41A
330
3E6
100
AcDbEntity
  8
Geometria schizzo(ISO)
  6
Continuous
 62
     7
370
    50
100
AcDbLine
 10
126.5003211145929
 20
46.49999997550015
 30
0.0
 11
126.5003211145929
 21
14.5
 31
0.0
  0
LINE
  5
41B
330
3E6
100
AcDbEntity
  8
Geometria schizzo(ISO)
  6
Continuous
 62
     7
370
    50
100
AcDbLine
 10
159.8068536898258
 20
46.49999997550015
 30
0.0
 11
159.8068536898258
 21
22.5
 31
0.0
  0
LINE
  5
41C
330
3E6
100
AcDbEntity
  8
Geometria schizzo(ISO)
  6
Continuous
 62
     7
370
    50
100
AcDbLine
 10
176.9329761904763
 20
67.5
 30
0.0
 11
176.9329761904763
 21
22.5
 31
0.0
  0
LINE
  5
41D
330
3E6
100
AcDbEntity
  8
Geometria schizzo(ISO)
  6
Continuous
 62
     7
370
    50
100
AcDbLine
 10
200.0
 20
67.5
 30
0.0
 11
200.0
 21
10.0
 31
0.0
  0
LINE
  5
41E
330
3E6
100
AcDbEntity
  8
Geometria schizzo(ISO)
  6
Continuous
 62
     7
370
    50
100
AcDbLine
 10
32.69991584504435
 20
18.09303550443317
 30
0.0
 11
32.69991584504435
 21
24.84297924086208
 31
0.0
  0
LINE
  5
41F
330
3E6
100
AcDbEntity
  8
Geometria schizzo(ISO)
  6
Continuous
 62
     7
370
    50
100
AcDbLine
 10
30.89993084866332
 20
19.89302050081416
 30
0.0
 11
30.89993084866332
 21
23.04299424448097
 31
0.0
  0
LINE
  5
420
330
3E6
100
AcDbEntity
  8
Geometria schizzo(ISO)
  6
Continuous
 62
     7
370
    50
100
AcDbLine
 10
11.70009088726569
 20
18.09303550443317
 30
0.0
 11
11.70009088726569
 21
24.84297924086208
 31
0.0
  0
LINE
  5
421
330
3E6
100
AcDbEntity
  8
Geometria schizzo(ISO)
  6
Continuous
 62
     7
370
    50
100
AcDbLine
 10
13.50007588364672
 20
19.89302050081428
 30
0.0
 11
13.50007588364672
 21
23.04299424448097
 31
0.0
  0
LINE
  5
422
330
3E6
100
AcDbEntity
  8
Geometria schizzo(ISO)
  6
Continuous
 62
     7
370
    50
100
AcDbLine
 10
32.69991584504435
 20
18.09303550443317
 30
0.0
 11
11.70009088726569
 21
18.09303550443317
 31
0.0
  0
LINE
  5
423
330
3E6
100
AcDbEntity
  8
Geometria schizzo(ISO)
  6
Continuous
 62
     7
370
    50
100
AcDbLine
 10
30.89993084866332
 20
19.89302050081416
 30
0.0
 11
13.50007588364672
 21
19.89302050081428
 31
0.0
  0
ARC
  5
424
330
3E6
100
AcDbEntity
  8
Geometria schizzo(ISO)
  6
Continuous
 62
     7
370
    50
100
AcDbCircle
 10
22.20000336615506
 20
37.30358966223789
 30
0.0
 40
15.31058666564578
100
AcDbArc
 50
248.6573503713684
 51
291.3426496286315
  0
ARC
  5
425
330
3E6
100
AcDbEntity
  8
Geometria schizzo(ISO)
  6
Continuous
 62
     7
370
    50
100
AcDbCircle
 10
22.20000336615506
 20
37.30358966223789
 30
0.0
 40
13.51060166926475
100
AcDbArc
 50
247.2622901981336
 51
292.7377098018663
  0
LINE
  5
426
330
3E6
100
AcDbEntity
  8
Geometria schizzo(ISO)
  6
Continuous
 62
     7
370
    50
100
AcDbLine
 10
11.70009088726569
 20
24.84297924086208
 30
0.0
 11
16.97797833823344
 21
24.84297924086206
 31
0.0
  0
LINE
  5
427
330
3E6
100
AcDbEntity
  8
Geometria schizzo(ISO)
  6
Continuous
 62
     7
370
    50
100
AcDbLine
 10
13.50007588364672
 20
23.04299424448097
 30
0.0
 11
16.62779712649531
 21
23.04299424448104
 31
0.0
  0
LINE
  5
428
330
3E6
100
AcDbEntity
  8
Geometria schizzo(ISO)
  6
Continuous
 62
     7
370
    50
100
AcDbLine
 10
27.42202839407664
 20
24.84297924086206
 30
0.0
 11
32.69991584504435
 21
24.84297924086208
 31
0.0
  0
LINE
  5
429
330
3E6
100
AcDbEntity
  8
Geometria schizzo(ISO)
  6
Continuous
 62
     7
370
    50
100
AcDbLine
 10
27.77220960581477
 20
23.04299424448103
 30
0.0
 11
30.89993084866332
 21
23.04299424448097
 31
0.0
  0
LINE
  5
42A
330
3E6
100
AcDbEntity
  8
Geometria schizzo(ISO)
  6
Continuous
 62
     7
370
    50
100
AcDbLine
 10
95.05771295395282
 20
26.74999998775002
 30
0.0
 11
95.05771295395282
 21
26.24999998775003
 31
0.0
  0
LINE
  5
42B
330
3E6
100
AcDbEntity
  8
Geometria schizzo(ISO)
  6
Continuous
 62
     7
370
    50
100
AcDbLine
 10
16.62614073075666
 20
26.74999998775004
 30
0.0
 11
10.0
 21
26.74999998775003
 31
0.0
  0
ARC
  5
42C
330
3E6
100
AcDbEntity
  8
Geometria schizzo(ISO)
  6
Continuous
 62
     7
370
    50
100
AcDbCircle
 10
22.20000336615506
 20
39.84359466344421
 30
0.0
 40
14.23060667047107
100
AcDbArc
 50
246.9408441772613
 51
293.0591558227387
  0
LINE
  5
42D
330
3E6
100
AcDbEntity
  8
Geometria schizzo(ISO)
  6
Continuous
 62
     7
370
    50
100
AcDbLine
 10
27.77386600155342
 20
26.74999998775007
 30
0.0
 11
95.05771295395282
 21
26.74999998775002
 31
0.0
  0
LINE
  5
42E
330
3E6
100
AcDbEntity
  8
Geometria schizzo(ISO)
  6
Continuous
 62
     7
370
    50
100
AcDbLine
 10
27.87494448241919
 20
26.24999998775003
 30
0.0
 11
95.05771295395282
 21
26.24999998775003
 31
0.0
  0
ARC
  5
42F
330
3E6
100
AcDbEntity
  8
Geometria schizzo(ISO)
  6
Continuous
 62
     7
370
    50
100
AcDbCircle
 10
22.20000336615506
 20
39.84359466344421
 30
0.0
 40
14.73060667047108
100
AcDbArc
 50
247.3408443660875
 51
292.6591556339125
  0
LINE
  5
430
330
3E6
100
AcDbEntity
  8
Geometria schizzo(ISO)
  6
Continuous
 62
     7
370
    50
100
AcDbLine
 10
16.52506224989093
 20
26.24999998775001
 30
0.0
 11
10.00000000000025
 21
26.24999998775003
 31
0.0
  0
LINE
  5
431
330
3E6
100
AcDbEntity
  8
Geometria schizzo(ISO)
  6
Continuous
 62
     7
370
    50
100
AcDbLine
 10
10.0
 20
26.74999998775003
 30
0.0
 11
10.00000000000025
 21
26.24999998775003
 31
0.0
  0
LINE
  5
432
330
3E6
100
AcDbEntity
  8
Geometria schizzo(ISO)
  6
Continuous
 62
     7
370
    50
100
AcDbLine
 10
70.09301344488737
 20
40.10977632401654
 30
0.0
 11
70.06166132979082
 21
45.19999997550015
 31
0.0
  0
LINE
  5
433
330
3E6
100
AcDbEntity
  8
Geometria schizzo(ISO)
  6
Continuous
 62
     7
370
    50
100
AcDbLine
 10
62.715217801343
 20
44.2999999755001
 30
0.0
 11
70.06166132979082
 21
45.19999997550015
 31
0.0
  0
LINE
  5
434
330
3E6
100
AcDbEntity
  8
Geometria schizzo(ISO)
  6
Continuous
 62
     7
370
    50
100
AcDbLine
 10
62.715217801343
 20
40.69999997550009
 30
0.0
 11
70.09301344488737
 21
40.10977632401654
 31
0.0
  0
LINE
  5
435
330
3E6
100
AcDbEntity
  8
Geometria schizzo(ISO)
  6
Continuous
 62
     7
370
    50
100
AcDbLine
 10
62.715217801343
 20
40.69999997550009
 30
0.0
 11
62.715217801343
 21
44.2999999755001
 31
0.0
  0
LINE
  5
436
330
3E6
100
AcDbEntity
  8
Geometria schizzo(ISO)
  6
LONG_DASH_DOTTED
 62
     7
 48
25.40819931030274
370
    25
100
AcDbLine
 10
61.89509347490513
 20
42.4999999755001
 30
0.0
 11
79.03957443821731
 21
42.4999999755001
 31
0.0
  0
CIRCLE
  5
437
330
3E6
100
AcDbEntity
  8
Geometria schizzo(ISO)
  6
Continuous
 62
     7
370
    50
100
AcDbCircle
 10
75.61970665301604
 20
42.4999999755001
 30
0.0
 40
2.835161292266829
  0
CIRCLE
  5
438
330
3E6
100
AcDbEntity
  8
Geometria schizzo(ISO)
  6
Continuous
 62
     7
370
    50
100
AcDbCircle
 10
75.61970665301604
 20
42.4999999755001
 30
0.0
 40
1.8
  0
LINE
  5
439
330
3E6
100
AcDbEntity
  8
Geometria schizzo(ISO)
  6
DASH_DOT
 62
     7
 48
25.41209030151367
370
    25
100
AcDbLine
 10
75.61970665301604
 20
45.98912961192912
 30
0.0
 11
75.61970665301604
 21
39.01126421122319
 31
0.0
  0
LINE
  5
43A
330
3E6
100
AcDbEntity
  8
Geometria schizzo(ISO)
100
AcDbLine
 10
13.50009088726564
 20
32.93297924086207
 30
0.0
 11
30.90009088726564
 21
32.93297924086207
 31
0.0
  0
LINE
  5
43B
330
3E6
100
AcDbEntity
  8
Geometria schizzo(ISO)
100
AcDbLine
 10
30.90009088726564
 20
32.93297924086207
 30
0.0
 11
30.90009088726564
 21
29.78297924086208
 31
0.0
  0
LINE
  5
43C
330
3E6
100
AcDbEntity
  8
Geometria schizzo(ISO)
100
AcDbLine
 10
30.90009088726564
 20
29.78297924086208
 30
0.0
 11
26.91257430898715
 21
29.78297924086208
 31
0.0
  0
LINE
  5
43D
330
3E6
100
AcDbEntity
  8
Geometria schizzo(ISO)
100
AcDbLine
 10
13.50009088726564
 20
32.93297924086207
 30
0.0
 11
13.50009088726564
 21
29.78297924086206
 31
0.0
  0
LINE
  5
43E
330
3E6
100
AcDbEntity
  8
Geometria schizzo(ISO)
100
AcDbLine
 10
13.50009088726564
 20
29.78297924086206
 30
0.0
 11
17.48760746554413
 21
29.78297924086206
 31
0.0
  0
ARC
  5
43F
330
3E6
100
AcDbEntity
  8
Geometria schizzo(ISO)
100
AcDbCircle
 10
22.20009088726563
 20
39.83297924086207
 30
0.0
 40
11.1
100
AcDbArc
 50
244.8779398133681
 51
295.122060186632
  0
LINE
  5
440
330
3E6
100
AcDbEntity
  8
Geometria schizzo(ISO)
100
AcDbLine
 10
11.70009088726567
 20
34.7329792408621
 30
0.0
 11
32.70009088726567
 21
34.73297924086214
 31
0.0
  0
LINE
  5
441
330
3E6
100
AcDbEntity
  8
Geometria schizzo(ISO)
100
AcDbLine
 10
32.70009088726567
 20
34.73297924086214
 30
0.0
 11
32.70009088726565
 21
27.98297924086213
 31
0.0
  0
LINE
  5
442
330
3E6
100
AcDbEntity
  8
Geometria schizzo(ISO)
100
AcDbLine
 10
32.70009088726565
 20
27.98297924086213
 30
0.0
 11
27.30247474189664
 21
27.98297924086202
 31
0.0
  0
LINE
  5
443
330
3E6
100
AcDbEntity
  8
Geometria schizzo(ISO)
100
AcDbLine
 10
11.70009088726567
 20
34.7329792408621
 30
0.0
 11
11.70009088726569
 21
27.98297924086199
 31
0.0
  0
LINE
  5
444
330
3E6
100
AcDbEntity
  8
Geometria schizzo(ISO)
100
AcDbLine
 10
11.70009088726569
 20
27.98297924086199
 30
0.0
 11
17.09770703263471
 21
27.98297924086201
 31
0.0
  0
ARC
  5
445
330
3E6
100
AcDbEntity
  8
Geometria schizzo(ISO)
100
AcDbCircle
 10
22.20009088726567
 20
39.84297924086207
 30
0.0
 40
12.911
100
AcDbArc
 50
246.7217612708022
 51
293.2782387291979
  0
CIRCLE
  5
446
330
3E6
100
AcDbEntity
  8
Geometria schizzo(ISO)
  6
Continuous
370
    25
100
AcDbCircle
 10
94.17107124803315
 20
30.38071944555288
 30
0.0
 40
1.196319387325194
  0
LINE
  5
447
330
3E6
100
AcDbEntity
  8
Geometria schizzo(ISO)
100
AcDbLine
 10
0.0
 20
10.0
 30
0.0
 11
0.0
 21
12.0
 31
0.0
  0
LINE
  5
448
330
3E6
100
AcDbEntity
  8
Geometria schizzo(ISO)
100
AcDbLine
 10
200.0
 20
297.0
 30
0.0
 11
198.0000000000001
 21
297.0
 31
0.0
  0
MTEXT
  5
449
330
3E6
100
AcDbEntity
  8
Simboli(ISO)
 62
    96
100
AcDbMText
 10
46.375
 20
57.00000000000001
 30
0.0
 40
2.489199936389923
 41
72.75
 71
     5
 72
     1
  1
\fArial|b0|i0;\H2.4892;Denominazione
  7
Corrente-ISO
 73
     1
 44
1.0
1001
ACAD
1000
MTEXTBEGIN
1070
    73
1070
     1
1070
    44
1040
1.0
1070
    74
1070
     0
1000
MTEXTEND
  0
MTEXT
  5
44A
330
3E6
100
AcDbEntity
  8
Simboli(ISO)
 62
    96
100
AcDbMText
 10
97.25000000000001
 20
57.00000000000001
 30
0.0
 40
2.489199936389923
 41
29.0
 71
     5
 72
     1
  1
\fArial|b0|i0;\H2.4892;Codice Disegno
  7
Corrente-ISO
 73
     1
 44
1.0
1001
ACAD
1000
MTEXTBEGIN
1070
    73
1070
     1
1070
    44
1040
1.0
1070
    74
1070
     0
1000
MTEXTEND
  0
MTEXT
  5
44B
330
3E6
100
AcDbEntity
  8
Simboli(ISO)
 62
    96
100
AcDbMText
 10
144.375
 20
57.00000000000001
 30
0.0
 40
2.489199936389923
 41
65.24999999999998
 71
     5
 72
     1
  1
\fArial|b0|i0;\H2.4892;Materiale-UNI
  7
Corrente-ISO
 73
     1
 44
1.0
1001
ACAD
1000
MTEXTBEGIN
1070
    73
1070
     1
1070
    44
1040
1.0
1070
    74
1070
     0
1000
MTEXTEND
  0
MTEXT
  5
44C
330
3E6
100
AcDbEntity
  8
Simboli(ISO)
 62
    96
100
AcDbMText
 10
188.5
 20
57.00000000000001
 30
0.0
 40
2.489199936389923
 41
23.00000000000001
 71
     5
 72
     1
  1
\fArial|b0|i0;\H2.4892;Codice Mater.
  7
Corrente-ISO
 73
     1
 44
1.0
1001
ACAD
1000
MTEXTBEGIN
1070
    73
1070
     1
1070
    44
1040
1.0
1070
    74
1070
     0
1000
MTEXTEND
  0
MTEXT
  5
44D
330
3E6
100
AcDbEntity
  8
Simboli(ISO)
 62
    96
100
AcDbMText
 10
11.03637498653142
 20
53.62542943640336
 30
0.0
 40
2.489199936389923
 41
0.0
 71
     1
 72
     1
  1
\fArial|b0|i0;\H2.4892;Tolleranze Generali
  7
Corrente-ISO
 73
     1
 44
1.0
1001
ACAD
1000
MTEXTBEGIN
1070
    73
1070
     1
1070
    44
1040
1.0
1070
    74
1070
     0
1000
MTEXTEND
  0
MTEXT
  5
44E
330
3E6
100
AcDbEntity
  8
Simboli(ISO)
 62
    96
100
AcDbMText
 10
22.0
 20
45.62331331753725
 30
0.0
 40
2.489199936389923
 41
22.0
 71
     2
 72
     1
  1
\fArial|b0|i0;\H2.4892;Sostituisce il
  7
Corrente-ISO
 73
     1
 44
1.0
1001
ACAD
1000
MTEXTBEGIN
1070
    73
1070
     1
1070
    44
1040
1.0
1070
    74
1070
     0
1000
MTEXTEND
  0
MTEXT
  5
44F
330
3E6
100
AcDbEntity
  8
Simboli(ISO)
 62
    96
100
AcDbMText
 10
46.5
 20
45.57392268569088
 30
0.0
 40
2.489199936389923
 41
23.0
 71
     2
 72
     1
  1
\fArial|b0|i0;\H2.4892;Sostituito dal
  7
Corrente-ISO
 73
     1
 44
1.0
1001
ACAD
1000
MTEXTBEGIN
1070
    73
1070
     1
1070
    44
1040
1.0
1070
    74
1070
     0
1000
MTEXTEND
  0
MTEXT
  5
450
330
3E6
100
AcDbEntity
  8
Simboli(ISO)
 62
    96
100
AcDbMText
 10
84.0
 20
45.52415962817554
 30
0.0
 40
2.489199936389923
 41
20.0
 71
     1
 72
     1
  1
\fArial|b0|i0;\H2.4892;Scala
  7
Corrente-ISO
 73
     1
 44
1.0
1001
ACAD
1000
MTEXTBEGIN
1070
    73
1070
     1
1070
    44
1040
1.0
1070
    74
1070
     0
1000
MTEXTEND
  0
MTEXT
  5
451
330
3E6
100
AcDbEntity
  8
Simboli(ISO)
 62
    96
100
AcDbMText
 10
119.2198163354513
 20
45.48687767908593
 30
0.0
 40
2.489199936389923
 41
12.5
 71
     2
 72
     1
  1
\fArial|b0|i0;\H2.4892;Foglio\P 
  7
Corrente-ISO
 73
     2
 44
0.9442214369773864
1001
ACAD
1000
MTEXTBEGIN
1070
    73
1070
     2
1070
    44
1040
0.9442214369773864
1070
    74
1070
     0
1000
MTEXTEND
  0
MTEXT
  5
452
330
3E6
100
AcDbEntity
  8
Simboli(ISO)
 62
    96
100
AcDbMText
 10
97.44767410410688
 20
52.26743745909543
 30
0.0
 40
2.489199936389923
 41
27.00000000000001
 71
     5
 72
     1
  1
\fArial|b0|i0;\H2.4892;Peso Unit.(Kg)
  7
Corrente-ISO
 73
     1
 44
1.0
1001
ACAD
1000
MTEXTBEGIN
1070
    73
1070
     1
1070
    44
1040
1.0
1070
    74
1070
     0
1000
MTEXTEND
  0
MTEXT
  5
453
330
3E6
100
AcDbEntity
  8
Simboli(ISO)
 62
    96
100
AcDbMText
 10
113.0
 20
53.52906693798992
 30
0.0
 40
2.489199936389923
 41
41.5
 71
     1
 72
     1
  1
\fArial|b0|i0;\H2.4892;Trattamento
  7
Corrente-ISO
 73
     1
 44
1.0
1001
ACAD
1000
MTEXTBEGIN
1070
    73
1070
     1
1070
    44
1040
1.0
1070
    74
1070
     0
1000
MTEXTEND
  0
MTEXT
  5
454
330
3E6
100
AcDbEntity
  8
Simboli(ISO)
 62
    96
100
AcDbMText
 10
188.6268379764541
 20
52.23897215805649
 30
0.0
 40
2.489199936389923
 41
21.64389610290527
 71
     5
 72
     1
  1
\fArial|b0|i0;\H2.4892;Coeff.Impiego
  7
Corrente-ISO
 73
     1
 44
1.0
1001
ACAD
1000
MTEXTBEGIN
1070
    73
1070
     1
1070
    44
1040
1.0
1070
    74
1070
     0
1000
MTEXTEND
  0
MTEXT
  5
455
330
3E6
100
AcDbEntity
  8
Simboli(ISO)
 62
    96
100
AcDbMText
 10
127.0
 20
45.54724501095818
 30
0.0
 40
2.489199936389923
 41
32.5
 71
     1
 72
     1
  1
\fArial|b0|i0;\H2.4892;Disegnato
  7
Corrente-ISO
 73
     1
 44
1.0
1001
ACAD
1000
MTEXTBEGIN
1070
    73
1070
     1
1070
    44
1040
1.0
1070
    74
1070
     0
1000
MTEXTEND
  0
MTEXT
  5
456
330
3E6
100
AcDbEntity
  8
Simboli(ISO)
 62
    96
100
AcDbMText
 10
127.1130530408996
 20
37.43473480983361
 30
0.0
 40
2.489199936389923
 41
31.99999999999999
 71
     1
 72
     1
  1
\fArial|b0|i0;\H2.4892;Verificato
  7
Corrente-ISO
 73
     1
 44
1.0
1001
ACAD
1000
MTEXTBEGIN
1070
    73
1070
     1
1070
    44
1040
1.0
1070
    74
1070
     0
1000
MTEXTEND
  0
MTEXT
  5
457
330
3E6
100
AcDbEntity
  8
Simboli(ISO)
 62
    96
100
AcDbMText
 10
127.0565265204498
 20
29.43473480983361
 30
0.0
 40
2.489199936389923
 41
31.99999999999999
 71
     1
 72
     1
  1
\fArial|b0|i0;\H2.4892;Approvato
  7
Corrente-ISO
 73
     1
 44
1.0
1001
ACAD
1000
MTEXTBEGIN
1070
    73
1070
     1
1070
    44
1040
1.0
1070
    74
1070
     0
1000
MTEXTEND
  0
MTEXT
  5
458
330
3E6
100
AcDbEntity
  8
Simboli(ISO)
 62
     7
100
AcDbMText
 10
33.90115953460973
 20
31.79652138804769
 30
0.0
 40
3.50519984960556
 41
58.00000000000001
 71
     1
 72
     1
  1
\fArial Black|b1|i0;\H3.5052;Fratelli Comunello 
  7
Corrente-ISO
 73
     1
 44
1.0
1001
ACAD
1000
MTEXTBEGIN
1070
    73
1070
     1
1070
    44
1040
1.0
1070
    74
1070
     0
1000
MTEXTEND
  0
MTEXT
  5
459
330
3E6
100
AcDbEntity
  8
Simboli(ISO)
 62
     7
100
AcDbMText
 10
83.87549784754645
 20
30.17629441918698
 30
0.0
 40
2.006599903106689
 41
8.000000000000007
 71
     1
 72
     1
  1
\fArial Black|b1|i0;\H2.0066;S.p.A
  7
Corrente-ISO
 73
     1
 44
1.0
1001
ACAD
1000
MTEXTBEGIN
1070
    73
1070
     1
1070
    44
1040
1.0
1070
    74
1070
     0
1000
MTEXTEND
  0
MTEXT
  5
45A
330
3E6
100
AcDbEntity
  8
Simboli(ISO)
 62
     7
100
AcDbMText
 10
34.0
 20
24.5
 30
0.0
 40
2.489199936389923
 41
61.00000000000001
 71
     1
 72
     1
  1
\fEuroRoman|b0|i0;\W1.75;\H2.4892;Accessories for fittings
  7
Corrente-ISO
 73
     1
 44
1.0
1001
ACAD
1000
MTEXTBEGIN
1070
    73
1070
     1
1070
    44
1040
1.0
1070
    74
1070
     0
1000
MTEXTEND
  0
MTEXT
  5
45B
102
{ACAD_XDICTIONARY
360
C81
102
}
330
3E6
100
AcDbEntity
  8
Simboli(ISO)
 62
     7
100
AcDbMText
 10
99.38145982981417
 20
35.34883259221208
 30
0.0
 40
2.006599903106689
 41
27.99999999999999
 71
     1
 72
     1
  1
\fArial|b0|i0;\H2.0066;Via Cassola , 64\P36027 Ros\U+00E0 (VI)\PITALY\PTel.0424/585111\PFax.0424/533417\Pwww.comunello.com
  7
Corrente-ISO
 73
     2
 44
0.9442214965820312
1001
ACAD
1000
MTEXTBEGIN
1070
    73
1070
     2
1070
    44
1040
0.9442214965820312
1070
    74
1070
     0
1000
MTEXTEND
  0
MTEXT
  5
45C
330
3E6
100
AcDbEntity
  8
Simboli(ISO)
 62
     7
100
AcDbMText
 10
105.0
 20
12.1031239376365
 30
0.0
 40
2.006599903106689
 41
190.0
 71
     5
 72
     1
  1
\fArial Black|b1|i0;\W0.75;\H2.0066;La Fratelli Comunello S.p.A. si riserva a termini di legge la proprieta' del presente disegno con divieto di riprodurlo o comunicarlo a terzi senza sua autorizzazione
  7
Corrente-ISO
 73
     1
 44
1.0
1001
ACAD
1000
MTEXTBEGIN
1070
    73
1070
     1
1070
    44
1040
1.0
1070
    74
1070
     0
1000
MTEXTEND
  0
MTEXT
  5
45D
330
3E6
100
AcDbEntity
  8
Simboli(ISO)
 62
    96
100
AcDbMText
 10
127.0
 20
21.49126132885024
 30
0.0
 40
2.489199936389923
 41
14.0
 71
     1
 72
     1
  1
\fArial|b0|i0;\H2.4892;Nr.Art.
  7
Corrente-ISO
 73
     1
 44
1.0
1001
ACAD
1000
MTEXTBEGIN
1070
    73
1070
     1
1070
    44
1040
1.0
1070
    74
1070
     0
1000
MTEXTEND
  0
MTEXT
  5
45E
330
3E6
100
AcDbEntity
  8
Simboli(ISO)
 62
    96
100
AcDbMText
 10
160.1920425734282
 20
45.54306374702739
 30
0.0
 40
2.489199936389923
 41
13.99999999999998
 71
     1
 72
     1
  1
\fArial|b0|i0;\H2.4892;Data
  7
Corrente-ISO
 73
     1
 44
1.0
1001
ACAD
1000
MTEXTBEGIN
1070
    73
1070
     1
1070
    44
1040
1.0
1070
    74
1070
     0
1000
MTEXTEND
  0
MTEXT
  5
45F
330
3E6
100
AcDbEntity
  8
Simboli(ISO)
 62
    96
100
AcDbMText
 10
160.145574392169
 20
37.49970139293061
 30
0.0
 40
2.489199936389923
 41
13.50000000000001
 71
     1
 72
     1
  1
\fArial|b0|i0;\H2.4892;Data
  7
Corrente-ISO
 73
     1
 44
1.0
1001
ACAD
1000
MTEXTBEGIN
1070
    73
1070
     1
1070
    44
1040
1.0
1070
    74
1070
     0
1000
MTEXTEND
  0
MTEXT
  5
460
330
3E6
100
AcDbEntity
  8
Simboli(ISO)
 62
    96
100
AcDbMText
 10
160.1269413643238
 20
29.66759768010355
 30
0.0
 40
2.489199936389923
 41
11.99999999999999
 71
     1
 72
     1
  1
\fArial|b0|i0;\H2.4892;Data
  7
Corrente-ISO
 73
     1
 44
1.0
1001
ACAD
1000
MTEXTBEGIN
1070
    73
1070
     1
1070
    44
1040
1.0
1070
    74
1070
     0
1000
MTEXTEND
  0
MTEXT
  5
461
330
3E6
100
AcDbEntity
  8
Simboli(ISO)
 62
    96
100
AcDbMText
 10
188.433042920287
 20
44.22190362458245
 30
0.0
 40
2.489199936389923
 41
21.64389610290527
 71
     5
 72
     1
  1
\fArial|b0|i0;\H2.4892;Attrezzatura 1
  7
Corrente-ISO
 73
     1
 44
1.0
1001
ACAD
1000
MTEXTBEGIN
1070
    73
1070
     1
1070
    44
1040
1.0
1070
    74
1070
     0
1000
MTEXTEND
  0
MTEXT
  5
462
330
3E6
100
AcDbEntity
  8
Simboli(ISO)
 62
    96
100
AcDbMText
 10
188.0837249836041
 20
36.34533462143185
 30
0.0
 40
2.489199936389923
 41
20.54728269577026
 71
     5
 72
     1
  1
\fArial|b0|i0;\W0.95;\H2.4892;Attrezzatura 2
  7
Corrente-ISO
 73
     1
 44
1.0
1001
ACAD
1000
MTEXTBEGIN
1070
    73
1070
     1
1070
    44
1040
1.0
1070
    74
1070
     0
1000
MTEXTEND
  0
MTEXT
  5
463
330
3E6
100
AcDbEntity
  8
Simboli(ISO)
 62
    96
100
AcDbMText
 10
188.3141272195963
 20
28.3675383381331
 30
0.0
 40
2.489199936389923
 41
21.64389610290527
 71
     5
 72
     1
  1
\fArial|b0|i0;\H2.4892;Attrezzatura 3
  7
Corrente-ISO
 73
     1
 44
1.0
1001
ACAD
1000
MTEXTBEGIN
1070
    73
1070
     1
1070
    44
1040
1.0
1070
    74
1070
     0
1000
MTEXTEND
  0
MTEXT
  5
464
330
3E6
100
AcDbEntity
  8
Simboli(ISO)
 62
     7
100
AcDbMText
 10
11.5
 20
50.09709167610179
 30
0.0
 40
2.489199936389923
 41
43.0
 71
     1
 72
     1
  1
\fArial|b0|i0;\H2.4892;UNI EN 22768-m
  7
Corrente-ISO
 73
     1
 44
1.0
1001
ACAD
1000
MTEXTBEGIN
1070
    73
1070
     1
1070
    44
1040
1.0
1070
    74
1070
     0
1000
MTEXTEND
  0
MTEXT
  5
465
330
3E6
100
AcDbEntity
  8
Simboli(ISO)
 62
     7
100
AcDbMText
 10
93.43312134410579
 20
31.15001179156206
 30
0.0
 40
1.49859994649887
 41
0.0
 71
     1
 72
     1
  1
\fArial|b0|i0;\H1.4986;R
  7
Corrente-ISO
 73
     1
 44
1.0
1001
ACAD
1000
MTEXTBEGIN
1070
    73
1070
     1
1070
    44
1040
1.0
1070
    74
1070
     0
1000
MTEXTEND
  0
ATTDEF
  5
467
102
{ACAD_XDICTIONARY
360
A8A
102
}
330
3E6
100
AcDbEntity
  8
Simboli(ISO)
 62
     7
100
AcDbText
 10
10.77962988785799
 20
64.45781237692007
 30
0.0
 40
2.006599903106689
  1
RULLO DI GUIDA L=240
  7
Stile testo6
100
AcDbAttributeDefinition
  3
Denominazione  1
  2
Denominazione__1_001
 70
     0
  0
ATTDEF
  5
468
102
{ACAD_XDICTIONARY
360
A8D
102
}
330
3E6
100
AcDbEntity
  8
Simboli(ISO)
 62
     7
100
AcDbText
 10
11.0
 20
60.99340009689331
 30
0.0
 40
2.006599903106689
  1

  7
Stile testo6
 11
11.0
 21
63.0
 31
0.0
100
AcDbAttributeDefinition
  3
Denominazione 2
  2
Denominazione_2
 70
     0
 74
     3
  0
ATTDEF
  5
46A
102
{ACAD_XDICTIONARY
360
A90
102
}
330
3E6
100
AcDbEntity
  8
Simboli(ISO)
 62
     7
100
AcDbText
 10
89.31667592019698
 20
61.74740007519723
 30
0.0
 40
3.50519984960556
  1
253-240
 41
0.75
  7
Stile testo135
100
AcDbAttributeDefinition
  3
CODICE DISEGNO
  2
CODICE_DISEGNO_001
 70
     0
  0
ATTDEF
  5
46C
102
{ACAD_XDICTIONARY
360
A93
102
}
330
3E6
100
AcDbEntity
  8
Simboli(ISO)
 62
     7
100
AcDbText
 10
144.75
 20
64.24302410113217
 30
0.0
 40
2.006599903106689
  1

  7
Stile testo6
 72
     1
 11
144.75
 21
65.24632405268551
 31
0.0
100
AcDbAttributeDefinition
  3
Materiale 1
  2
Materiale_1
 70
     0
 74
     2
  0
ATTDEF
  5
46D
102
{ACAD_XDICTIONARY
360
A96
102
}
330
3E6
100
AcDbEntity
  8
Simboli(ISO)
 62
     7
100
AcDbText
 10
144.809961390817
 20
60.49670004844665
 30
0.0
 40
2.006599903106689
  1

  7
Stile testo6
 72
     1
 11
144.809961390817
 21
61.5
 31
0.0
100
AcDbAttributeDefinition
  3
Materiale 2
  2
Materiale_2
 70
     0
 74
     2
  0
ATTDEF
  5
46E
102
{ACAD_XDICTIONARY
360
A99
102
}
330
3E6
100
AcDbEntity
  8
Simboli(ISO)
 62
     7
100
AcDbText
 10
188.5
 20
62.49670004844666
 30
0.0
 40
2.006599903106689
  1

  7
Stile testo6
 72
     1
 11
188.5
 21
63.5
 31
0.0
100
AcDbAttributeDefinition
  3
CODICE MATERIALE
  2
CODICE_MATERIALE
 70
     0
 74
     2
  0
ATTDEF
  5
46F
102
{ACAD_XDICTIONARY
360
A9C
102
}
330
3E6
100
AcDbEntity
  8
Simboli(ISO)
 62
     7
100
AcDbText
 10
92.70363581351135
 20
47.26359145536448
 30
0.0
 40
2.489199936389923
  1
0.999
  7
Stile testo15
100
AcDbAttributeDefinition
  3
PESO UNITARIO KG
  2
PESO_UNITARIO_KG_001
 70
     0
  0
ATTDEF
  5
470
102
{ACAD_XDICTIONARY
360
A9F
102
}
330
3E6
100
AcDbEntity
  8
Simboli(ISO)
 62
     7
100
AcDbText
 10
132.5077790073107
 20
50.94754593478599
 30
0.0
 40
2.489199936389923
  1
001 ZINCATO
  7
Stile testo15
100
AcDbAttributeDefinition
  3
TRATTAMENTO 1
  2
TRATTAMENTO_1_001
 70
     0
  0
ATTDEF
  5
471
102
{ACAD_XDICTIONARY
360
AA2
102
}
330
3E6
100
AcDbEntity
  8
Simboli(ISO)
 62
     7
100
AcDbText
 10
113.0632687693352
 20
47.49849971798101
 30
0.0
 40
2.489199936389923
  1

  7
Stile testo15
 11
113.0632687693352
 21
49.98769965437094
 31
0.0
100
AcDbAttributeDefinition
  3
TRATTAMENTO 2
  2
TRATTAMENTO_2
 70
     0
 74
     3
  0
ATTDEF
  5
472
102
{ACAD_XDICTIONARY
360
AA5
102
}
330
3E6
100
AcDbEntity
  8
Simboli(ISO)
 62
     7
100
AcDbText
 10
188.5523258958931
 20
47.38184462506182
 30
0.0
 40
2.489199936389923
  1

  7
Stile testo15
 72
     1
 11
188.5523258958931
 21
48.62644459325678
 31
0.0
100
AcDbAttributeDefinition
  3
COEFFICIENTE D'IMPEGO
  2
COEFFICIENTE_D'IMPEGO
 70
     0
 74
     2
  0
ATTDEF
  5
473
102
{ACAD_XDICTIONARY
360
AA8
102
}
330
3E6
100
AcDbEntity
  8
Simboli(ISO)
 62
     7
100
AcDbText
 10
94.96285653866493
 20
39.75030617108937
 30
0.0
 40
2.489199936389923
  1
1:1
  7
Stile testo15
100
AcDbAttributeDefinition
  3
SCALA
  2
SCALA_001
 70
     0
  0
ATTDEF
  5
474
102
{ACAD_XDICTIONARY
360
AAB
102
}
330
3E6
100
AcDbEntity
  8
Simboli(ISO)
 62
     7
100
AcDbText
 10
117.1499420964082
 20
39.17532174801521
 30
0.0
 40
2.489199936389923
  1
A3
  7
Stile testo15
100
AcDbAttributeDefinition
  3
FOGLIO
  2
FOGLIO_001
 70
     0
  0
ATTDEF
  5
475
102
{ACAD_XDICTIONARY
360
AAE
102
}
330
3E6
100
AcDbEntity
  8
Simboli(ISO)
 62
     7
100
AcDbText
 10
127.2453069642166
 20
38.96665327074095
 30
0.0
 40
2.489199936389923
  1
LORENZETTI P.
  7
Stile testo15
100
AcDbAttributeDefinition
  3
DISEGNATO
  2
DISEGNATO_001
 70
     0
  0
ATTDEF
  5
476
102
{ACAD_XDICTIONARY
360
AB1
102
}
330
3E6
100
AcDbEntity
  8
Simboli(ISO)
 62
     7
100
AcDbText
 10
161.3724390570618
 20
39.25540003180504
 30
0.0
 40
2.489199936389923
  1
17/11/06
  7
Stile testo15
100
AcDbAttributeDefinition
  3
DATA
  2
DATA_001
 70
     0
  0
ATTDEF
  5
477
102
{ACAD_XDICTIONARY
360
AB4
102
}
330
3E6
100
AcDbEntity
  8
Simboli(ISO)
 62
     7
100
AcDbText
 10
161.3724390570618
 20
31.50540003180504
 30
0.0
 40
2.489199936389923
  1
17/11/06
  7
Stile testo15
100
AcDbAttributeDefinition
  3
DATA
  2
DATA_001
 70
     0
  0
ATTDEF
  5
478
102
{ACAD_XDICTIONARY
360
AB7
102
}
330
3E6
100
AcDbEntity
  8
Simboli(ISO)
 62
     7
100
AcDbText
 10
161.3724390570618
 20
23.50540003180504
 30
0.0
 40
2.489199936389923
  1
17/11/06
  7
Stile testo15
100
AcDbAttributeDefinition
  3
DATA
  2
DATA_001
 70
     0
  0
ATTDEF
  5
479
102
{ACAD_XDICTIONARY
360
ABA
102
}
330
3E6
100
AcDbEntity
  8
Simboli(ISO)
 62
     7
100
AcDbText
 10
137.4371858396483
 20
19.03966212052152
 30
0.0
 40
2.489199936389923
  1
11305701  001
  7
Stile testo15
100
AcDbAttributeDefinition
  3
NUMERO ARTICOLO
  2
NUMERO_ARTICOLO_001
 70
     0
  0
ATTDEF
  5
47A
102
{ACAD_XDICTIONARY
360
ABD
102
}
330
3E6
100
AcDbEntity
  8
Simboli(ISO)
 62
     7
100
AcDbText
 10
127.1848152468796
 20
15.15058891438324
 30
0.0
 40
2.489199936389923
  1

  7
Stile testo15
 11
127.1848152468796
 21
17.63978885077316
 31
0.0
100
AcDbAttributeDefinition
  3
NUMERO ARTICOLO
  2
NUMERO_ARTICOLO
 70
     0
 74
     3
  0
ATTDEF
  5
47B
102
{ACAD_XDICTIONARY
360
AC0
102
}
330
3E6
100
AcDbEntity
  8
Simboli(ISO)
 62
     7
100
AcDbText
 10
188.5
 20
39.25540003180504
 30
0.0
 40
2.489199936389923
  1

  7
Stile testo15
 72
     1
 11
188.5
 21
40.5
 31
0.0
100
AcDbAttributeDefinition
  3
ATTREZZAT. 1
  2
ATTREZZAT._1
 70
     0
 74
     2
  0
ATTDEF
  5
47C
102
{ACAD_XDICTIONARY
360
AC3
102
}
330
3E6
100
AcDbEntity
  8
Simboli(ISO)
 62
     7
100
AcDbText
 10
188.5
 20
31.25540003180504
 30
0.0
 40
2.489199936389923
  1

  7
Stile testo15
 72
     1
 11
188.5
 21
32.5
 31
0.0
100
AcDbAttributeDefinition
  3
ATTREZZAT.2
  2
ATTREZZAT.2
 70
     0
 74
     2
  0
ATTDEF
  5
47D
102
{ACAD_XDICTIONARY
360
AC6
102
}
330
3E6
100
AcDbEntity
  8
Simboli(ISO)
 62
     7
100
AcDbText
 10
188.5
 20
23.25540003180504
 30
0.0
 40
2.489199936389923
  1

  7
Stile testo15
 72
     1
 11
188.5
 21
24.5
 31
0.0
100
AcDbAttributeDefinition
  3
ATTREZZAT.3
  2
ATTREZZAT.3
 70
     0
 74
     2
  0
ATTDEF
  5
47E
102
{ACAD_XDICTIONARY
360
AC9
102
}
330
3E6
100
AcDbEntity
  8
Simboli(ISO)
 62
     7
100
AcDbText
 10
22.0
 20
39.75540003180504
 30
0.0
 40
2.489199936389923
  1

  7
Stile testo15
 72
     1
 11
22.0
 21
41.0
 31
0.0
100
AcDbAttributeDefinition
  3
SOSTITUISCE IL
  2
SOSTITUISCE_IL
 70
     0
 74
     2
  0
ATTDEF
  5
47F
102
{ACAD_XDICTIONARY
360
ACC
102
}
330
3E6
100
AcDbEntity
  8
Simboli(ISO)
 62
     7
100
AcDbText
 10
46.5
 20
39.75540003180504
 30
0.0
 40
2.489199936389923
  1

  7
Stile testo15
 72
     1
 11
46.5
 21
41.0
 31
0.0
100
AcDbAttributeDefinition
  3
SOSTITUITO DAL
  2
SOSTITUITO_DAL
 70
     0
 74
     2
  0
ENDBLK
  5
3E8
330
3E6
100
AcDbEntity
  8
0
100
AcDbBlockEnd
  0
BLOCK
  5
4AE
330
4AD
100
AcDbEntity
  8
0
100
AcDbBlockBegin
  2
*D11
 70
     1
 10
0.0
 20
0.0
 30
0.0
  3
*D11
  1

  0
LINE
  5
579
330
4AD
100
AcDbEntity
  8
Quote(ISO)
  6
Continuous
 62
    96
370
    25
100
AcDbLine
 10
39.86267913351681
 20
95.44466961551458
 30
0.0
 11
39.86267913351681
 21
80.44466961551458
 31
0.0
  0
LINE
  5
57A
330
4AD
100
AcDbEntity
  8
Quote(ISO)
  6
Continuous
 62
    96
370
    25
100
AcDbLine
 10
275.8626791335167
 20
95.44466961551453
 30
0.0
 11
275.8626791335167
 21
80.44466961551458
 31
0.0
  0
LINE
  5
57B
330
4AD
100
AcDbEntity
  8
Quote(ISO)
  6
Continuous
 62
    96
370
    25
100
AcDbLine
 10
42.36267913351681
 20
81.44466961551458
 30
0.0
 11
273.3626791335167
 21
81.44466961551458
 31
0.0
  0
SOLID
  5
57C
330
4AD
100
AcDbEntity
  8
Quote(ISO)
  6
Continuous
 62
    96
100
AcDbTrace
 10
42.36267913351681
 20
81.86133628218126
 30
0.0
 11
42.36267913351681
 21
81.02800294884792
 31
0.0
 12
39.86267913351681
 22
81.44466961551458
 32
0.0
 13
39.86267913351681
 23
81.44466961551458
 33
0.0
  0
SOLID
  5
57D
330
4AD
100
AcDbEntity
  8
Quote(ISO)
  6
Continuous
 62
    96
100
AcDbTrace
 10
273.3626791335167
 20
81.86133628218126
 30
0.0
 11
273.3626791335167
 21
81.02800294884792
 31
0.0
 12
275.8626791335167
 22
81.44466961551458
 32
0.0
 13
275.8626791335167
 23
81.44466961551458
 33
0.0
  0
MTEXT
  5
57E
330
4AD
100
AcDbEntity
  8
Quote(ISO)
  6
Continuous
 62
     7
370
    25
100
AcDbMText
 10
153.9675563504335
 20
85.78306797840681
 30
0.0
 40
3.5
 41
0.0
 71
     1
 72
     1
  1
\A1;236
  7
Corrente-ISO
 73
     1
 44
1.0
1001
ACAD
1000
MTEXTBEGIN
1070
    73
1070
     1
1070
    44
1040
1.0
1070
    74
1070
     0
1000
MTEXTEND
  0
POINT
  5
57F
330
4AD
100
AcDbEntity
  8
Defpoints
  6
Continuous
 62
     0
100
AcDbPoint
 10
39.86267913351681
 20
96.44466961551458
 30
0.0
  0
POINT
  5
580
330
4AD
100
AcDbEntity
  8
Defpoints
  6
Continuous
 62
     0
100
AcDbPoint
 10
275.8626791335167
 20
96.44466961551453
 30
0.0
  0
POINT
  5
581
330
4AD
100
AcDbEntity
  8
Defpoints
  6
Continuous
 62
     0
100
AcDbPoint
 10
275.8626791335167
 20
81.44466961551458
 30
0.0
  0
ENDBLK
  5
4AF
330
4AD
100
AcDbEntity
  8
0
100
AcDbBlockEnd
  0
BLOCK
  5
584
330
583
100
AcDbEntity
  8
0
100
AcDbBlockBegin
  2
*D12
 70
     1
 10
0.0
 20
0.0
 30
0.0
  3
*D12
  1

  0
LINE
  5
64F
330
583
100
AcDbEntity
  8
Quote(ISO)
  6
Continuous
 62
    96
370
    25
100
AcDbLine
 10
280.6358280955226
 20
126.4446696155145
 30
0.0
 11
280.6358280955226
 21
166.4446696155146
 31
0.0
  0
LINE
  5
650
330
583
100
AcDbEntity
  8
Quote(ISO)
  6
Continuous
 62
    96
370
    25
100
AcDbLine
 10
35.08953017151096
 20
126.4446696155145
 30
0.0
 11
35.08953017151096
 21
166.4446696155146
 31
0.0
  0
LINE
  5
651
330
583
100
AcDbEntity
  8
Quote(ISO)
  6
Continuous
 62
    96
370
    25
100
AcDbLine
 10
278.1358280955227
 20
165.4446696155146
 30
0.0
 11
37.58953017151096
 21
165.4446696155146
 31
0.0
  0
SOLID
  5
652
330
583
100
AcDbEntity
  8
Quote(ISO)
  6
Continuous
 62
    96
100
AcDbTrace
 10
278.1358280955227
 20
165.8613362821812
 30
0.0
 11
278.1358280955227
 21
165.0280029488479
 31
0.0
 12
280.6358280955226
 22
165.4446696155146
 32
0.0
 13
280.6358280955226
 23
165.4446696155146
 33
0.0
  0
SOLID
  5
653
330
583
100
AcDbEntity
  8
Quote(ISO)
  6
Continuous
 62
    96
100
AcDbTrace
 10
37.58953017151096
 20
165.8613362821812
 30
0.0
 11
37.58953017151096
 21
165.0280029488479
 31
0.0
 12
35.08953017151096
 22
165.4446696155146
 32
0.0
 13
35.08953017151096
 23
165.4446696155146
 33
0.0
  0
MTEXT
  5
654
330
583
100
AcDbEntity
  8
Quote(ISO)
  6
Continuous
 62
     7
370
    25
100
AcDbMText
 10
151.914350347705
 20
169.7806805295664
 30
0.0
 40
3.5
 41
0.0
 71
     1
 72
     1
  1
\A1;245.5
  7
Corrente-ISO
 73
     1
 44
1.0
1001
ACAD
1000
MTEXTBEGIN
1070
    73
1070
     1
1070
    44
1040
1.0
1070
    74
1070
     0
1000
MTEXTEND
  0
POINT
  5
655
330
583
100
AcDbEntity
  8
Defpoints
  6
Continuous
 62
     0
100
AcDbPoint
 10
280.6358280955226
 20
125.4446696155145
 30
0.0
  0
POINT
  5
656
330
583
100
AcDbEntity
  8
Defpoints
  6
Continuous
 62
     0
100
AcDbPoint
 10
35.08953017151096
 20
125.4446696155145
 30
0.0
  0
POINT
  5
657
330
583
100
AcDbEntity
  8
Defpoints
  6
Continuous
 62
     0
100
AcDbPoint
 10
35.08953017151096
 20
165.4446696155146
 30
0.0
  0
ENDBLK
  5
585
330
583
100
AcDbEntity
  8
0
100
AcDbBlockEnd
  0
BLOCK
  5
65A
330
659
100
AcDbEntity
  8
0
100
AcDbBlockBegin
  2
*D13
 70
     1
 10
0.0
 20
0.0
 30
0.0
  3
*D13
  1

  0
LINE
  5
731
330
659
100
AcDbEntity
  8
Quote(ISO)
  6
Continuous
 62
    96
370
    25
100
AcDbLine
 10
338.9902766469675
 20
90.44466961551458
 30
0.0
 11
338.9902766469675
 21
80.44466961551458
 31
0.0
  0
LINE
  5
732
330
659
100
AcDbEntity
  8
Quote(ISO)
  6
Continuous
 62
    96
370
    25
100
AcDbLine
 10
373.9902766469675
 20
90.44466961551458
 30
0.0
 11
373.9902766469675
 21
80.44466961551458
 31
0.0
  0
LINE
  5
733
330
659
100
AcDbEntity
  8
Quote(ISO)
  6
Continuous
 62
    96
370
    25
100
AcDbLine
 10
341.4902766469675
 20
81.44466961551458
 30
0.0
 11
371.4902766469675
 21
81.44466961551458
 31
0.0
  0
SOLID
  5
734
330
659
100
AcDbEntity
  8
Quote(ISO)
  6
Continuous
 62
    96
100
AcDbTrace
 10
341.4902766469675
 20
81.86133628218126
 30
0.0
 11
341.4902766469675
 21
81.02800294884792
 31
0.0
 12
338.9902766469675
 22
81.44466961551458
 32
0.0
 13
338.9902766469675
 23
81.44466961551458
 33
0.0
  0
SOLID
  5
735
330
659
100
AcDbEntity
  8
Quote(ISO)
  6
Continuous
 62
    96
100
AcDbTrace
 10
371.4902766469675
 20
81.86133628218126
 30
0.0
 11
371.4902766469675
 21
81.02800294884792
 31
0.0
 12
373.9902766469675
 22
81.44466961551458
 32
0.0
 13
373.9902766469675
 23
81.44466961551458
 33
0.0
  0
MTEXT
  5
736
330
659
100
AcDbEntity
  8
Quote(ISO)
  6
Continuous
 62
     7
370
    25
100
AcDbMText
 10
353.9715181203645
 20
85.78306797840681
 30
0.0
 40
3.5
 41
0.0
 71
     1
 72
     1
  1
\A1;35
  7
Corrente-ISO
 73
     1
 44
1.0
1001
ACAD
1000
MTEXTBEGIN
1070
    73
1070
     1
1070
    44
1040
1.0
1070
    74
1070
     0
1000
MTEXTEND
  0
POINT
  5
737
330
659
100
AcDbEntity
  8
Defpoints
  6
Continuous
 62
     0
100
AcDbPoint
 10
338.9902766469675
 20
91.44466961551458
 30
0.0
  0
POINT
  5
738
330
659
100
AcDbEntity
  8
Defpoints
  6
Continuous
 62
     0
100
AcDbPoint
 10
373.9902766469675
 20
91.44466961551458
 30
0.0
  0
POINT
  5
739
330
659
100
AcDbEntity
  8
Defpoints
  6
Continuous
 62
     0
100
AcDbPoint
 10
373.9902766469675
 20
81.44466961551458
 30
0.0
  0
ENDBLK
  5
65B
330
659
100
AcDbEntity
  8
0
100
AcDbBlockEnd
  0
BLOCK
  5
82C
330
82B
100
AcDbEntity
  8
0
100
AcDbBlockBegin
  2
*D14
 70
     1
 10
0.0
 20
0.0
 30
0.0
  3
*D14
  1

  0
LINE
  5
8F7
330
82B
100
AcDbEntity
  8
Quote(ISO)
  6
Continuous
 62
    96
370
    25
100
AcDbLine
 10
77.86267913351678
 20
230.7707422188561
 30
0.0
 11
77.86267913351678
 21
200.7707422188561
 31
0.0
  0
LINE
  5
8F8
330
82B
100
AcDbEntity
  8
Quote(ISO)
  6
Continuous
 62
    96
370
    25
100
AcDbLine
 10
237.8626791335168
 20
230.7707422188561
 30
0.0
 11
237.8626791335168
 21
200.7707422188561
 31
0.0
  0
LINE
  5
8F9
330
82B
100
AcDbEntity
  8
Quote(ISO)
  6
Continuous
 62
    96
370
    25
100
AcDbLine
 10
80.36267913351677
 20
201.7707422188561
 30
0.0
 11
235.3626791335168
 21
201.7707422188561
 31
0.0
  0
SOLID
  5
8FA
330
82B
100
AcDbEntity
  8
Quote(ISO)
  6
Continuous
 62
    96
100
AcDbTrace
 10
80.36267913351677
 20
202.1874088855227
 30
0.0
 11
80.36267913351677
 21
201.3540755521894
 31
0.0
 12
77.86267913351678
 22
201.7707422188561
 32
0.0
 13
77.86267913351678
 23
201.7707422188561
 33
0.0
  0
SOLID
  5
8FB
330
82B
100
AcDbEntity
  8
Quote(ISO)
  6
Continuous
 62
    96
100
AcDbTrace
 10
235.3626791335168
 20
202.1874088855227
 30
0.0
 11
235.3626791335168
 21
201.3540755521894
 31
0.0
 12
237.8626791335168
 22
201.7707422188561
 32
0.0
 13
237.8626791335168
 23
201.7707422188561
 33
0.0
  0
MTEXT
  5
8FC
330
82B
100
AcDbEntity
  8
Quote(ISO)
  6
Continuous
 62
     7
370
    25
100
AcDbMText
 10
154.1669083286054
 20
206.1067531329079
 30
0.0
 40
3.5
 41
0.0
 71
     1
 72
     1
  1
\A1;160
  7
Corrente-ISO
 73
     1
 44
1.0
1001
ACAD
1000
MTEXTBEGIN
1070
    73
1070
     1
1070
    44
1040
1.0
1070
    74
1070
     0
1000
MTEXTEND
  0
POINT
  5
8FD
330
82B
100
AcDbEntity
  8
Defpoints
  6
Continuous
 62
     0
100
AcDbPoint
 10
77.86267913351678
 20
231.7707422188561
 30
0.0
  0
POINT
  5
8FE
330
82B
100
AcDbEntity
  8
Defpoints
  6
Continuous
 62
     0
100
AcDbPoint
 10
237.8626791335168
 20
231.7707422188561
 30
0.0
  0
POINT
  5
8FF
330
82B
100
AcDbEntity
  8
Defpoints
  6
Continuous
 62
     0
100
AcDbPoint
 10
237.8626791335168
 20
201.7707422188561
 30
0.0
  0
ENDBLK
  5
82D
330
82B
100
AcDbEntity
  8
0
100
AcDbBlockEnd
  0
BLOCK
  5
902
330
901
100
AcDbEntity
  8
0
100
AcDbBlockBegin
  2
*D15
 70
     1
 10
0.0
 20
0.0
 30
0.0
  3
*D15
  1

  0
LINE
  5
9B1
330
901
100
AcDbEntity
  8
Quote(ISO)
  6
Continuous
 62
    96
370
    25
100
AcDbLine
 10
76.01416144374063
 20
238.0072094097477
 30
0.0
 11
79.7111968232927
 21
239.5342750279645
 31
0.0
  0
LINE
  5
9B2
330
901
100
AcDbEntity
  8
Quote(ISO)
  6
Continuous
 62
    96
370
    25
100
AcDbLine
 10
82.02184393551275
 20
240.48869103935
 30
0.0
 11
92.49222214438542
 21
244.8134953571365
 31
0.0
  0
SOLID
  5
9B3
330
901
100
AcDbEntity
  8
Quote(ISO)
  6
Continuous
 62
    96
100
AcDbTrace
 10
75.85509210850971
 20
238.3923172617843
 30
0.0
 11
76.17323077897154
 21
237.622101557711
 31
0.0
 12
73.70351433152056
 22
237.0527933983621
 32
0.0
 13
73.70351433152056
 23
237.0527933983621
 33
0.0
  0
SOLID
  5
9B4
330
901
100
AcDbEntity
  8
Quote(ISO)
  6
Continuous
 62
    96
100
AcDbTrace
 10
79.55212748806177
 20
239.9193828800012
 30
0.0
 11
79.87026615852361
 21
239.1491671759278
 31
0.0
 12
82.02184393551275
 22
240.48869103935
 32
0.0
 13
82.02184393551275
 23
240.48869103935
 33
0.0
  0
MTEXT
  5
9B5
102
{ACAD_XDICTIONARY
360
C83
102
}
330
901
100
AcDbEntity
  8
Quote(ISO)
  6
Continuous
 62
     7
370
    25
100
AcDbMText
 10
84.41111250116689
 20
246.3787338762643
 30
0.0
 40
3.5
 41
0.0
 71
     1
 72
     1
  1
\A1;\U+22059
  7
Corrente-ISO
 11
0.9242588448880269
 21
0.3817664045542121
 31
0.0
 73
     1
 44
1.0
1001
ACAD
1000
MTEXTBEGIN
1070
    73
1070
     1
1070
    44
1040
1.0
1070
    74
1070
     0
1000
MTEXTEND
  0
POINT
  5
9B6
330
901
100
AcDbEntity
  8
Defpoints
  6
Continuous
 62
     0
100
AcDbPoint
 10
82.02184393551275
 20
240.48869103935
 30
0.0
  0
POINT
  5
9B7
330
901
100
AcDbEntity
  8
Defpoints
  6
Continuous
 62
     0
100
AcDbPoint
 10
73.70351433152056
 20
237.0527933983621
 30
0.0
  0
ENDBLK
  5
903
330
901
100
AcDbEntity
  8
0
100
AcDbBlockEnd
  0
BLOCK
  5
9BA
330
9B9
100
AcDbEntity
  8
0
100
AcDbBlockBegin
  2
*D16
 70
     1
 10
0.0
 20
0.0
 30
0.0
  3
*D16
  1

  0
LINE
  5
A66
330
9B9
100
AcDbEntity
  8
Quote(ISO)
  6
Continuous
 62
    96
370
    25
100
AcDbLine
 10
239.794530786095
 20
238.2531041286511
 30
0.0
 11
235.9308274809387
 21
239.288380309061
 31
0.0
  0
LINE
  5
A67
330
9B9
100
AcDbEntity
  8
Quote(ISO)
  6
Continuous
 62
    96
370
    25
100
AcDbLine
 10
233.5160129152161
 20
239.9354279218172
 30
0.0
 11
219.9781245929301
 21
243.5628941649957
 31
0.0
  0
SOLID
  5
A68
330
9B9
100
AcDbEntity
  8
Quote(ISO)
  6
Continuous
 62
    96
100
AcDbTrace
 10
239.9023720548877
 20
238.6555732229382
 30
0.0
 11
239.6866895173022
 21
237.850635034364
 31
0.0
 12
242.2093453518177
 22
237.6060565158949
 32
0.0
 13
242.2093453518177
 23
237.6060565158949
 33
0.0
  0
SOLID
  5
A69
330
9B9
100
AcDbEntity
  8
Quote(ISO)
  6
Continuous
 62
    96
100
AcDbTrace
 10
236.0386687497314
 20
239.6908494033481
 30
0.0
 11
235.822986212146
 21
238.8859112147738
 31
0.0
 12
233.5160129152161
 22
239.9354279218172
 32
0.0
 13
233.5160129152161
 23
239.9354279218172
 33
0.0
  0
MTEXT
  5
A6A
102
{ACAD_XDICTIONARY
360
C85
102
}
330
9B9
100
AcDbEntity
  8
Quote(ISO)
  6
Continuous
 62
     7
370
    25
100
AcDbMText
 10
221.8870714896773
 20
247.7430390540789
 30
0.0
 40
3.5
 41
0.0
 71
     1
 72
     1
  1
\A1;\U+22059
  7
Corrente-ISO
 11
0.9659258262890805
 21
-0.258819045102475
 31
0.0
 73
     1
 44
1.0
1001
ACAD
1000
MTEXTBEGIN
1070
    73
1070
     1
1070
    44
1040
1.0
1070
    74
1070
     0
1000
MTEXTEND
  0
POINT
  5
A6B
330
9B9
100
AcDbEntity
  8
Defpoints
  6
Continuous
 62
     0
100
AcDbPoint
 10
233.5160129152161
 20
239.9354279218172
 30
0.0
  0
POINT
  5
A6C
330
9B9
100
AcDbEntity
  8
Defpoints
  6
Continuous
 62
     0
100
AcDbPoint
 10
242.2093453518177
 20
237.6060565158949
 30
0.0
  0
ENDBLK
  5
9BB
330
9B9
100
AcDbEntity
  8
0
100
AcDbBlockEnd
  0
ENDSEC
  0
SECTION
  2
ENTITIES
  0
ARC
  5
2EB
330
77
100
AcDbEntity
  8
Spigoli visibili(ISO)
100
AcDbCircle
 10
44.86267913351682
 20
96.4446696155146
 30
0.0
 40
5.000000000000008
100
AcDbArc
 50
180.0
 51
269.9999999999998
  0
ARC
  5
2EC
330
77
100
AcDbEntity
  8
Spigoli visibili(ISO)
100
AcDbCircle
 10
270.8626791335167
 20
96.44466961551456
 30
0.0
 40
5.0
100
AcDbArc
 50
270.0
 51
0.0
  0
LINE
  5
2ED
330
77
100
AcDbEntity
  8
Spigoli visibili(ISO)
100
AcDbLine
 10
270.8626791335167
 20
91.44466961551456
 30
0.0
 11
44.86267913351682
 21
91.44466961551458
 31
0.0
  0
LINE
  5
2EE
330
77
100
AcDbEntity
  8
Spigoli visibili(ISO)
100
AcDbLine
 10
275.8626791335167
 20
128.4446696155145
 30
0.0
 11
275.8626791335167
 21
96.44466961551456
 31
0.0
  0
LINE
  5
2EF
330
77
100
AcDbEntity
  8
Spigoli visibili(ISO)
100
AcDbLine
 10
43.86267913351677
 20
128.4446696155145
 30
0.0
 11
43.86267913351679
 21
96.44466961551458
 31
0.0
  0
LINE
  5
2F0
330
77
100
AcDbEntity
  8
Spigoli visibili(ISO)
100
AcDbLine
 10
271.8626791335168
 20
96.44466961551456
 30
0.0
 11
271.8626791335168
 21
128.4446696155145
 31
0.0
  0
LINE
  5
2F1
330
77
100
AcDbEntity
  8
Spigoli visibili(ISO)
100
AcDbLine
 10
39.86267913351681
 20
96.44466961551458
 30
0.0
 11
39.86267913351681
 21
128.4446696155146
 31
0.0
  0
LINE
  5
2F2
330
77
100
AcDbEntity
  8
Spigoli visibili(ISO)
100
AcDbLine
 10
44.86267913351678
 20
95.44466961551455
 30
0.0
 11
270.8626791335168
 21
95.44466961551455
 31
0.0
  0
LINE
  5
2F3
330
77
100
AcDbEntity
  8
Spigoli visibili(ISO)
100
AcDbLine
 10
275.8626791335167
 20
128.4446696155145
 30
0.0
 11
275.8626791335167
 21
136.4446696155145
 31
0.0
  0
LINE
  5
2F4
330
77
100
AcDbEntity
  8
Spigoli visibili(ISO)
100
AcDbLine
 10
43.86267913351677
 20
128.4446696155145
 30
0.0
 11
43.86267913351677
 21
136.4446696155145
 31
0.0
  0
LINE
  5
2F5
330
77
100
AcDbEntity
  8
Spigoli visibili(ISO)
100
AcDbLine
 10
271.8626791335168
 20
136.4446696155144
 30
0.0
 11
271.8626791335168
 21
128.4446696155145
 31
0.0
  0
LINE
  5
2F6
330
77
100
AcDbEntity
  8
Spigoli visibili(ISO)
100
AcDbLine
 10
39.86267913351681
 20
136.4446696155146
 30
0.0
 11
39.86267913351681
 21
128.4446696155146
 31
0.0
  0
LINE
  5
2F7
330
77
100
AcDbEntity
  8
Spigoli visibili(ISO)
100
AcDbLine
 10
275.8626791335167
 20
136.4446696155145
 30
0.0
 11
271.8626791335168
 21
136.4446696155144
 31
0.0
  0
LINE
  5
2F8
330
77
100
AcDbEntity
  8
Spigoli visibili(ISO)
100
AcDbLine
 10
271.8626791335168
 20
128.4446696155145
 30
0.0
 11
275.8626791335167
 21
128.4446696155145
 31
0.0
  0
LINE
  5
2F9
330
77
100
AcDbEntity
  8
Spigoli visibili(ISO)
100
AcDbLine
 10
39.86267913351681
 20
128.4446696155146
 30
0.0
 11
43.86267913351677
 21
128.4446696155145
 31
0.0
  0
LINE
  5
2FA
330
77
100
AcDbEntity
  8
Spigoli visibili(ISO)
100
AcDbLine
 10
43.86267913351677
 20
136.4446696155145
 30
0.0
 11
39.86267913351681
 21
136.4446696155146
 31
0.0
  0
ARC
  5
2FB
330
77
100
AcDbEntity
  8
Spigoli visibili(ISO)
100
AcDbCircle
 10
44.86267913351678
 20
96.44466961551456
 30
0.0
 40
0.9999999999999964
100
AcDbArc
 50
180.0
 51
270.0
  0
ARC
  5
2FC
330
77
100
AcDbEntity
  8
Spigoli visibili(ISO)
100
AcDbCircle
 10
270.8626791335168
 20
96.44466961551456
 30
0.0
 40
0.9999999999999985
100
AcDbArc
 50
269.999999999998
 51
0.0
  0
LINE
  5
2FD
330
77
100
AcDbEntity
  8
Spigoli visibili(ISO)
100
AcDbLine
 10
271.8626791335168
 20
114.9446696155145
 30
0.0
 11
270.8626791335166
 21
114.9446696155145
 31
0.0
  0
LINE
  5
2FE
330
77
100
AcDbEntity
  8
Spigoli visibili(ISO)
100
AcDbLine
 10
271.8626791335168
 20
129.9446696155145
 30
0.0
 11
270.8626791335166
 21
129.9446696155145
 31
0.0
  0
LINE
  5
2FF
330
77
100
AcDbEntity
  8
Spigoli visibili(ISO)
100
AcDbLine
 10
43.86267913351675
 20
133.4446696155145
 30
0.0
 11
45.86267913351675
 21
133.4446696155145
 31
0.0
  0
LINE
  5
300
330
77
100
AcDbEntity
  8
Spigoli visibili(ISO)
100
AcDbLine
 10
43.86267913351675
 20
111.4446696155145
 30
0.0
 11
45.86267913351675
 21
111.4446696155145
 31
0.0
  0
LINE
  5
301
330
77
100
AcDbEntity
  8
Spigoli visibili(ISO)
100
AcDbLine
 10
270.8626791335166
 20
133.4446696155145
 30
0.0
 11
270.8626791335166
 21
111.4446696155146
 31
0.0
  0
LINE
  5
302
330
77
100
AcDbEntity
  8
Spigoli visibili(ISO)
100
AcDbLine
 10
268.8626791335166
 20
133.4446696155145
 30
0.0
 11
270.8626791335166
 21
133.4446696155145
 31
0.0
  0
LINE
  5
303
330
77
100
AcDbEntity
  8
Spigoli visibili(ISO)
100
AcDbLine
 10
268.8626791335166
 20
111.4446696155146
 30
0.0
 11
270.8626791335166
 21
111.4446696155146
 31
0.0
  0
LINE
  5
304
330
77
100
AcDbEntity
  8
Spigoli visibili(ISO)
100
AcDbLine
 10
37.36267913351681
 20
133.6946696155145
 30
0.0
 11
37.3626791335168
 21
111.1946696155145
 31
0.0
  0
LINE
  5
305
330
77
100
AcDbEntity
  8
Spigoli visibili(ISO)
100
AcDbLine
 10
39.75136718970464
 20
111.1946696155145
 30
0.0
 11
37.3626791335168
 21
111.1946696155145
 31
0.0
  0
LINE
  5
306
330
77
100
AcDbEntity
  8
Spigoli visibili(ISO)
100
AcDbLine
 10
39.50242378127961
 20
133.6946696155145
 30
0.0
 11
37.36267913351681
 21
133.6946696155145
 31
0.0
  0
ARC
  5
307
330
77
100
AcDbEntity
  8
Spigoli visibili(ISO)
100
AcDbCircle
 10
61.42517913351681
 20
122.4446696155145
 30
0.0
 40
26.5625
100
AcDbArc
 50
154.9423845816969
 51
173.5151105385459
  0
ARC
  5
308
330
77
100
AcDbEntity
  8
Spigoli visibili(ISO)
100
AcDbCircle
 10
61.42517913351681
 20
122.4446696155145
 30
0.0
 40
26.5625
100
AcDbArc
 50
186.484889461454
 51
205.0576154183031
  0
ELLIPSE
  5
309
330
77
100
AcDbEntity
  8
Spigoli visibili(ISO)
100
AcDbEllipse
 10
40.06051153633912
 20
122.4446696155145
 30
0.0
 11
-0.3439187391952053
 21
-11.24946867440403
 31
0.0
210
0.0
220
0.0
230
1.0
 40
0.3179147370082052
 41
0.0097189828305462
 42
0.040778991230459
  0
LINE
  5
30A
330
77
100
AcDbEntity
  8
Spigoli visibili(ISO)
100
AcDbLine
 10
39.8626791335168
 20
111.2009778301664
 30
0.0
 11
39.37389905402682
 21
111.2009778301664
 31
0.0
  0
ELLIPSE
  5
30B
330
77
100
AcDbEntity
  8
Spigoli visibili(ISO)
100
AcDbEllipse
 10
40.06051153633912
 20
122.4446696155145
 30
0.0
 11
-0.8897923649884777
 21
-11.24662860382626
 31
0.0
210
0.0
220
0.0
230
1.0
 40
0.3095101809862542
 41
0.0579722051474022
 42
0.1951687760970881
  0
LINE
  5
30C
330
77
100
AcDbEntity
  8
Spigoli visibili(ISO)
100
AcDbLine
 10
39.8626791335168
 20
111.3628257219982
 30
0.0
 11
39.37389905402682
 21
111.3628257219982
 31
0.0
  0
ELLIPSE
  5
30D
330
77
100
AcDbEntity
  8
Spigoli visibili(ISO)
100
AcDbEllipse
 10
40.06051153633912
 20
122.4446696155145
 30
0.0
 11
-1.406319169949519
 21
-11.24239544932053
 31
0.0
210
0.0
220
0.0
230
1.0
 40
0.2940835536622914
 41
0.209886655643935
 42
0.3470832265936222
  0
LINE
  5
30E
330
77
100
AcDbEntity
  8
Spigoli visibili(ISO)
100
AcDbLine
 10
39.8626791335168
 20
111.7403690998066
 30
0.0
 11
39.37389905402682
 21
111.7403690998066
 31
0.0
  0
ELLIPSE
  5
30F
330
77
100
AcDbEntity
  8
Spigoli visibili(ISO)
100
AcDbEllipse
 10
40.06051153633912
 20
122.4446696155145
 30
0.0
 11
-1.879686257061856
 21
-11.23833718195782
 31
0.0
210
0.0
220
0.0
230
0.9999999999999998
 40
0.2724551716718091
 41
0.3582808836669225
 42
0.49547745461661
  0
LINE
  5
310
330
77
100
AcDbEntity
  8
Spigoli visibili(ISO)
100
AcDbLine
 10
39.8626791335168
 20
112.3262595111919
 30
0.0
 11
39.37389905402682
 21
112.3262595111919
 31
0.0
  0
ELLIPSE
  5
311
330
77
100
AcDbEntity
  8
Spigoli visibili(ISO)
100
AcDbEllipse
 10
40.06051153633912
 20
122.4446696155145
 30
0.0
 11
-2.300558738994763
 21
-11.23580009216931
 31
0.0
210
0.0
220
0.0
230
1.0
 40
0.245619933254142
 41
0.5026177712026083
 42
0.6398143421522958
  0
LINE
  5
312
330
77
100
AcDbEntity
  8
Spigoli visibili(ISO)
100
AcDbLine
 10
39.8626791335168
 20
113.1090932657369
 30
0.0
 11
39.37389905402682
 21
113.1090932657369
 31
0.0
  0
ELLIPSE
  5
313
330
77
100
AcDbEntity
  8
Spigoli visibili(ISO)
100
AcDbEllipse
 10
40.06051153633912
 20
122.4446696155145
 30
0.0
 11
-2.663659616288144
 21
-11.23546815322009
 31
0.0
210
0.0
220
0.0
230
1.0
 40
0.2146014468651771
 41
0.6428281570363456
 42
0.7800247279860314
  0
LINE
  5
314
330
77
100
AcDbEntity
  8
Spigoli visibili(ISO)
100
AcDbLine
 10
39.8626791335168
 20
114.0736333948697
 30
0.0
 11
39.37389905402682
 21
114.0736333948697
 31
0.0
  0
ELLIPSE
  5
315
330
77
100
AcDbEntity
  8
Spigoli visibili(ISO)
100
AcDbEllipse
 10
40.06051153633912
 20
122.4446696155145
 30
0.0
 11
-2.966722522617127
 21
-11.23726939162023
 31
0.0
210
0.0
220
0.0
230
1.0
 40
0.1803499440482459
 41
0.7791992698984478
 42
0.9163958408481349
  0
LINE
  5
316
330
77
100
AcDbEntity
  8
Spigoli visibili(ISO)
100
AcDbLine
 10
39.86267913351681
 20
115.2011062221247
 30
0.0
 11
39.37389905402682
 21
115.2011062221247
 31
0.0
  0
ELLIPSE
  5
317
330
77
100
AcDbEntity
  8
Spigoli visibili(ISO)
100
AcDbEllipse
 10
40.06051153633912
 20
122.4446696155145
 30
0.0
 11
-3.209354679610405
 21
-11.24054427900712
 31
0.0
210
0.0
220
0.0
230
1.0
 40
0.1436910081632161
 41
0.9122508989764536
 42
1.049447469926139
  0
LINE
  5
318
330
77
100
AcDbEntity
  8
Spigoli visibili(ISO)
100
AcDbLine
 10
39.86267913351681
 20
116.4695667714009
 30
0.0
 11
39.37389905402682
 21
116.4695667714009
 31
0.0
  0
ELLIPSE
  5
319
330
77
100
AcDbEntity
  8
Spigoli visibili(ISO)
100
AcDbEllipse
 10
40.06051153633912
 20
122.4446696155145
 30
0.0
 11
-3.392108393967146
 21
-11.2443265713128
 31
0.0
210
0.0
220
0.0
230
1.0
 40
0.1053148410311945
 41
1.042634107250316
 42
1.179830678200002
  0
LINE
  5
31A
330
77
100
AcDbEntity
  8
Spigoli visibili(ISO)
100
AcDbLine
 10
39.86267913351681
 20
117.8543259009589
 30
0.0
 11
39.37389905402682
 21
117.8543259009589
 31
0.0
  0
ELLIPSE
  5
31B
330
77
100
AcDbEntity
  8
Spigoli visibili(ISO)
100
AcDbEllipse
 10
40.06051153633912
 20
122.4446696155145
 30
0.0
 11
-3.515839138308411
 21
-11.2476217565443
 31
0.0
210
0.0
220
0.0
230
1.0
 40
0.0657911479530643
 41
1.171062933906845
 42
1.308259504856532
  0
LINE
  5
31C
330
77
100
AcDbEntity
  8
Spigoli visibili(ISO)
100
AcDbLine
 10
39.86267913351681
 20
119.3284308494822
 30
0.0
 11
39.37389905402682
 21
119.3284308494822
 31
0.0
  0
ELLIPSE
  5
31D
330
77
100
AcDbEntity
  8
Spigoli visibili(ISO)
100
AcDbEllipse
 10
40.06051153633912
 20
122.4446696155145
 30
0.0
 11
-3.581311854020678
 21
-11.24962649292922
 31
0.0
210
0.0
220
0.0
230
1.0
 40
0.0255973453587171
 41
1.298275558237002
 42
1.435472129186686
  0
LINE
  5
31E
330
77
100
AcDbEntity
  8
Spigoli visibili(ISO)
100
AcDbLine
 10
39.86267913351681
 20
120.8631898409173
 30
0.0
 11
39.37389905402682
 21
120.8631898409173
 31
0.0
  0
ELLIPSE
  5
31F
330
77
100
AcDbEntity
  8
Spigoli visibili(ISO)
100
AcDbEllipse
 10
40.06051153633912
 20
122.4446696155145
 30
0.0
 11
-3.588985323654621
 21
-11.24987379520955
 31
0.0
210
0.0
220
0.0
230
1.0
 40
0.0148476006748255
 41
4.7209722699292
 42
4.858168840878883
  0
LINE
  5
320
330
77
100
AcDbEntity
  8
Spigoli visibili(ISO)
100
AcDbLine
 10
39.86267913351681
 20
122.4287305372583
 30
0.0
 11
39.37389905402682
 21
122.4287305372583
 31
0.0
  0
ELLIPSE
  5
321
330
77
100
AcDbEntity
  8
Spigoli visibili(ISO)
100
AcDbEllipse
 10
40.06051153633912
 20
122.4446696155145
 30
0.0
 11
-3.538915600792186
 21
-11.24830705608493
 31
0.0
210
0.0
220
0.0
230
0.9999999999999998
 40
0.0551475216576539
 41
4.593957858192217
 42
4.731154429141905
  0
LINE
  5
322
330
77
100
AcDbEntity
  8
Spigoli visibili(ISO)
100
AcDbLine
 10
39.86267913351681
 20
123.9945814696271
 30
0.0
 11
39.37389905402682
 21
123.9945814696271
 31
0.0
  0
ELLIPSE
  5
323
330
77
100
AcDbEntity
  8
Spigoli visibili(ISO)
100
AcDbEllipse
 10
40.06051153633912
 20
122.4446696155145
 30
0.0
 11
-3.430745497758218
 21
-11.24528855622345
 31
0.0
210
0.0
220
0.0
230
1.0
 40
0.0948930244039073
 41
4.465925034094659
 42
4.603121605044346
  0
LINE
  5
324
330
77
100
AcDbEntity
  8
Spigoli visibili(ISO)
100
AcDbLine
 10
39.86267913351681
 20
125.5302651307543
 30
0.0
 11
39.37389905402682
 21
125.5302651307543
 31
0.0
  0
ELLIPSE
  5
325
330
77
100
AcDbEntity
  8
Spigoli visibili(ISO)
100
AcDbEllipse
 10
40.06051153633912
 20
122.4446696155145
 30
0.0
 11
3.263776229828511
 21
11.24154329414385
 31
0.0
210
0.0
220
0.0
230
1.0
 40
0.1336256607043809
 41
1.19454020004762
 42
1.33173677099685
  0
LINE
  5
326
330
77
100
AcDbEntity
  8
Spigoli visibili(ISO)
100
AcDbLine
 10
39.86267913351681
 20
127.0058911849901
 30
0.0
 11
39.37389905402682
 21
127.0058911849901
 31
0.0
  0
ELLIPSE
  5
327
330
77
100
AcDbEntity
  8
Spigoli visibili(ISO)
100
AcDbEllipse
 10
40.06051153633912
 20
122.4446696155145
 30
0.0
 11
3.037146564982136
 21
11.23803334306969
 31
0.0
210
0.0
220
0.0
230
0.9999999999999998
 40
0.1708033593616837
 41
1.062265440411739
 42
1.199462011361053
  0
LINE
  5
328
330
77
100
AcDbEntity
  8
Spigoli visibili(ISO)
100
AcDbLine
 10
39.86267913351681
 20
128.3927382496888
 30
0.0
 11
39.37389905402682
 21
128.3927382496888
 31
0.0
  0
ELLIPSE
  5
329
330
77
100
AcDbEntity
  8
Spigoli visibili(ISO)
100
AcDbEllipse
 10
40.06051153633912
 20
122.4446696155145
 30
0.0
 11
2.750172298498295
 21
11.23575780123782
 31
0.0
210
0.0
220
0.0
230
1.0
 40
0.2057701538016465
 41
0.9268349629959384
 42
1.064031533945319
  0
LINE
  5
32A
330
77
100
AcDbEntity
  8
Spigoli visibili(ISO)
100
AcDbLine
 10
39.86267913351681
 20
129.6638129242511
 30
0.0
 11
39.37389905402682
 21
129.6638129242511
 31
0.0
  0
ELLIPSE
  5
32B
330
77
100
AcDbEntity
  8
Spigoli visibili(ISO)
100
AcDbEllipse
 10
40.06051153633912
 20
122.4446696155145
 30
0.0
 11
2.402915938796717
 21
11.23548665674025
 31
0.0
210
0.0
220
0.0
230
1.0
 40
0.2377367389228602
 41
0.7876855009420148
 42
0.9248820718914574
  0
LINE
  5
32C
330
77
100
AcDbEntity
  8
Spigoli visibili(ISO)
100
AcDbLine
 10
39.86267913351681
 20
130.7943751859626
 30
0.0
 11
39.37389905402683
 21
130.7943751859625
 31
0.0
  0
ELLIPSE
  5
32D
330
77
100
AcDbEntity
  8
Spigoli visibili(ISO)
100
AcDbEllipse
 10
40.06051153633912
 20
122.4446696155145
 30
0.0
 11
1.997039893163195
 21
11.23747184471401
 31
0.0
210
0.0
220
0.0
230
1.0
 40
0.2657829636137616
 41
0.6444564153629804
 42
0.7816529863124711
  0
LINE
  5
32E
330
77
100
AcDbEntity
  8
Spigoli visibili(ISO)
100
AcDbLine
 10
39.86267913351681
 20
131.7624199263946
 30
0.0
 11
39.37389905402683
 21
131.7624199263946
 31
0.0
  0
ELLIPSE
  5
32F
330
77
100
AcDbEntity
  8
Spigoli visibili(ISO)
100
AcDbEllipse
 10
40.06051153633912
 20
122.4446696155145
 30
0.0
 11
1.536906487981991
 21
11.24123468657834
 31
0.0
210
0.0
220
0.0
230
1.0
 40
0.2888969318575517
 41
0.4971097749963614
 42
0.6343063459458947
  0
LINE
  5
330
330
77
100
AcDbEntity
  8
Spigoli visibili(ISO)
100
AcDbLine
 10
39.86267913351681
 20
132.5491052558092
 30
0.0
 11
39.37389905402683
 21
132.5491052558092
 31
0.0
  0
ELLIPSE
  5
331
330
77
100
AcDbEntity
  8
Spigoli visibili(ISO)
100
AcDbEllipse
 10
40.06051153633912
 20
122.4446696155145
 30
0.0
 11
1.030693228542904
 21
11.24557631477123
 31
0.0
210
0.0
220
0.0
230
1.0
 40
0.3060632936252606
 41
0.3460501725257217
 42
0.4832467434754096
  0
LINE
  5
332
330
77
100
AcDbEntity
  8
Spigoli visibili(ISO)
100
AcDbLine
 10
39.86267913351681
 20
133.1391192391108
 30
0.0
 11
39.37389905402683
 21
133.1391192391108
 31
0.0
  0
ELLIPSE
  5
333
330
77
100
AcDbEntity
  8
Spigoli visibili(ISO)
100
AcDbEllipse
 10
40.06051153633912
 20
122.4446696155145
 30
0.0
 11
0.4910400902902428
 21
11.24892713748197
 31
0.0
210
0.0
220
0.0
230
0.9999999999999998
 40
0.3163996468692249
 41
0.1921901551883209
 42
0.3293867261380097
  0
LINE
  5
334
330
77
100
AcDbEntity
  8
Spigoli visibili(ISO)
100
AcDbLine
 10
39.86267913351681
 20
133.5209779252451
 30
0.0
 11
39.37389905402683
 21
133.5209779252451
 31
0.0
  0
ELLIPSE
  5
335
330
77
100
AcDbEntity
  8
Spigoli visibili(ISO)
100
AcDbEllipse
 10
40.06051153633912
 20
122.4446696155145
 30
0.0
 11
0.0653590150926184
 21
-11.24998064181644
 31
0.0
210
0.0
220
0.0
230
1.0
 40
0.3193139373685593
 41
3.178490699143225
 42
3.31568727009291
  0
LINE
  5
336
330
77
100
AcDbEntity
  8
Spigoli visibili(ISO)
100
AcDbLine
 10
39.86267913351681
 20
133.6872488692445
 30
0.0
 11
39.37389905402683
 21
133.6872488692445
 31
0.0
  0
ELLIPSE
  5
337
330
77
100
AcDbEntity
  8
Spigoli visibili(ISO)
100
AcDbEllipse
 10
40.06051153633912
 20
122.4446696155145
 30
0.0
 11
0.6194968963795298
 21
-11.24831139013702
 31
0.0
210
0.0
220
0.0
230
1.0
 40
0.3146302588282499
 41
3.087942841433582
 42
3.160589626373583
  0
ELLIPSE
  5
338
330
77
100
AcDbEntity
  8
Spigoli visibili(ISO)
100
AcDbEllipse
 10
40.06051153633912
 20
122.4446696155145
 30
0.0
 11
3.308164324178842
 21
-11.24243642163759
 31
0.0
210
0.0
220
0.0
230
1.0
 40
0.1246794369458176
 41
2.026663758445351
 42
2.026795134652154
  0
LINE
  5
339
330
77
100
AcDbEntity
  8
Spigoli visibili(ISO)
100
AcDbLine
 10
39.86267913351681
 20
117.1771932058982
 30
0.0
 11
39.85803856783419
 21
117.1771932058982
 31
0.0
  0
LINE
  5
33A
330
77
100
AcDbEntity
  8
Spigoli visibili(ISO)
100
AcDbLine
 10
39.86267913351681
 20
115.8449871492702
 30
0.0
 11
39.86173166003367
 21
115.8449871492702
 31
0.0
  0
LINE
  5
33B
330
77
100
AcDbEntity
  8
Spigoli visibili(ISO)
100
AcDbLine
 10
39.86009582365291
 20
128.3927382496888
 30
0.0
 11
39.86267913351681
 21
128.5475938760582
 31
0.0
  0
LINE
  5
33C
330
77
100
AcDbEntity
  8
Spigoli visibili(ISO)
100
AcDbLine
 10
39.86267913351681
 20
127.5200279817733
 30
0.0
 11
39.85864641020566
 21
127.5226570969064
 31
0.0
  0
LINE
  5
33D
330
77
100
AcDbEntity
  8
Spigoli visibili(ISO)
100
AcDbLine
 10
39.86267913351681
 20
127.4944318645194
 30
0.0
 11
39.85824701250111
 21
127.4954013211769
 31
0.0
  0
LINE
  5
33E
330
77
100
AcDbEntity
  8
Spigoli visibili(ISO)
100
AcDbLine
 10
39.86267913351681
 20
127.4192404403837
 30
0.0
 11
39.85711309307646
 21
127.4180201715573
 31
0.0
  0
LINE
  5
33F
330
77
100
AcDbEntity
  8
Spigoli visibili(ISO)
100
AcDbLine
 10
39.86267913351681
 20
127.3705478691079
 30
0.0
 11
39.85639731375368
 21
127.3691738199858
 31
0.0
  0
LINE
  5
340
330
77
100
AcDbEntity
  8
Spigoli visibili(ISO)
100
AcDbLine
 10
39.86267913351681
 20
127.295917224908
 30
0.0
 11
39.85525272447884
 21
127.2910645363772
 31
0.0
  0
LINE
  5
341
330
77
100
AcDbEntity
  8
Spigoli visibili(ISO)
100
AcDbLine
 10
39.86267913351681
 20
127.1507872565938
 30
0.0
 11
39.85310568559612
 21
127.1445458919224
 31
0.0
  0
LINE
  5
342
330
77
100
AcDbEntity
  8
Spigoli visibili(ISO)
100
AcDbLine
 10
39.86267913351681
 20
127.0781699929279
 30
0.0
 11
39.85196425779014
 21
127.0666523538852
 31
0.0
  0
LINE
  5
343
330
77
100
AcDbEntity
  8
Spigoli visibili(ISO)
100
AcDbLine
 10
39.86267913351681
 20
126.4425286164078
 30
0.0
 11
39.86106176666419
 21
126.4401476673794
 31
0.0
  0
LINE
  5
344
330
77
100
AcDbEntity
  8
Spigoli visibili(ISO)
100
AcDbLine
 10
39.86170163489904
 20
130.7943751859625
 30
0.0
 11
39.86267913351681
 21
130.8919815899914
 31
0.0
  0
LINE
  5
345
330
77
100
AcDbEntity
  8
Spigoli visibili(ISO)
100
AcDbLine
 10
39.86267913351681
 20
126.3781116524918
 30
0.0
 11
39.85983248156852
 21
126.3728529609576
 31
0.0
  0
LINE
  5
346
330
77
100
AcDbEntity
  8
Spigoli visibili(ISO)
100
AcDbLine
 10
39.86267913351681
 20
125.967816037535
 30
0.0
 11
39.85207662607088
 21
125.9482744635873
 31
0.0
  0
LINE
  5
347
330
77
100
AcDbEntity
  8
Spigoli visibili(ISO)
100
AcDbLine
 10
39.85897514195653
 20
129.6638129242511
 30
0.0
 11
39.86267913351681
 21
130.0009465165985
 31
0.0
  0
LINE
  5
348
330
77
100
AcDbEntity
  8
Spigoli visibili(ISO)
100
AcDbLine
 10
39.86267913351681
 20
125.9094263833279
 30
0.0
 11
39.85089709985887
 21
125.8837037058088
 31
0.0
  0
LINE
  5
349
330
77
100
AcDbEntity
  8
Spigoli visibili(ISO)
100
AcDbLine
 10
39.85558951305515
 20
128.3927382496888
 30
0.0
 11
39.86267913351681
 21
128.9628371084635
 31
0.0
  0
LINE
  5
34A
330
77
100
AcDbEntity
  8
Spigoli visibili(ISO)
100
AcDbLine
 10
39.86267913351681
 20
124.8232432230444
 30
0.0
 11
39.85321726292482
 21
124.7998633893761
 31
0.0
  0
LINE
  5
34B
330
77
100
AcDbEntity
  8
Spigoli visibili(ISO)
100
AcDbLine
 10
39.85107388242076
 20
127.0058911849901
 30
0.0
 11
39.86267913351681
 21
127.797858984384
 31
0.0
  0
LINE
  5
34C
330
77
100
AcDbEntity
  8
Spigoli visibili(ISO)
100
AcDbLine
 10
39.86267913351681
 20
124.7801782176831
 30
0.0
 11
39.85200416168071
 21
124.7511231420425
 31
0.0
  0
LINE
  5
34D
330
77
100
AcDbEntity
  8
Spigoli visibili(ISO)
100
AcDbLine
 10
39.86267913351681
 20
124.1756607953285
 30
0.0
 11
39.83586938968829
 21
124.1028567410242
 31
0.0
  0
LINE
  5
34E
330
77
100
AcDbEntity
  8
Spigoli visibili(ISO)
100
AcDbLine
 10
39.84444077074094
 20
125.5302651307543
 30
0.0
 11
39.86267913351681
 21
126.5286871184022
 31
0.0
  0
LINE
  5
34F
330
77
100
AcDbEntity
  8
Spigoli visibili(ISO)
100
AcDbLine
 10
39.86267913351681
 20
124.1415948522458
 30
0.0
 11
39.83481245996305
 21
124.0603911871617
 31
0.0
  0
LINE
  5
350
330
77
100
AcDbEntity
  8
Spigoli visibili(ISO)
100
AcDbLine
 10
39.86267913351681
 20
123.4943865932707
 30
0.0
 11
39.84973745104078
 21
123.4567605223574
 31
0.0
  0
LINE
  5
351
330
77
100
AcDbEntity
  8
Spigoli visibili(ISO)
100
AcDbLine
 10
39.83317451484414
 20
123.9945814696271
 30
0.0
 11
39.86267913351681
 21
125.1800244972275
 31
0.0
  0
LINE
  5
352
330
77
100
AcDbEntity
  8
Spigoli visibili(ISO)
100
AcDbLine
 10
39.86267913351681
 20
123.4699827672994
 30
0.0
 11
39.84853262667792
 21
123.426842982613
 31
0.0
  0
LINE
  5
353
330
77
100
AcDbEntity
  8
Spigoli visibili(ISO)
100
AcDbLine
 10
39.86267913351681
 20
122.7926808442763
 30
0.0
 11
39.81745244040233
 21
122.6550767925983
 31
0.0
  0
LINE
  5
354
330
77
100
AcDbEntity
  8
Spigoli visibili(ISO)
100
AcDbLine
 10
39.81745244040233
 20
122.6550767925983
 30
0.0
 11
39.86267913351681
 21
123.7781213047004
 31
0.0
  0
LINE
  5
355
330
77
100
AcDbEntity
  8
Spigoli visibili(ISO)
100
AcDbLine
 10
39.86267913351681
 20
122.7784141281299
 30
0.0
 11
39.75080330529213
 21
122.4287305372583
 31
0.0
  0
LINE
  5
356
330
77
100
AcDbEntity
  8
Spigoli visibili(ISO)
100
AcDbLine
 10
39.86267913351681
 20
122.0842014525709
 30
0.0
 11
39.81745244040233
 21
121.9431617276921
 31
0.0
  0
LINE
  5
357
330
77
100
AcDbEntity
  8
Spigoli visibili(ISO)
100
AcDbLine
 10
39.81745244040233
 20
121.9431617276921
 30
0.0
 11
39.86267913351681
 21
122.3502639918222
 31
0.0
  0
LINE
  5
358
330
77
100
AcDbEntity
  8
Spigoli visibili(ISO)
100
AcDbLine
 10
39.37389905402682
 20
120.8631898409173
 30
0.0
 11
39.59545311400957
 21
121.2410079433655
 31
0.0
  0
LINE
  5
359
330
77
100
AcDbEntity
  8
Spigoli visibili(ISO)
100
AcDbLine
 10
39.86267913351681
 20
122.0803495316512
 30
0.0
 11
39.59545311400957
 21
121.2410079433655
 31
0.0
  0
LINE
  5
35A
330
77
100
AcDbEntity
  8
Spigoli visibili(ISO)
100
AcDbLine
 10
39.59545311400957
 20
121.2410079433655
 30
0.0
 11
39.81745244040233
 21
121.2410079433655
 31
0.0
  0
LINE
  5
35B
330
77
100
AcDbEntity
  8
Spigoli visibili(ISO)
100
AcDbLine
 10
39.86267913351681
 20
121.3827381636308
 30
0.0
 11
39.81745244040233
 21
121.2410079433655
 31
0.0
  0
LINE
  5
35C
330
77
100
AcDbEntity
  8
Spigoli visibili(ISO)
100
AcDbLine
 10
39.81745244040233
 20
121.2410079433655
 30
0.0
 11
39.86267913351681
 21
120.9242441770243
 31
0.0
  0
LINE
  5
35D
330
77
100
AcDbEntity
  8
Spigoli visibili(ISO)
100
AcDbLine
 10
39.77434986657446
 20
120.5622820643424
 30
0.0
 11
39.81745244040233
 21
120.5622820643424
 31
0.0
  0
LINE
  5
35E
330
77
100
AcDbEntity
  8
Spigoli visibili(ISO)
100
AcDbLine
 10
39.86267913351681
 20
120.7019441624725
 30
0.0
 11
39.81745244040233
 21
120.5622820643424
 31
0.0
  0
LINE
  5
35F
330
77
100
AcDbEntity
  8
Spigoli visibili(ISO)
100
AcDbLine
 10
39.81745244040233
 20
120.5622820643424
 30
0.0
 11
39.86267913351681
 21
119.5278177139283
 31
0.0
  0
LINE
  5
360
330
77
100
AcDbEntity
  8
Spigoli visibili(ISO)
100
AcDbLine
 10
39.86267913351681
 20
120.0550703299368
 30
0.0
 11
39.84228652484688
 21
119.9942552362911
 31
0.0
  0
LINE
  5
361
330
77
100
AcDbEntity
  8
Spigoli visibili(ISO)
100
AcDbLine
 10
39.83570884676094
 20
119.2210357450579
 30
0.0
 11
39.86267913351681
 21
118.1881644552267
 31
0.0
  0
LINE
  5
362
330
77
100
AcDbEntity
  8
Spigoli visibili(ISO)
100
AcDbLine
 10
39.84659484207215
 20
117.7834246055012
 30
0.0
 11
39.86267913351681
 21
116.9313592277673
 31
0.0
  0
LINE
  5
363
330
77
100
AcDbEntity
  8
Spigoli visibili(ISO)
100
AcDbLine
 10
39.86267913351681
 20
118.9125405436633
 30
0.0
 11
39.84496659708137
 21
118.8664950388002
 31
0.0
  0
LINE
  5
364
330
77
100
AcDbEntity
  8
Spigoli visibili(ISO)
100
AcDbLine
 10
39.85308583100641
 20
116.4209918991826
 30
0.0
 11
39.86267913351681
 21
115.7818643157079
 31
0.0
  0
LINE
  5
365
330
77
100
AcDbEntity
  8
Spigoli visibili(ISO)
100
AcDbLine
 10
39.86267913351681
 20
118.439122632607
 30
0.0
 11
39.856501991047
 21
118.4247282399579
 31
0.0
  0
LINE
  5
366
330
77
100
AcDbEntity
  8
Spigoli visibili(ISO)
100
AcDbLine
 10
39.8575398906643
 20
115.1679137770036
 30
0.0
 11
39.86267913351681
 21
114.7620533299805
 31
0.0
  0
LINE
  5
367
330
77
100
AcDbEntity
  8
Spigoli visibili(ISO)
100
AcDbLine
 10
39.86089823067402
 20
114.051676290558
 30
0.0
 11
39.8626791335168
 21
113.8917757314045
 31
0.0
  0
LINE
  5
368
330
77
100
AcDbEntity
  8
Spigoli visibili(ISO)
100
AcDbLine
 10
39.86267913351681
 20
117.7338741297625
 30
0.0
 11
39.84799092092313
 21
117.7094673250322
 31
0.0
  0
LINE
  5
369
330
77
100
AcDbEntity
  8
Spigoli visibili(ISO)
100
AcDbLine
 10
39.86267913351681
 20
117.5157703978739
 30
0.0
 11
39.85190665679692
 21
117.5020312077572
 31
0.0
  0
LINE
  5
36A
330
77
100
AcDbEntity
  8
Spigoli visibili(ISO)
100
AcDbLine
 10
39.86267913351681
 20
117.3936020827169
 30
0.0
 11
39.85409353276065
 21
117.3861814483506
 31
0.0
  0
LINE
  5
36B
330
77
100
AcDbEntity
  8
Spigoli visibili(ISO)
100
AcDbLine
 10
39.86267913351681
 20
117.3697470515817
 30
0.0
 11
39.85447137672999
 21
117.3661651631705
 31
0.0
  0
LINE
  5
36C
330
77
100
AcDbEntity
  8
Spigoli visibili(ISO)
100
AcDbLine
 10
35.08953017151095
 20
125.4446696155145
 30
0.0
 11
35.03263461333081
 21
125.4446696155145
 31
0.0
  0
ELLIPSE
  5
36D
330
77
100
AcDbEntity
  8
Spigoli visibili(ISO)
100
AcDbEllipse
 10
61.42517913351668
 20
123.9446696155144
 30
0.0
 11
-26.39254452018589
 21
0.00000000000029
 31
0.0
210
0.0
220
0.0
230
1.0
 40
0.8660254037844389
 41
6.217511590134284
 42
6.348859024224905
  0
LINE
  5
36E
330
77
100
AcDbEntity
  8
Spigoli visibili(ISO)
100
AcDbLine
 10
35.03263461333081
 20
119.4446696155145
 30
0.0
 11
35.08953017151095
 21
119.4446696155145
 31
0.0
  0
ELLIPSE
  5
36F
330
77
100
AcDbEntity
  8
Spigoli visibili(ISO)
100
AcDbEllipse
 10
61.42517913351658
 20
120.9446696155145
 30
0.0
 11
-26.39254452018578
 21
0.0000000000001957
 31
0.0
210
0.0
220
0.0
230
1.0
 40
0.8660254037844389
 41
6.217511590134281
 42
6.348859024224903
  0
LINE
  5
370
330
77
100
AcDbEntity
  8
Spigoli visibili(ISO)
100
AcDbLine
 10
278.3626791335167
 20
111.1946696155145
 30
0.0
 11
278.3626791335167
 21
133.6946696155145
 31
0.0
  0
LINE
  5
371
330
77
100
AcDbEntity
  8
Spigoli visibili(ISO)
100
AcDbLine
 10
275.9739910773289
 20
133.6946696155145
 30
0.0
 11
278.3626791335168
 21
133.6946696155145
 31
0.0
  0
LINE
  5
372
330
77
100
AcDbEntity
  8
Spigoli visibili(ISO)
100
AcDbLine
 10
276.222934485754
 20
111.1946696155145
 30
0.0
 11
278.3626791335167
 21
111.1946696155145
 31
0.0
  0
ARC
  5
373
330
77
100
AcDbEntity
  8
Spigoli visibili(ISO)
100
AcDbCircle
 10
254.3001791335168
 20
122.4446696155145
 30
0.0
 40
26.5625
100
AcDbArc
 50
334.942384581697
 51
353.5151105385459
  0
ARC
  5
374
330
77
100
AcDbEntity
  8
Spigoli visibili(ISO)
100
AcDbCircle
 10
254.3001791335168
 20
122.4446696155145
 30
0.0
 40
26.5625
100
AcDbArc
 50
6.48488946145406
 51
25.05761541830303
  0
ELLIPSE
  5
375
330
77
100
AcDbEntity
  8
Spigoli visibili(ISO)
100
AcDbEllipse
 10
275.6648467306945
 20
122.4446696155145
 30
0.0
 11
0.3439187391952053
 21
11.24946867440403
 31
0.0
210
0.0
220
0.0
230
1.0
 40
0.3179147370082052
 41
0.0097189828305478
 42
0.040778991230454
  0
LINE
  5
376
330
77
100
AcDbEntity
  8
Spigoli visibili(ISO)
100
AcDbLine
 10
275.8626791335168
 20
133.6883614008626
 30
0.0
 11
276.3514592130068
 21
133.6883614008626
 31
0.0
  0
ELLIPSE
  5
377
330
77
100
AcDbEntity
  8
Spigoli visibili(ISO)
100
AcDbEllipse
 10
275.6648467306945
 20
122.4446696155145
 30
0.0
 11
0.8897923649884777
 21
11.24662860382626
 31
0.0
210
0.0
220
0.0
230
1.0
 40
0.3095101809862542
 41
0.0579722051474008
 42
0.1951687760970944
  0
LINE
  5
378
330
77
100
AcDbEntity
  8
Spigoli visibili(ISO)
100
AcDbLine
 10
275.8626791335168
 20
133.5265135090308
 30
0.0
 11
276.3514592130068
 21
133.5265135090308
 31
0.0
  0
ELLIPSE
  5
379
330
77
100
AcDbEntity
  8
Spigoli visibili(ISO)
100
AcDbEllipse
 10
275.6648467306945
 20
122.4446696155145
 30
0.0
 11
1.406319169949519
 21
11.24239544932053
 31
0.0
210
0.0
220
0.0
230
1.0
 40
0.2940835536622914
 41
0.2098866556439338
 42
0.3470832265936171
  0
LINE
  5
37A
330
77
100
AcDbEntity
  8
Spigoli visibili(ISO)
100
AcDbLine
 10
275.8626791335168
 20
133.1489701312224
 30
0.0
 11
276.3514592130068
 21
133.1489701312224
 31
0.0
  0
ELLIPSE
  5
37B
330
77
100
AcDbEntity
  8
Spigoli visibili(ISO)
100
AcDbEllipse
 10
275.6648467306945
 20
122.4446696155145
 30
0.0
 11
1.879686257061856
 21
11.23833718195782
 31
0.0
210
0.0
220
0.0
230
0.9999999999999998
 40
0.2724551716718091
 41
0.3582808836669225
 42
0.4954774546166162
  0
LINE
  5
37C
330
77
100
AcDbEntity
  8
Spigoli visibili(ISO)
100
AcDbLine
 10
275.8626791335168
 20
132.5630797198371
 30
0.0
 11
276.3514592130068
 21
132.5630797198371
 31
0.0
  0
ELLIPSE
  5
37D
330
77
100
AcDbEntity
  8
Spigoli visibili(ISO)
100
AcDbEllipse
 10
275.6648467306945
 20
122.4446696155145
 30
0.0
 11
2.300558738994763
 21
11.23580009216931
 31
0.0
210
0.0
220
0.0
230
1.0
 40
0.245619933254142
 41
0.5026177712026075
 42
0.6398143421523021
  0
LINE
  5
37E
330
77
100
AcDbEntity
  8
Spigoli visibili(ISO)
100
AcDbLine
 10
275.8626791335168
 20
131.7802459652921
 30
0.0
 11
276.3514592130068
 21
131.7802459652921
 31
0.0
  0
ELLIPSE
  5
37F
330
77
100
AcDbEntity
  8
Spigoli visibili(ISO)
100
AcDbEllipse
 10
275.6648467306945
 20
122.4446696155145
 30
0.0
 11
2.663659616288144
 21
11.23546815322009
 31
0.0
210
0.0
220
0.0
230
1.0
 40
0.2146014468651771
 41
0.6428281570363436
 42
0.7800247279860263
  0
LINE
  5
380
330
77
100
AcDbEntity
  8
Spigoli visibili(ISO)
100
AcDbLine
 10
275.8626791335168
 20
130.8157058361593
 30
0.0
 11
276.3514592130068
 21
130.8157058361593
 31
0.0
  0
ELLIPSE
  5
381
330
77
100
AcDbEntity
  8
Spigoli visibili(ISO)
100
AcDbEllipse
 10
275.6648467306945
 20
122.4446696155145
 30
0.0
 11
2.966722522617127
 21
11.23726939162023
 31
0.0
210
0.0
220
0.0
230
1.0
 40
0.1803499440482459
 41
0.7791992698984477
 42
0.9163958408481303
  0
LINE
  5
382
330
77
100
AcDbEntity
  8
Spigoli visibili(ISO)
100
AcDbLine
 10
275.8626791335168
 20
129.6882330089043
 30
0.0
 11
276.3514592130068
 21
129.6882330089043
 31
0.0
  0
ELLIPSE
  5
383
330
77
100
AcDbEntity
  8
Spigoli visibili(ISO)
100
AcDbEllipse
 10
275.6648467306945
 20
122.4446696155145
 30
0.0
 11
3.209354679610405
 21
11.24054427900712
 31
0.0
210
0.0
220
0.0
230
1.0
 40
0.1436910081632161
 41
0.912250898976441
 42
1.049447469926125
  0
LINE
  5
384
330
77
100
AcDbEntity
  8
Spigoli visibili(ISO)
100
AcDbLine
 10
275.8626791335168
 20
128.4197724596282
 30
0.0
 11
276.3514592130068
 21
128.4197724596282
 31
0.0
  0
ELLIPSE
  5
385
330
77
100
AcDbEntity
  8
Spigoli visibili(ISO)
100
AcDbEllipse
 10
275.6648467306945
 20
122.4446696155145
 30
0.0
 11
3.392108393967146
 21
11.2443265713128
 31
0.0
210
0.0
220
0.0
230
1.0
 40
0.1053148410311945
 41
1.042634107250302
 42
1.179830678199997
  0
LINE
  5
386
330
77
100
AcDbEntity
  8
Spigoli visibili(ISO)
100
AcDbLine
 10
275.8626791335168
 20
127.0350133300701
 30
0.0
 11
276.3514592130068
 21
127.0350133300701
 31
0.0
  0
ELLIPSE
  5
387
330
77
100
AcDbEntity
  8
Spigoli visibili(ISO)
100
AcDbEllipse
 10
275.6648467306945
 20
122.4446696155145
 30
0.0
 11
3.515839138308411
 21
11.2476217565443
 31
0.0
210
0.0
220
0.0
230
1.0
 40
0.0657911479530643
 41
1.171062933906838
 42
1.308259504856504
  0
LINE
  5
388
330
77
100
AcDbEntity
  8
Spigoli visibili(ISO)
100
AcDbLine
 10
275.8626791335168
 20
125.5609083815468
 30
0.0
 11
276.3514592130068
 21
125.5609083815468
 31
0.0
  0
ELLIPSE
  5
389
330
77
100
AcDbEntity
  8
Spigoli visibili(ISO)
100
AcDbEllipse
 10
275.6648467306945
 20
122.4446696155145
 30
0.0
 11
3.581311854020678
 21
11.24962649292922
 31
0.0
210
0.0
220
0.0
230
1.0
 40
0.0255973453587171
 41
1.29827555823695
 42
1.435472129186627
  0
LINE
  5
38A
330
77
100
AcDbEntity
  8
Spigoli visibili(ISO)
100
AcDbLine
 10
275.8626791335167
 20
124.0261493901117
 30
0.0
 11
276.3514592130068
 21
124.0261493901117
 31
0.0
  0
ELLIPSE
  5
38B
330
77
100
AcDbEntity
  8
Spigoli visibili(ISO)
100
AcDbEllipse
 10
275.6648467306945
 20
122.4446696155145
 30
0.0
 11
3.588985323654621
 21
11.24987379520955
 31
0.0
210
0.0
220
0.0
230
1.0
 40
0.0148476006748255
 41
4.720972269929129
 42
4.858168840878804
  0
LINE
  5
38C
330
77
100
AcDbEntity
  8
Spigoli visibili(ISO)
100
AcDbLine
 10
275.8626791335167
 20
122.4606086937707
 30
0.0
 11
276.3514592130068
 21
122.4606086937707
 31
0.0
  0
ELLIPSE
  5
38D
330
77
100
AcDbEntity
  8
Spigoli visibili(ISO)
100
AcDbEllipse
 10
275.6648467306945
 20
122.4446696155145
 30
0.0
 11
3.538915600792186
 21
11.24830705608493
 31
0.0
210
0.0
220
0.0
230
0.9999999999999998
 40
0.0551475216576539
 41
4.593957858192194
 42
4.731154429141886
  0
LINE
  5
38E
330
77
100
AcDbEntity
  8
Spigoli visibili(ISO)
100
AcDbLine
 10
275.8626791335167
 20
120.8947577614019
 30
0.0
 11
276.3514592130068
 21
120.8947577614019
 31
0.0
  0
ELLIPSE
  5
38F
330
77
100
AcDbEntity
  8
Spigoli visibili(ISO)
100
AcDbEllipse
 10
275.6648467306945
 20
122.4446696155145
 30
0.0
 11
3.430745497758218
 21
11.24528855622345
 31
0.0
210
0.0
220
0.0
230
1.0
 40
0.0948930244039073
 41
4.465925034094647
 42
4.603121605044332
  0
LINE
  5
390
330
77
100
AcDbEntity
  8
Spigoli visibili(ISO)
100
AcDbLine
 10
275.8626791335167
 20
119.3590741002747
 30
0.0
 11
276.3514592130068
 21
119.3590741002747
 31
0.0
  0
ELLIPSE
  5
391
330
77
100
AcDbEntity
  8
Spigoli visibili(ISO)
100
AcDbEllipse
 10
275.6648467306945
 20
122.4446696155145
 30
0.0
 11
-3.263776229828511
 21
-11.24154329414385
 31
0.0
210
0.0
220
0.0
230
1.0
 40
0.1336256607043809
 41
1.194540200047615
 42
1.331736770996842
  0
LINE
  5
392
330
77
100
AcDbEntity
  8
Spigoli visibili(ISO)
100
AcDbLine
 10
275.8626791335167
 20
117.8834480460388
 30
0.0
 11
276.3514592130068
 21
117.8834480460388
 31
0.0
  0
ELLIPSE
  5
393
330
77
100
AcDbEntity
  8
Spigoli visibili(ISO)
100
AcDbEllipse
 10
275.6648467306945
 20
122.4446696155145
 30
0.0
 11
-3.037146564982136
 21
-11.23803334306969
 31
0.0
210
0.0
220
0.0
230
0.9999999999999998
 40
0.1708033593616837
 41
1.062265440411731
 42
1.199462011361045
  0
LINE
  5
394
330
77
100
AcDbEntity
  8
Spigoli visibili(ISO)
100
AcDbLine
 10
275.8626791335167
 20
116.4966009813402
 30
0.0
 11
276.3514592130068
 21
116.4966009813402
 31
0.0
  0
ELLIPSE
  5
395
330
77
100
AcDbEntity
  8
Spigoli visibili(ISO)
100
AcDbEllipse
 10
275.6648467306945
 20
122.4446696155145
 30
0.0
 11
-2.750172298498295
 21
-11.23575780123782
 31
0.0
210
0.0
220
0.0
230
1.0
 40
0.2057701538016465
 41
0.9268349629959367
 42
1.064031533945317
  0
LINE
  5
396
330
77
100
AcDbEntity
  8
Spigoli visibili(ISO)
100
AcDbLine
 10
275.8626791335167
 20
115.2255263067779
 30
0.0
 11
276.3514592130068
 21
115.2255263067779
 31
0.0
  0
ELLIPSE
  5
397
330
77
100
AcDbEntity
  8
Spigoli visibili(ISO)
100
AcDbEllipse
 10
275.6648467306945
 20
122.4446696155145
 30
0.0
 11
-2.402915938796717
 21
-11.23548665674025
 31
0.0
210
0.0
220
0.0
230
1.0
 40
0.2377367389228602
 41
0.7876855009420174
 42
0.9248820718914574
  0
LINE
  5
398
330
77
100
AcDbEntity
  8
Spigoli visibili(ISO)
100
AcDbLine
 10
275.8626791335167
 20
114.0949640450664
 30
0.0
 11
276.3514592130068
 21
114.0949640450664
 31
0.0
  0
ELLIPSE
  5
399
330
77
100
AcDbEntity
  8
Spigoli visibili(ISO)
100
AcDbEllipse
 10
275.6648467306945
 20
122.4446696155145
 30
0.0
 11
-1.997039893163195
 21
-11.23747184471401
 31
0.0
210
0.0
220
0.0
230
1.0
 40
0.2657829636137616
 41
0.6444564153629769
 42
0.7816529863124693
  0
LINE
  5
39A
330
77
100
AcDbEntity
  8
Spigoli visibili(ISO)
100
AcDbLine
 10
275.8626791335167
 20
113.1269193046344
 30
0.0
 11
276.3514592130068
 21
113.1269193046344
 31
0.0
  0
ELLIPSE
  5
39B
330
77
100
AcDbEntity
  8
Spigoli visibili(ISO)
100
AcDbEllipse
 10
275.6648467306945
 20
122.4446696155145
 30
0.0
 11
-1.536906487981991
 21
-11.24123468657834
 31
0.0
210
0.0
220
0.0
230
1.0
 40
0.2888969318575517
 41
0.4971097749963658
 42
0.6343063459459
  0
LINE
  5
39C
330
77
100
AcDbEntity
  8
Spigoli visibili(ISO)
100
AcDbLine
 10
275.8626791335167
 20
112.3402339752197
 30
0.0
 11
276.3514592130068
 21
112.3402339752197
 31
0.0
  0
ELLIPSE
  5
39D
330
77
100
AcDbEntity
  8
Spigoli visibili(ISO)
100
AcDbEllipse
 10
275.6648467306945
 20
122.4446696155145
 30
0.0
 11
-1.030693228542904
 21
-11.24557631477123
 31
0.0
210
0.0
220
0.0
230
1.0
 40
0.3060632936252606
 41
0.346050172525727
 42
0.4832467434754113
  0
LINE
  5
39E
330
77
100
AcDbEntity
  8
Spigoli visibili(ISO)
100
AcDbLine
 10
275.8626791335167
 20
111.7502199919182
 30
0.0
 11
276.3514592130068
 21
111.7502199919182
 31
0.0
  0
ELLIPSE
  5
39F
330
77
100
AcDbEntity
  8
Spigoli visibili(ISO)
100
AcDbEllipse
 10
275.6648467306945
 20
122.4446696155145
 30
0.0
 11
-0.4910400902902428
 21
-11.24892713748197
 31
0.0
210
0.0
220
0.0
230
0.9999999999999998
 40
0.3163996468692249
 41
0.1921901551883192
 42
0.3293867261380026
  0
LINE
  5
3A0
330
77
100
AcDbEntity
  8
Spigoli visibili(ISO)
100
AcDbLine
 10
275.8626791335167
 20
111.3683613057839
 30
0.0
 11
276.3514592130068
 21
111.3683613057839
 31
0.0
  0
ELLIPSE
  5
3A1
330
77
100
AcDbEntity
  8
Spigoli visibili(ISO)
100
AcDbEllipse
 10
275.6648467306945
 20
122.4446696155145
 30
0.0
 11
-0.0653590150926184
 21
11.24998064181644
 31
0.0
210
0.0
220
0.0
230
1.0
 40
0.3193139373685593
 41
3.17849069914323
 42
3.315687270092913
  0
LINE
  5
3A2
330
77
100
AcDbEntity
  8
Spigoli visibili(ISO)
100
AcDbLine
 10
275.8626791335167
 20
111.2020903617845
 30
0.0
 11
276.3514592130068
 21
111.2020903617845
 31
0.0
  0
ELLIPSE
  5
3A3
330
77
100
AcDbEntity
  8
Spigoli visibili(ISO)
100
AcDbEllipse
 10
275.6648467306945
 20
122.4446696155145
 30
0.0
 11
-0.6194968963795298
 21
11.24831139013702
 31
0.0
210
0.0
220
0.0
230
1.0
 40
0.3146302588282499
 41
3.08794284143358
 42
3.160589626373587
  0
ELLIPSE
  5
3A4
330
77
100
AcDbEntity
  8
Spigoli visibili(ISO)
100
AcDbEllipse
 10
275.6648467306945
 20
122.4446696155145
 30
0.0
 11
-3.308164324178842
 21
11.24243642163759
 31
0.0
210
0.0
220
0.0
230
1.0
 40
0.1246794369458176
 41
2.026663758445351
 42
2.02679513465215
  0
LINE
  5
3A5
330
77
100
AcDbEntity
  8
Spigoli visibili(ISO)
100
AcDbLine
 10
275.8626791335168
 20
127.7121460251308
 30
0.0
 11
275.8673196991994
 21
127.7121460251308
 31
0.0
  0
LINE
  5
3A6
330
77
100
AcDbEntity
  8
Spigoli visibili(ISO)
100
AcDbLine
 10
275.8626791335168
 20
129.0443520817587
 30
0.0
 11
275.8636266069999
 21
129.0443520817587
 31
0.0
  0
LINE
  5
3A7
330
77
100
AcDbEntity
  8
Spigoli visibili(ISO)
100
AcDbLine
 10
275.8652624433807
 20
116.4966009813402
 30
0.0
 11
275.8626791335167
 21
116.3417453549707
 31
0.0
  0
LINE
  5
3A8
330
77
100
AcDbEntity
  8
Spigoli visibili(ISO)
100
AcDbLine
 10
275.8626791335167
 20
117.3693112492556
 30
0.0
 11
275.8667118568279
 21
117.3666821341226
 31
0.0
  0
LINE
  5
3A9
330
77
100
AcDbEntity
  8
Spigoli visibili(ISO)
100
AcDbLine
 10
275.8626791335167
 20
117.3949073665096
 30
0.0
 11
275.8671112545325
 21
117.393937909852
 31
0.0
  0
LINE
  5
3AA
330
77
100
AcDbEntity
  8
Spigoli visibili(ISO)
100
AcDbLine
 10
275.8626791335167
 20
117.4700987906453
 30
0.0
 11
275.8682451739571
 21
117.4713190594717
 31
0.0
  0
LINE
  5
3AB
330
77
100
AcDbEntity
  8
Spigoli visibili(ISO)
100
AcDbLine
 10
275.8626791335167
 20
117.5187913619211
 30
0.0
 11
275.8689609532799
 21
117.5201654110432
 31
0.0
  0
LINE
  5
3AC
330
77
100
AcDbEntity
  8
Spigoli visibili(ISO)
100
AcDbLine
 10
275.8626791335167
 20
117.593422006121
 30
0.0
 11
275.8701055425547
 21
117.5982746946518
 31
0.0
  0
LINE
  5
3AD
330
77
100
AcDbEntity
  8
Spigoli visibili(ISO)
100
AcDbLine
 10
275.8626791335167
 20
117.7385519744352
 30
0.0
 11
275.8722525814375
 21
117.7447933391066
 31
0.0
  0
LINE
  5
3AE
330
77
100
AcDbEntity
  8
Spigoli visibili(ISO)
100
AcDbLine
 10
275.8626791335167
 20
117.8111692381011
 30
0.0
 11
275.8733940092434
 21
117.8226868771438
 31
0.0
  0
LINE
  5
3AF
330
77
100
AcDbEntity
  8
Spigoli visibili(ISO)
100
AcDbLine
 10
275.8626791335167
 20
118.4468106146212
 30
0.0
 11
275.8642965003694
 21
118.4491915636496
 31
0.0
  0
LINE
  5
3B0
330
77
100
AcDbEntity
  8
Spigoli visibili(ISO)
100
AcDbLine
 10
275.8636566321345
 20
114.0949640450664
 30
0.0
 11
275.8626791335167
 21
113.9973576410375
 31
0.0
  0
LINE
  5
3B1
330
77
100
AcDbEntity
  8
Spigoli visibili(ISO)
100
AcDbLine
 10
275.8626791335167
 20
118.5112275785372
 30
0.0
 11
275.8655257854651
 21
118.5164862700714
 31
0.0
  0
LINE
  5
3B2
330
77
100
AcDbEntity
  8
Spigoli visibili(ISO)
100
AcDbLine
 10
275.8626791335167
 20
118.921523193494
 30
0.0
 11
275.8732816409627
 21
118.9410647674417
 31
0.0
  0
LINE
  5
3B3
330
77
100
AcDbEntity
  8
Spigoli visibili(ISO)
100
AcDbLine
 10
275.8663831250771
 20
115.2255263067779
 30
0.0
 11
275.8626791335167
 21
114.8883927144305
 31
0.0
  0
LINE
  5
3B4
330
77
100
AcDbEntity
  8
Spigoli visibili(ISO)
100
AcDbLine
 10
275.8626791335167
 20
118.9799128477011
 30
0.0
 11
275.8744611671747
 21
119.0056355252202
 31
0.0
  0
LINE
  5
3B5
330
77
100
AcDbEntity
  8
Spigoli visibili(ISO)
100
AcDbLine
 10
275.8697687539784
 20
116.4966009813402
 30
0.0
 11
275.8626791335167
 21
115.9265021225655
 31
0.0
  0
LINE
  5
3B6
330
77
100
AcDbEntity
  8
Spigoli visibili(ISO)
100
AcDbLine
 10
275.8626791335167
 20
120.0660960079845
 30
0.0
 11
275.8721410041088
 21
120.0894758416529
 31
0.0
  0
LINE
  5
3B7
330
77
100
AcDbEntity
  8
Spigoli visibili(ISO)
100
AcDbLine
 10
275.8742843846128
 20
117.8834480460388
 30
0.0
 11
275.8626791335167
 21
117.0914802466449
 31
0.0
  0
LINE
  5
3B8
330
77
100
AcDbEntity
  8
Spigoli visibili(ISO)
100
AcDbLine
 10
275.8626791335167
 20
120.1091610133458
 30
0.0
 11
275.8733541053528
 21
120.1382160889865
 31
0.0
  0
LINE
  5
3B9
330
77
100
AcDbEntity
  8
Spigoli visibili(ISO)
100
AcDbLine
 10
275.8626791335167
 20
120.7136784357005
 30
0.0
 11
275.8894888773454
 21
120.7864824900048
 31
0.0
  0
LINE
  5
3BA
330
77
100
AcDbEntity
  8
Spigoli visibili(ISO)
100
AcDbLine
 10
275.8809174962926
 20
119.3590741002747
 30
0.0
 11
275.8626791335167
 21
118.3606521126268
 31
0.0
  0
LINE
  5
3BB
330
77
100
AcDbEntity
  8
Spigoli visibili(ISO)
100
AcDbLine
 10
275.8626791335167
 20
120.7477443787832
 30
0.0
 11
275.8905458070705
 21
120.8289480438673
 31
0.0
  0
LINE
  5
3BC
330
77
100
AcDbEntity
  8
Spigoli visibili(ISO)
100
AcDbLine
 10
275.8626791335167
 20
121.3949526377583
 30
0.0
 11
275.8756208159928
 21
121.4325787086716
 31
0.0
  0
LINE
  5
3BD
330
77
100
AcDbEntity
  8
Spigoli visibili(ISO)
100
AcDbLine
 10
275.8921837521894
 20
120.8947577614019
 30
0.0
 11
275.8626791335167
 21
119.7093147338015
 31
0.0
  0
LINE
  5
3BE
330
77
100
AcDbEntity
  8
Spigoli visibili(ISO)
100
AcDbLine
 10
275.8626791335167
 20
121.4193564637296
 30
0.0
 11
275.8768256403556
 21
121.462496248416
 31
0.0
  0
LINE
  5
3BF
330
77
100
AcDbEntity
  8
Spigoli visibili(ISO)
100
AcDbLine
 10
275.8626791335167
 20
122.0966583867527
 30
0.0
 11
275.9079058266312
 21
122.2342624384306
 31
0.0
  0
LINE
  5
3C0
330
77
100
AcDbEntity
  8
Spigoli visibili(ISO)
100
AcDbLine
 10
275.9079058266312
 20
122.2342624384306
 30
0.0
 11
275.8626791335167
 21
121.1112179263285
 31
0.0
  0
LINE
  5
3C1
330
77
100
AcDbEntity
  8
Spigoli visibili(ISO)
100
AcDbLine
 10
275.8626791335167
 20
122.110925102899
 30
0.0
 11
275.9745549617414
 21
122.4606086937707
 31
0.0
  0
LINE
  5
3C2
330
77
100
AcDbEntity
  8
Spigoli visibili(ISO)
100
AcDbLine
 10
275.8626791335167
 20
122.8051377784581
 30
0.0
 11
275.9079058266312
 21
122.9461775033369
 31
0.0
  0
LINE
  5
3C3
330
77
100
AcDbEntity
  8
Spigoli visibili(ISO)
100
AcDbLine
 10
275.9079058266312
 20
122.9461775033369
 30
0.0
 11
275.8626791335167
 21
122.5390752392068
 31
0.0
  0
LINE
  5
3C4
330
77
100
AcDbEntity
  8
Spigoli visibili(ISO)
100
AcDbLine
 10
276.3514592130068
 20
124.0261493901117
 30
0.0
 11
276.129905153024
 21
123.6483312876635
 31
0.0
  0
LINE
  5
3C5
330
77
100
AcDbEntity
  8
Spigoli visibili(ISO)
100
AcDbLine
 10
275.8626791335167
 20
122.8089896993778
 30
0.0
 11
276.129905153024
 21
123.6483312876635
 31
0.0
  0
LINE
  5
3C6
330
77
100
AcDbEntity
  8
Spigoli visibili(ISO)
100
AcDbLine
 10
276.129905153024
 20
123.6483312876635
 30
0.0
 11
275.9079058266312
 21
123.6483312876635
 31
0.0
  0
LINE
  5
3C7
330
77
100
AcDbEntity
  8
Spigoli visibili(ISO)
100
AcDbLine
 10
275.8626791335167
 20
123.5066010673982
 30
0.0
 11
275.9079058266312
 21
123.6483312876635
 31
0.0
  0
LINE
  5
3C8
330
77
100
AcDbEntity
  8
Spigoli visibili(ISO)
100
AcDbLine
 10
275.9079058266312
 20
123.6483312876635
 30
0.0
 11
275.8626791335167
 21
123.9650950540047
 31
0.0
  0
LINE
  5
3C9
330
77
100
AcDbEntity
  8
Spigoli visibili(ISO)
100
AcDbLine
 10
275.9510084004591
 20
124.3270571666866
 30
0.0
 11
275.9079058266312
 21
124.3270571666866
 31
0.0
  0
LINE
  5
3CA
330
77
100
AcDbEntity
  8
Spigoli visibili(ISO)
100
AcDbLine
 10
275.8626791335167
 20
124.1873950685565
 30
0.0
 11
275.9079058266312
 21
124.3270571666866
 31
0.0
  0
LINE
  5
3CB
330
77
100
AcDbEntity
  8
Spigoli visibili(ISO)
100
AcDbLine
 10
275.9079058266312
 20
124.3270571666866
 30
0.0
 11
275.8626791335168
 21
125.3615215171007
 31
0.0
  0
LINE
  5
3CC
330
77
100
AcDbEntity
  8
Spigoli visibili(ISO)
100
AcDbLine
 10
275.8626791335167
 20
124.8342689010922
 30
0.0
 11
275.8830717421867
 21
124.8950839947378
 31
0.0
  0
LINE
  5
3CD
330
77
100
AcDbEntity
  8
Spigoli visibili(ISO)
100
AcDbLine
 10
275.8896494202726
 20
125.6683034859711
 30
0.0
 11
275.8626791335168
 21
126.7011747758022
 31
0.0
  0
LINE
  5
3CE
330
77
100
AcDbEntity
  8
Spigoli visibili(ISO)
100
AcDbLine
 10
275.8787634249614
 20
127.1059146255278
 30
0.0
 11
275.8626791335168
 21
127.9579800032616
 31
0.0
  0
LINE
  5
3CF
330
77
100
AcDbEntity
  8
Spigoli visibili(ISO)
100
AcDbLine
 10
275.8626791335168
 20
125.9767986873657
 30
0.0
 11
275.8803916699522
 21
126.0228441922288
 31
0.0
  0
LINE
  5
3D0
330
77
100
AcDbEntity
  8
Spigoli visibili(ISO)
100
AcDbLine
 10
275.8722724360272
 20
128.4683473318464
 30
0.0
 11
275.8626791335168
 21
129.1074749153211
 31
0.0
  0
LINE
  5
3D1
330
77
100
AcDbEntity
  8
Spigoli visibili(ISO)
100
AcDbLine
 10
275.8626791335168
 20
126.450216598422
 30
0.0
 11
275.8688562759866
 21
126.4646109910711
 31
0.0
  0
LINE
  5
3D2
330
77
100
AcDbEntity
  8
Spigoli visibili(ISO)
100
AcDbLine
 10
275.8678183763693
 20
129.7214254540254
 30
0.0
 11
275.8626791335168
 21
130.1272859010485
 31
0.0
  0
LINE
  5
3D3
330
77
100
AcDbEntity
  8
Spigoli visibili(ISO)
100
AcDbLine
 10
275.8644600363596
 20
130.837662940471
 30
0.0
 11
275.8626791335168
 21
130.9975634996245
 31
0.0
  0
LINE
  5
3D4
330
77
100
AcDbEntity
  8
Spigoli visibili(ISO)
100
AcDbLine
 10
275.8626791335168
 20
127.1554651012665
 30
0.0
 11
275.8773673461105
 21
127.1798719059968
 31
0.0
  0
LINE
  5
3D5
330
77
100
AcDbEntity
  8
Spigoli visibili(ISO)
100
AcDbLine
 10
275.8626791335168
 20
127.3735688331551
 30
0.0
 11
275.8734516102367
 21
127.3873080232718
 31
0.0
  0
LINE
  5
3D6
330
77
100
AcDbEntity
  8
Spigoli visibili(ISO)
100
AcDbLine
 10
275.8626791335168
 20
127.4957371483121
 30
0.0
 11
275.8712647342729
 21
127.5031577826784
 31
0.0
  0
LINE
  5
3D7
330
77
100
AcDbEntity
  8
Spigoli visibili(ISO)
100
AcDbLine
 10
275.8626791335168
 20
127.5195921794473
 30
0.0
 11
275.8708868903036
 21
127.5231740678585
 31
0.0
  0
LINE
  5
3D8
330
77
100
AcDbEntity
  8
Spigoli visibili(ISO)
100
AcDbLine
 10
280.6358280955226
 20
119.4446696155145
 30
0.0
 11
280.6927236537027
 21
119.4446696155145
 31
0.0
  0
ELLIPSE
  5
3D9
330
77
100
AcDbEntity
  8
Spigoli visibili(ISO)
100
AcDbEllipse
 10
254.3001791335169
 20
120.9446696155145
 30
0.0
 11
26.39254452018589
 21
-0.00000000000029
 31
0.0
210
0.0
220
0.0
230
1.0
 40
0.8660254037844389
 41
6.217511590134284
 42
6.348859024224905
  0
LINE
  5
3DA
330
77
100
AcDbEntity
  8
Spigoli visibili(ISO)
100
AcDbLine
 10
280.6927236537028
 20
125.4446696155145
 30
0.0
 11
280.6358280955226
 21
125.4446696155145
 31
0.0
  0
ELLIPSE
  5
3DB
330
77
100
AcDbEntity
  8
Spigoli visibili(ISO)
100
AcDbEllipse
 10
254.300179133517
 20
123.9446696155145
 30
0.0
 11
26.39254452018578
 21
-0.0000000000001957
 31
0.0
210
0.0
220
0.0
230
1.0
 40
0.8660254037844389
 41
6.217511590134281
 42
6.348859024224903
  0
LINE
  5
3DC
330
77
100
AcDbEntity
  8
Spigoli visibili(ISO)
100
AcDbLine
 10
268.8626791335166
 20
140.9446696155145
 30
0.0
 11
268.8626791335166
 21
103.9446696155145
 31
0.0
  0
LINE
  5
3DD
330
77
100
AcDbEntity
  8
Spigoli visibili(ISO)
100
AcDbLine
 10
267.3626791335166
 20
102.4446696155145
 30
0.0
 11
267.3626791335166
 21
142.4446696155145
 31
0.0
  0
LINE
  5
3DE
330
77
100
AcDbEntity
  8
Spigoli visibili(ISO)
100
AcDbLine
 10
47.36267913351675
 20
142.4446696155145
 30
0.0
 11
47.36267913351674
 21
102.4446696155145
 31
0.0
  0
LINE
  5
3DF
330
77
100
AcDbEntity
  8
Spigoli visibili(ISO)
100
AcDbLine
 10
45.86267913351673
 20
103.9446696155145
 30
0.0
 11
45.86267913351675
 21
140.9446696155145
 31
0.0
  0
LINE
  5
3E0
330
77
100
AcDbEntity
  8
Spigoli visibili(ISO)
100
AcDbLine
 10
268.8626791335166
 20
103.9446696155145
 30
0.0
 11
267.3626791335166
 21
102.4446696155145
 31
0.0
  0
LINE
  5
3E1
330
77
100
AcDbEntity
  8
Spigoli visibili(ISO)
100
AcDbLine
 10
268.8626791335166
 20
140.9446696155145
 30
0.0
 11
267.3626791335166
 21
142.4446696155145
 31
0.0
  0
LINE
  5
3E2
330
77
100
AcDbEntity
  8
Spigoli visibili(ISO)
100
AcDbLine
 10
45.86267913351675
 20
140.9446696155145
 30
0.0
 11
47.36267913351674
 21
142.4446696155145
 31
0.0
  0
LINE
  5
3E3
330
77
100
AcDbEntity
  8
Spigoli visibili(ISO)
100
AcDbLine
 10
45.86267913351675
 20
103.9446696155145
 30
0.0
 11
47.36267913351674
 21
102.4446696155145
 31
0.0
  0
LINE
  5
3E4
330
77
100
AcDbEntity
  8
Spigoli visibili(ISO)
100
AcDbLine
 10
267.3626791335166
 20
102.4446696155145
 30
0.0
 11
47.36267913351674
 21
102.4446696155145
 31
0.0
  0
LINE
  5
3E5
330
77
100
AcDbEntity
  8
Spigoli visibili(ISO)
100
AcDbLine
 10
267.3626791335166
 20
142.4446696155145
 30
0.0
 11
47.36267913351674
 21
142.4446696155145
 31
0.0
  0
LINE
  5
49A
330
77
100
AcDbEntity
  8
Spigoli visibili(ISO)
100
AcDbLine
 10
338.9902766469675
 20
91.4446696155146
 30
0.0
 11
338.990276646966
 21
96.4446696155146
 31
0.0
  0
LINE
  5
49B
330
77
100
AcDbEntity
  8
Spigoli visibili(ISO)
100
AcDbLine
 10
338.9902766469675
 20
91.44466961551458
 30
0.0
 11
373.9902766469675
 21
91.44466961551458
 31
0.0
  0
LINE
  5
49C
330
77
100
AcDbEntity
  8
Spigoli visibili(ISO)
100
AcDbLine
 10
373.990276646966
 20
96.44466961551458
 30
0.0
 11
373.9902766469675
 21
91.44466961551458
 31
0.0
  0
LINE
  5
49D
330
77
100
AcDbEntity
  8
Spigoli visibili(ISO)
100
AcDbLine
 10
338.990276646966
 20
128.4446696155146
 30
0.0
 11
338.990276646966
 21
96.44466961551458
 31
0.0
  0
LINE
  5
49E
330
77
100
AcDbEntity
  8
Spigoli visibili(ISO)
100
AcDbLine
 10
373.990276646966
 20
96.44466961551458
 30
0.0
 11
373.990276646966
 21
128.4446696155146
 31
0.0
  0
LINE
  5
49F
330
77
100
AcDbEntity
  8
Spigoli visibili(ISO)
100
AcDbLine
 10
365.9902766469661
 20
136.4446696155146
 30
0.0
 11
346.9902766469661
 21
136.4446696155146
 31
0.0
  0
LINE
  5
4A0
330
77
100
AcDbEntity
  8
Spigoli visibili(ISO)
100
AcDbLine
 10
338.990276646966
 20
128.4446696155146
 30
0.0
 11
346.9902766469661
 21
136.4446696155146
 31
0.0
  0
LINE
  5
4A1
330
77
100
AcDbEntity
  8
Spigoli visibili(ISO)
100
AcDbLine
 10
365.9902766469661
 20
136.4446696155146
 30
0.0
 11
373.990276646966
 21
128.4446696155146
 31
0.0
  0
CIRCLE
  5
4A2
330
77
100
AcDbEntity
  8
Spigoli visibili(ISO)
100
AcDbCircle
 10
356.4902766469653
 20
122.4446696155145
 30
0.0
 40
11.25
  0
LINE
  5
4A3
330
77
100
AcDbEntity
  8
Spigoli visibili(ISO)
100
AcDbLine
 10
353.026175031827
 20
122.4446696155145
 30
0.0
 11
354.7582258393958
 21
119.4446696155145
 31
0.0
  0
LINE
  5
4A4
330
77
100
AcDbEntity
  8
Spigoli visibili(ISO)
100
AcDbLine
 10
354.7582258393958
 20
125.4446696155145
 30
0.0
 11
353.026175031827
 21
122.4446696155145
 31
0.0
  0
LINE
  5
4A5
330
77
100
AcDbEntity
  8
Spigoli visibili(ISO)
100
AcDbLine
 10
358.2223274545336
 20
125.4446696155145
 30
0.0
 11
354.7582258393958
 21
125.4446696155145
 31
0.0
  0
LINE
  5
4A6
330
77
100
AcDbEntity
  8
Spigoli visibili(ISO)
100
AcDbLine
 10
359.9543782621024
 20
122.4446696155146
 30
0.0
 11
358.2223274545336
 21
125.4446696155145
 31
0.0
  0
LINE
  5
4A7
330
77
100
AcDbEntity
  8
Spigoli visibili(ISO)
100
AcDbLine
 10
354.7582258393958
 20
119.4446696155145
 30
0.0
 11
358.2223274545336
 21
119.4446696155145
 31
0.0
  0
LINE
  5
4A8
330
77
100
AcDbEntity
  8
Spigoli visibili(ISO)
100
AcDbLine
 10
358.2223274545336
 20
119.4446696155145
 30
0.0
 11
359.9543782621024
 21
122.4446696155145
 31
0.0
  0
ARC
  5
4A9
330
77
100
AcDbEntity
  8
Spigoli visibili(ISO)
100
AcDbCircle
 10
356.4902766469683
 20
122.4446696155145
 30
0.0
 40
19.99999999999997
100
AcDbArc
 50
331.0449756281399
 51
208.9550243718597
  0
ARC
  5
4AA
330
77
100
AcDbEntity
  8
Spigoli visibili(ISO)
100
AcDbCircle
 10
356.4902766469679
 20
122.4446696155145
 30
0.0
 40
18.49999999999997
100
AcDbArc
 50
341.0753555839486
 51
198.924644416051
  0
DIMENSION
  5
4AB
330
77
100
AcDbEntity
  8
Quote(ISO)
  6
Continuous
 62
    96
370
    25
100
AcDbDimension
  2
*D11
 10
275.8626791335167
 20
81.44466961551458
 30
0.0
 11
157.8626791335168
 21
81.44466961551458
 31
0.0
 70
   160
  1
<>
 42
235.9999999999999
  3
MAURO
100
AcDbAlignedDimension
 13
39.86267913351681
 23
96.44466961551458
 33
0.0
 14
275.8626791335167
 24
96.44466961551453
 34
0.0
 50
180.0
100
AcDbRotatedDimension
1001
ACAD
1000
DSTYLE
1002
{
1070
   172
1070
     0
1070
   289
1070
     1
1070
    74
1070
     0
1070
   271
1070
     3
1070
   272
1070
     3
1070
    48
1040
0.0
1070
    47
1040
0.0
1002
}
  0
DIMENSION
  5
582
330
77
100
AcDbEntity
  8
Quote(ISO)
  6
Continuous
 62
    96
370
    25
100
AcDbDimension
  2
*D12
 10
35.08953017151096
 20
165.4446696155146
 30
0.0
 11
157.8626791335167
 21
165.4446696155146
 31
0.0
 70
   160
  1
<>
 42
245.5462979240117
  3
MAURO
100
AcDbAlignedDimension
 13
280.6358280955226
 23
125.4446696155145
 33
0.0
 14
35.08953017151096
 24
125.4446696155145
 34
0.0
 50
180.0
100
AcDbRotatedDimension
1001
ACAD
1000
DSTYLE
1002
{
1070
   172
1070
     0
1070
   289
1070
     1
1070
    74
1070
     0
1070
   271
1070
     1
1070
   272
1070
     3
1070
    48
1040
0.0
1070
    47
1040
0.0
1002
}
  0
DIMENSION
  5
658
330
77
100
AcDbEntity
  8
Quote(ISO)
  6
Continuous
 62
    96
370
    25
100
AcDbDimension
  2
*D13
 10
373.9902766469675
 20
81.44466961551458
 30
0.0
 11
356.4902766469675
 21
81.44466961551458
 31
0.0
 70
   160
  1
<>
 42
35.0
  3
MAURO
100
AcDbAlignedDimension
 13
338.9902766469675
 23
91.44466961551458
 33
0.0
 14
373.9902766469675
 24
91.44466961551458
 34
0.0
 50
180.0
100
AcDbRotatedDimension
1001
ACAD
1000
DSTYLE
1002
{
1070
   172
1070
     0
1070
   289
1070
     1
1070
    74
1070
     0
1070
   271
1070
     3
1070
   272
1070
     3
1070
    48
1040
0.0
1070
    47
1040
0.0
1002
}
  0
CIRCLE
  5
73A
330
77
100
AcDbEntity
  8
Spigoli visibili(ISO)
100
AcDbCircle
 10
77.86267913351678
 20
238.7707422188561
 30
0.0
 40
4.5
  0
CIRCLE
  5
73B
330
77
100
AcDbEntity
  8
Spigoli visibili(ISO)
100
AcDbCircle
 10
237.8626791335168
 20
238.7707422188561
 30
0.0
 40
4.5
  0
LINE
  5
73C
330
77
100
AcDbEntity
  8
Spigoli visibili(ISO)
100
AcDbLine
 10
44.86267913351681
 20
221.2707422188561
 30
0.0
 11
39.86267913351681
 21
221.2707422188576
 31
0.0
  0
LINE
  5
73D
330
77
100
AcDbEntity
  8
Spigoli visibili(ISO)
100
AcDbLine
 10
39.86267913351682
 20
256.2707422188576
 30
0.0
 11
44.86267913351681
 21
256.2707422188561
 31
0.0
  0
LINE
  5
73E
330
77
100
AcDbEntity
  8
Spigoli visibili(ISO)
100
AcDbLine
 10
39.86267913351681
 20
256.2707422188576
 30
0.0
 11
39.86267913351681
 21
221.2707422188576
 31
0.0
  0
LINE
  5
73F
330
77
100
AcDbEntity
  8
Spigoli visibili(ISO)
100
AcDbLine
 10
275.8626791335167
 20
221.2707422188576
 30
0.0
 11
270.8626791335167
 21
221.2707422188561
 31
0.0
  0
LINE
  5
740
330
77
100
AcDbEntity
  8
Spigoli visibili(ISO)
100
AcDbLine
 10
275.8626791335167
 20
221.2707422188576
 30
0.0
 11
275.8626791335167
 21
256.2707422188576
 31
0.0
  0
LINE
  5
741
330
77
100
AcDbEntity
  8
Spigoli visibili(ISO)
100
AcDbLine
 10
270.8626791335167
 20
256.2707422188561
 30
0.0
 11
275.8626791335167
 21
256.2707422188576
 31
0.0
  0
LINE
  5
742
330
77
100
AcDbEntity
  8
Spigoli visibili(ISO)
100
AcDbLine
 10
44.86267913351681
 20
221.2707422188561
 30
0.0
 11
270.8626791335167
 21
221.2707422188561
 31
0.0
  0
LINE
  5
743
330
77
100
AcDbEntity
  8
Spigoli visibili(ISO)
100
AcDbLine
 10
270.8626791335167
 20
256.2707422188561
 30
0.0
 11
44.86267913351682
 21
256.2707422188561
 31
0.0
  0
LINE
  5
744
330
77
100
AcDbEntity
  8
Spigoli visibili(ISO)
100
AcDbLine
 10
39.81745244040233
 20
237.0551070644471
 30
0.0
 11
39.8626791335168
 21
236.1987212826337
 31
0.0
  0
LINE
  5
745
330
77
100
AcDbEntity
  8
Spigoli visibili(ISO)
100
AcDbLine
 10
39.70317327119296
 20
237.0551070644471
 30
0.0
 11
39.81745244040233
 21
237.0551070644471
 31
0.0
  0
LINE
  5
746
330
77
100
AcDbEntity
  8
Spigoli visibili(ISO)
100
AcDbLine
 10
39.8626791335168
 20
236.0336580054667
 30
0.0
 11
39.37389905402682
 21
236.0336580054667
 31
0.0
  0
LINE
  5
747
330
77
100
AcDbEntity
  8
Spigoli visibili(ISO)
100
AcDbLine
 10
39.81745244040233
 20
237.7409507090635
 30
0.0
 11
39.86267913351681
 21
237.8827673201766
 31
0.0
  0
LINE
  5
748
330
77
100
AcDbEntity
  8
Spigoli visibili(ISO)
100
AcDbLine
 10
39.8626791335168
 20
237.6051258588609
 30
0.0
 11
39.81745244040233
 21
237.7409507090635
 31
0.0
  0
ELLIPSE
  5
749
330
77
100
AcDbEntity
  8
Spigoli visibili(ISO)
100
AcDbEllipse
 10
40.06051153633912
 20
238.7707422188653
 30
0.0
 11
3.588639473294243
 21
11.24986259246001
 31
0.0
210
0.0
220
0.0
230
0.9999999999999998
 40
0.0154940654198075
 41
4.471568552443748
 42
4.608765123393427
  0
LINE
  5
74A
330
77
100
AcDbEntity
  8
Spigoli visibili(ISO)
100
AcDbLine
 10
39.86267913351681
 20
237.1955435260495
 30
0.0
 11
39.81745244040233
 21
237.0551070644471
 31
0.0
  0
LINE
  5
74B
330
77
100
AcDbEntity
  8
Spigoli visibili(ISO)
100
AcDbLine
 10
39.8626791335168
 20
239.1474317941038
 30
0.0
 11
39.37389905402682
 21
239.1474317941038
 31
0.0
  0
ELLIPSE
  5
74C
330
77
100
AcDbEntity
  8
Spigoli visibili(ISO)
100
AcDbEllipse
 10
40.06051153633912
 20
238.7707422188653
 30
0.0
 11
-3.517342376164801
 21
-11.24766570212677
 31
0.0
210
0.0
220
0.0
230
0.9999999999999996
 40
0.0651526706496127
 41
4.562074196333539
 42
4.699270767283225
  0
LINE
  5
74D
330
77
100
AcDbEntity
  8
Spigoli visibili(ISO)
100
AcDbLine
 10
39.8626791335168
 20
240.7085853290579
 30
0.0
 11
39.37389905402682
 21
240.7085853290579
 31
0.0
  0
ELLIPSE
  5
74E
330
77
100
AcDbEntity
  8
Spigoli visibili(ISO)
100
AcDbEllipse
 10
40.06051153633912
 20
238.7707422188653
 30
0.0
 11
-3.394548405810431
 21
-11.24438557218576
 31
0.0
210
0.0
220
0.0
230
1.0
 40
0.1046906298553219
 41
4.433670650841893
 42
4.570867221791578
  0
LINE
  5
74F
330
77
100
AcDbEntity
  8
Spigoli visibili(ISO)
100
AcDbLine
 10
39.8626791335168
 20
242.2320209521361
 30
0.0
 11
39.37389905402682
 21
242.2320209521361
 31
0.0
  0
ELLIPSE
  5
750
330
77
100
AcDbEntity
  8
Spigoli visibili(ISO)
100
AcDbEllipse
 10
40.06051153633912
 20
238.7707422188653
 30
0.0
 11
3.212745179026068
 21
11.24060350282424
 31
0.0
210
0.0
220
0.0
230
1.0
 40
0.1430893358292401
 41
1.161731751836868
 42
1.298928322786121
  0
LINE
  5
751
330
77
100
AcDbEntity
  8
Spigoli visibili(ISO)
100
AcDbLine
 10
39.8626791335168
 20
243.6880867218173
 30
0.0
 11
39.37389905402682
 21
243.6880867218173
 31
0.0
  0
ELLIPSE
  5
752
330
77
100
AcDbEntity
  8
Spigoli visibili(ISO)
100
AcDbEllipse
 10
40.06051153633912
 20
238.7707422188653
 30
0.0
 11
2.971076141991885
 21
11.23731248285303
 31
0.0
210
0.0
220
0.0
230
1.0
 40
0.1797808032923628
 41
1.028728143924013
 42
1.165924714873345
  0
LINE
  5
753
330
77
100
AcDbEntity
  8
Spigoli visibili(ISO)
100
AcDbLine
 10
39.8626791335168
 20
245.0484419741449
 30
0.0
 11
39.37389905402682
 21
245.0484419741449
 31
0.0
  0
ELLIPSE
  5
754
330
77
100
AcDbEntity
  8
Spigoli visibili(ISO)
100
AcDbEllipse
 10
40.06051153633912
 20
238.7707422188653
 30
0.0
 11
2.668979838446552
 21
11.23548128744474
 31
0.0
210
0.0
220
0.0
230
1.0
 40
0.2140769232157076
 41
0.8924146542106425
 42
1.029611225160039
  0
LINE
  5
755
330
77
100
AcDbEntity
  8
Spigoli visibili(ISO)
100
AcDbLine
 10
39.8626791335168
 20
246.2866089415137
 30
0.0
 11
39.37389905402682
 21
246.2866089415137
 31
0.0
  0
ELLIPSE
  5
756
330
77
100
AcDbEntity
  8
Spigoli visibili(ISO)
100
AcDbEllipse
 10
40.06051153633912
 20
238.7707422188653
 30
0.0
 11
2.306827385522732
 21
11.23577667076014
 31
0.0
210
0.0
220
0.0
230
0.9999999999999998
 40
0.2451542798896567
 41
0.7522686826804695
 42
0.8894652536299236
  0
LINE
  5
757
330
77
100
AcDbEntity
  8
Spigoli visibili(ISO)
100
AcDbLine
 10
39.86267913351681
 20
247.3784881122979
 30
0.0
 11
39.37389905402682
 21
247.3784881122979
 31
0.0
  0
ELLIPSE
  5
758
330
77
100
AcDbEntity
  8
Spigoli visibili(ISO)
100
AcDbEllipse
 10
40.06051153633912
 20
238.7707422188653
 30
0.0
 11
1.886846555568682
 21
11.23828181923887
 31
0.0
210
0.0
220
0.0
230
1.0
 40
0.2720643581728126
 41
0.6079983379096206
 42
0.7451949088591237
  0
LINE
  5
759
330
77
100
AcDbEntity
  8
Spigoli visibili(ISO)
100
AcDbLine
 10
39.86267913351681
 20
248.3028273004322
 30
0.0
 11
39.37389905402682
 21
248.3028273004322
 31
0.0
  0
ELLIPSE
  5
75A
330
77
100
AcDbEntity
  8
Spigoli visibili(ISO)
100
AcDbEllipse
 10
40.06051153633912
 20
238.7707422188653
 30
0.0
 11
1.41425713460073
 21
11.24232499159529
 31
0.0
210
0.0
220
0.0
230
1.0
 40
0.2937840587762536
 41
0.4596661048258169
 42
0.5968626757753626
  0
LINE
  5
75B
330
77
100
AcDbEntity
  8
Spigoli visibili(ISO)
100
AcDbLine
 10
39.86267913351681
 20
249.0416352950399
 30
0.0
 11
39.37389905402682
 21
249.0416352950399
 31
0.0
  0
ELLIPSE
  5
75C
330
77
100
AcDbEntity
  8
Spigoli visibili(ISO)
100
AcDbEllipse
 10
40.06051153633912
 20
238.7707422188653
 30
0.0
 11
0.8983233330718247
 21
11.24656792658049
 31
0.0
210
0.0
220
0.0
230
1.0
 40
0.3093169636184091
 41
0.3078010263581952
 42
0.4449975973078822
  0
LINE
  5
75D
330
77
100
AcDbEntity
  8
Spigoli visibili(ISO)
100
AcDbLine
 10
39.86267913351681
 20
249.5805320388876
 30
0.0
 11
39.37389905402682
 21
249.5805320388876
 31
0.0
  0
ELLIPSE
  5
75E
330
77
100
AcDbEntity
  8
Spigoli visibili(ISO)
100
AcDbEllipse
 10
40.06051153633912
 20
238.7707422188653
 30
0.0
 11
0.3527887803457995
 21
11.24944118075136
 31
0.0
210
0.0
220
0.0
230
1.0
 40
0.3178387027154802
 41
0.1534401865702977
 42
0.290636757519982
  0
LINE
  5
75F
330
77
100
AcDbEntity
  8
Spigoli visibili(ISO)
100
AcDbLine
 10
39.86267913351681
 20
249.9090285198422
 30
0.0
 11
39.37389905402682
 21
249.9090285198422
 31
0.0
  0
ELLIPSE
  5
760
330
77
100
AcDbEntity
  8
Spigoli visibili(ISO)
100
AcDbEllipse
 10
40.06051153633912
 20
238.7707422188653
 30
0.0
 11
-0.2048624651989611
 21
11.24981036246647
 31
0.0
210
0.0
220
0.0
230
1.0
 40
0.3188520279189864
 41
6.281225556752648
 42
6.418422127702333
  0
LINE
  5
761
330
77
100
AcDbEntity
  8
Spigoli visibili(ISO)
100
AcDbLine
 10
39.86267913351681
 20
250.0207309275611
 30
0.0
 11
39.37389905402682
 21
250.0207309275611
 31
0.0
  0
ELLIPSE
  5
762
330
77
100
AcDbEntity
  8
Spigoli visibili(ISO)
100
AcDbEllipse
 10
40.06051153633912
 20
238.7707422188653
 30
0.0
 11
-0.7554422904012177
 21
11.24752600178256
 31
0.0
210
0.0
220
0.0
230
0.9999999999999998
 40
0.3122955378670664
 41
6.260796184030981
 42
6.263629798892734
  0
ELLIPSE
  5
763
330
77
100
AcDbEntity
  8
Spigoli visibili(ISO)
100
AcDbEllipse
 10
40.06051153633912
 20
238.7707422188653
 30
0.0
 11
-2.896629117186995
 21
11.23664763040324
 31
0.0
210
0.0
220
0.0
230
0.9999999999999998
 40
0.1891684206221875
 41
5.400547830272876
 42
5.40122848502169
  0
ELLIPSE
  5
764
330
77
100
AcDbEntity
  8
Spigoli visibili(ISO)
100
AcDbEllipse
 10
40.06051153633912
 20
238.7707422188653
 30
0.0
 11
-3.154340951460286
 21
11.23963777574454
 31
0.0
210
0.0
220
0.0
230
0.9999999999999998
 40
0.1530414562464221
 41
5.266723662350271
 42
5.268229928951602
  0
ELLIPSE
  5
765
330
77
100
AcDbEntity
  8
Spigoli visibili(ISO)
100
AcDbEllipse
 10
40.06051153633912
 20
238.7707422188653
 30
0.0
 11
0.4822278819263281
 21
11.24896460722521
 31
0.0
210
0.0
220
0.0
230
1.0
 40
0.3165056842250429
 41
3.155159991212428
 42
3.221126584652227
  0
LINE
  5
766
330
77
100
AcDbEntity
  8
Spigoli visibili(ISO)
100
AcDbLine
 10
39.86267913351681
 20
227.5470460633473
 30
0.0
 11
39.37389905402682
 21
227.5470460633473
 31
0.0
  0
ELLIPSE
  5
767
330
77
100
AcDbEntity
  8
Spigoli visibili(ISO)
100
AcDbEllipse
 10
40.06051153633912
 20
238.7707422188653
 30
0.0
 11
1.022289192548348
 21
11.24564188550595
 31
0.0
210
0.0
220
0.0
230
0.9999999999999998
 40
0.3062843052938113
 41
3.237824711638503
 42
3.375021282588189
  0
LINE
  5
768
330
77
100
AcDbEntity
  8
Spigoli visibili(ISO)
100
AcDbLine
 10
39.86267913351681
 20
227.763278834461
 30
0.0
 11
39.37389905402682
 21
227.763278834461
 31
0.0
  0
ELLIPSE
  5
769
330
77
100
AcDbEntity
  8
Spigoli visibili(ISO)
100
AcDbEllipse
 10
40.06051153633912
 20
238.7707422188653
 30
0.0
 11
1.529148513813111
 21
11.2413035173977
 31
0.0
210
0.0
220
0.0
230
1.0
 40
0.2892207596312617
 41
3.388937622096124
 42
3.52613419304581
  0
LINE
  5
76A
330
77
100
AcDbEntity
  8
Spigoli visibili(ISO)
100
AcDbLine
 10
39.86267913351681
 20
228.1937593595482
 30
0.0
 11
39.37389905402682
 21
228.1937593595482
 31
0.0
  0
ELLIPSE
  5
76B
330
77
100
AcDbEntity
  8
Spigoli visibili(ISO)
100
AcDbEllipse
 10
40.06051153633912
 20
238.7707422188653
 30
0.0
 11
1.990094358389846
 21
11.23752034942966
 31
0.0
210
0.0
220
0.0
230
1.0
 40
0.2661940407615999
 41
3.536348117044882
 42
3.673544687994568
  0
LINE
  5
76C
330
77
100
AcDbEntity
  8
Spigoli visibili(ISO)
100
AcDbLine
 10
39.86267913351681
 20
228.8301088248523
 30
0.0
 11
39.37389905402682
 21
228.8301088248523
 31
0.0
  0
ELLIPSE
  5
76D
330
77
100
AcDbEntity
  8
Spigoli visibili(ISO)
100
AcDbEllipse
 10
40.06051153633912
 20
238.7707422188653
 30
0.0
 11
2.396880905622582
 21
11.2355008843587
 31
0.0
210
0.0
220
0.0
230
1.0
 40
0.2382185541079634
 41
3.679643763459351
 42
3.81684033440904
  0
LINE
  5
76E
330
77
100
AcDbEntity
  8
Spigoli visibili(ISO)
100
AcDbLine
 10
39.86267913351681
 20
229.6599414118679
 30
0.0
 11
39.37389905402682
 21
229.6599414118679
 31
0.0
  0
ELLIPSE
  5
76F
330
77
100
AcDbEntity
  8
Spigoli visibili(ISO)
100
AcDbEllipse
 10
40.06051153633912
 20
238.7707422188653
 30
0.0
 11
2.745093128074053
 21
11.23573619660845
 31
0.0
210
0.0
220
0.0
230
1.0
 40
0.2063070860590001
 41
3.818856300016558
 42
3.956052870966245
  0
LINE
  5
770
330
77
100
AcDbEntity
  8
Spigoli visibili(ISO)
100
AcDbLine
 10
39.86267913351681
 20
230.6671053732095
 30
0.0
 11
39.37389905402682
 21
230.6671053732095
 31
0.0
  0
ELLIPSE
  5
771
330
77
100
AcDbEntity
  8
Spigoli visibili(ISO)
100
AcDbEllipse
 10
40.06051153633912
 20
238.7707422188653
 30
0.0
 11
3.033034586441502
 21
11.23798474536905
 31
0.0
210
0.0
220
0.0
230
1.0
 40
0.1713816799985292
 41
3.954342201220849
 42
4.091538772170537
  0
LINE
  5
772
330
77
100
AcDbEntity
  8
Spigoli visibili(ISO)
100
AcDbLine
 10
39.8626791335168
 20
231.8319974080015
 30
0.0
 11
39.37389905402682
 21
231.8319974080015
 31
0.0
  0
ELLIPSE
  5
773
330
77
100
AcDbEntity
  8
Spigoli visibili(ISO)
100
AcDbEllipse
 10
40.06051153633912
 20
238.7707422188653
 30
0.0
 11
3.260624686264648
 21
11.24148259102845
 31
0.0
210
0.0
220
0.0
230
1.0
 40
0.1342338295113237
 41
4.086662313154725
 42
4.223858884104411
  0
LINE
  5
774
330
77
100
AcDbEntity
  8
Spigoli visibili(ISO)
100
AcDbLine
 10
39.8626791335168
 20
233.1319442178316
 30
0.0
 11
39.37389905402682
 21
233.1319442178316
 31
0.0
  0
ELLIPSE
  5
775
330
77
100
AcDbEntity
  8
Spigoli visibili(ISO)
100
AcDbEllipse
 10
40.06051153633912
 20
238.7707422188653
 30
0.0
 11
3.428540883637201
 21
11.24523206147859
 31
0.0
210
0.0
220
0.0
230
1.0
 40
0.0955215211261529
 41
4.216488572011687
 42
4.353685142961372
  0
LINE
  5
776
330
77
100
AcDbEntity
  8
Spigoli visibili(ISO)
100
AcDbLine
 10
39.8626791335168
 20
234.5416438167143
 30
0.0
 11
39.37389905402682
 21
234.5416438167143
 31
0.0
  0
ELLIPSE
  5
777
330
77
100
AcDbEntity
  8
Spigoli visibili(ISO)
100
AcDbEllipse
 10
40.06051153633912
 20
238.7707422188653
 30
0.0
 11
3.537644767751193
 21
11.24826871896901
 31
0.0
210
0.0
220
0.0
230
1.0
 40
0.055788426709881
 41
4.344543716224366
 42
4.481740287174051
  0
LINE
  5
778
330
77
100
AcDbEntity
  8
Spigoli visibili(ISO)
100
AcDbLine
 10
39.86267913351681
 20
236.5389791827162
 30
0.0
 11
39.84717736519442
 21
236.4922535546195
 31
0.0
  0
LINE
  5
779
330
77
100
AcDbEntity
  8
Spigoli visibili(ISO)
100
AcDbLine
 10
39.83164853129377
 20
235.9129045971172
 30
0.0
 11
39.8626791335168
 21
234.8423781683
 31
0.0
  0
LINE
  5
77A
330
77
100
AcDbEntity
  8
Spigoli visibili(ISO)
100
AcDbLine
 10
39.86267913351681
 20
235.9258535682887
 30
0.0
 11
39.83368101435511
 21
235.8427858537673
 31
0.0
  0
LINE
  5
77B
330
77
100
AcDbEntity
  8
Spigoli visibili(ISO)
100
AcDbLine
 10
39.84443856070751
 20
234.4634202984558
 30
0.0
 11
39.8626791335168
 21
233.5624961917627
 31
0.0
  0
LINE
  5
77C
330
77
100
AcDbEntity
  8
Spigoli visibili(ISO)
100
AcDbLine
 10
39.86267913351681
 20
235.3681004754317
 30
0.0
 11
39.84853094043245
 21
235.3304774487452
 31
0.0
  0
LINE
  5
77D
330
77
100
AcDbEntity
  8
Spigoli visibili(ISO)
100
AcDbLine
 10
39.8517094998966
 20
233.0786063540091
 30
0.0
 11
39.86267913351681
 21
232.3839867998509
 31
0.0
  0
LINE
  5
77E
330
77
100
AcDbEntity
  8
Spigoli visibili(ISO)
100
AcDbLine
 10
39.86267913351681
 20
234.8765759336631
 30
0.0
 11
39.86175239312276
 21
234.8743498354109
 31
0.0
  0
LINE
  5
77F
330
77
100
AcDbEntity
  8
Spigoli visibili(ISO)
100
AcDbLine
 10
39.85655403640776
 20
231.7954204621588
 30
0.0
 11
39.86267913351681
 21
231.3297883373436
 31
0.0
  0
LINE
  5
780
330
77
100
AcDbEntity
  8
Spigoli visibili(ISO)
100
AcDbLine
 10
39.86267913351681
 20
234.4608469090875
 30
0.0
 11
39.84523183916045
 21
234.4242393095132
 31
0.0
  0
LINE
  5
781
330
77
100
AcDbEntity
  8
Spigoli visibili(ISO)
100
AcDbLine
 10
39.86013183162521
 20
230.6426437614096
 30
0.0
 11
39.86267913351681
 21
230.4204195781802
 31
0.0
  0
LINE
  5
782
330
77
100
AcDbEntity
  8
Spigoli visibili(ISO)
100
AcDbLine
 10
39.86267913351681
 20
234.1290050942834
 30
0.0
 11
39.85160253645143
 21
234.1095828112833
 31
0.0
  0
LINE
  5
783
330
77
100
AcDbEntity
  8
Spigoli visibili(ISO)
100
AcDbLine
 10
39.86267913351681
 20
233.8875094127116
 30
0.0
 11
39.85627692673729
 21
233.87870898201
 31
0.0
  0
LINE
  5
784
330
77
100
AcDbEntity
  8
Spigoli visibili(ISO)
100
AcDbLine
 10
39.86267913351681
 20
233.7410603031166
 30
0.0
 11
39.8591333946171
 21
233.7376245544625
 31
0.0
  0
LINE
  5
785
330
77
100
AcDbEntity
  8
Spigoli visibili(ISO)
100
AcDbLine
 10
39.86267913351681
 20
233.6925082308332
 30
0.0
 11
39.86007554575623
 21
233.6910905622332
 31
0.0
  0
LINE
  5
786
330
77
100
AcDbEntity
  8
Spigoli visibili(ISO)
100
AcDbLine
 10
39.86151133144865
 20
230.6456353672938
 30
0.0
 11
39.86267913351681
 21
230.5314000448635
 31
0.0
  0
LINE
  5
787
330
77
100
AcDbEntity
  8
Spigoli visibili(ISO)
100
AcDbLine
 10
39.85883741213513
 20
231.8010403471798
 30
0.0
 11
39.86267913351681
 21
231.4609476507806
 31
0.0
  0
LINE
  5
788
330
77
100
AcDbEntity
  8
Spigoli visibili(ISO)
100
AcDbLine
 10
39.85550437778197
 20
233.0888758785333
 30
0.0
 11
39.86267913351681
 21
232.5327720931969
 31
0.0
  0
LINE
  5
789
330
77
100
AcDbEntity
  8
Spigoli visibili(ISO)
100
AcDbLine
 10
39.86267913351681
 20
243.8370414209807
 30
0.0
 11
39.8545211275338
 21
243.8432300074758
 31
0.0
  0
LINE
  5
78A
330
77
100
AcDbEntity
  8
Spigoli visibili(ISO)
100
AcDbLine
 10
39.86267913351681
 20
243.8361703472866
 30
0.0
 11
39.85445999985778
 21
243.8388643180463
 31
0.0
  0
LINE
  5
78B
330
77
100
AcDbEntity
  8
Spigoli visibili(ISO)
100
AcDbLine
 10
39.86267913351681
 20
243.7610676026895
 30
0.0
 11
39.85335638516922
 21
243.7600450451245
 31
0.0
  0
LINE
  5
78C
330
77
100
AcDbEntity
  8
Spigoli visibili(ISO)
100
AcDbLine
 10
39.86267913351681
 20
243.7367064769118
 30
0.0
 11
39.85301479390063
 21
243.7356488716179
 31
0.0
  0
LINE
  5
78D
330
77
100
AcDbEntity
  8
Spigoli visibili(ISO)
100
AcDbLine
 10
39.86267913351681
 20
242.8754498757028
 30
0.0
 11
39.85731360498692
 21
242.8680744560028
 31
0.0
  0
LINE
  5
78E
330
77
100
AcDbEntity
  8
Spigoli visibili(ISO)
100
AcDbLine
 10
39.86231314828538
 20
247.3784881122984
 30
0.0
 11
39.86267913351681
 21
247.4157322453822
 31
0.0
  0
LINE
  5
78F
330
77
100
AcDbEntity
  8
Spigoli visibili(ISO)
100
AcDbLine
 10
39.86267913351681
 20
242.8097179290315
 30
0.0
 11
39.85611322923226
 21
242.7981785924918
 31
0.0
  0
LINE
  5
790
330
77
100
AcDbEntity
  8
Spigoli visibili(ISO)
100
AcDbLine
 10
39.86267913351681
 20
242.4193808198334
 30
0.0
 11
39.84920199974431
 21
242.3957493105698
 31
0.0
  0
LINE
  5
791
330
77
100
AcDbEntity
  8
Spigoli visibili(ISO)
100
AcDbLine
 10
39.85970607733074
 20
246.2866089415143
 30
0.0
 11
39.86267913351681
 21
246.5642952934958
 31
0.0
  0
LINE
  5
792
330
77
100
AcDbEntity
  8
Spigoli visibili(ISO)
100
AcDbLine
 10
39.86267913351681
 20
242.3593728126312
 30
0.0
 11
39.8480488901391
 21
242.3286056755318
 31
0.0
  0
LINE
  5
793
330
77
100
AcDbEntity
  8
Spigoli visibili(ISO)
100
AcDbLine
 10
39.85651806811505
 20
245.0484419741456
 30
0.0
 11
39.86267913351681
 21
245.561165696047
 31
0.0
  0
LINE
  5
794
330
77
100
AcDbEntity
  8
Spigoli visibili(ISO)
100
AcDbLine
 10
39.86267913351681
 20
241.8391790837299
 30
0.0
 11
39.86243520708351
 21
241.8385918141938
 31
0.0
  0
LINE
  5
795
330
77
100
AcDbEntity
  8
Spigoli visibili(ISO)
100
AcDbLine
 10
39.86267913351681
 20
241.3044520305282
 30
0.0
 11
39.84955087836479
 21
241.2729170008301
 31
0.0
  0
LINE
  5
796
330
77
100
AcDbEntity
  8
Spigoli visibili(ISO)
100
AcDbLine
 10
39.85234883638553
 20
243.688086721818
 30
0.0
 11
39.8626791335168
 21
244.425868229607
 31
0.0
  0
LINE
  5
797
330
77
100
AcDbEntity
  8
Spigoli visibili(ISO)
100
AcDbLine
 10
39.86267913351681
 20
241.2592617215493
 30
0.0
 11
39.84837126266125
 21
241.2211270389693
 31
0.0
  0
LINE
  5
798
330
77
100
AcDbEntity
  8
Spigoli visibili(ISO)
100
AcDbLine
 10
39.84639016593987
 20
242.232020952137
 30
0.0
 11
39.8626791335168
 21
243.1805001679785
 31
0.0
  0
LINE
  5
799
330
77
100
AcDbEntity
  8
Spigoli visibili(ISO)
100
AcDbLine
 10
39.86267913351681
 20
239.9932199990465
 30
0.0
 11
39.84469969647218
 21
239.9417162882247
 31
0.0
  0
LINE
  5
79A
330
77
100
AcDbEntity
  8
Spigoli visibili(ISO)
100
AcDbLine
 10
39.83669714227172
 20
240.7085853290592
 30
0.0
 11
39.8626791335168
 21
241.8493011838959
 31
0.0
  0
LINE
  5
79B
330
77
100
AcDbEntity
  8
Spigoli visibili(ISO)
100
AcDbLine
 10
39.86267913351681
 20
239.9663485801508
 30
0.0
 11
39.84354480710442
 21
239.9085417099691
 31
0.0
  0
LINE
  5
79C
330
77
100
AcDbEntity
  8
Spigoli visibili(ISO)
100
AcDbLine
 10
39.86267913351681
 20
239.295352740886
 30
0.0
 11
39.81745244040233
 21
239.1590298647753
 31
0.0
  0
LINE
  5
79D
330
77
100
AcDbEntity
  8
Spigoli visibili(ISO)
100
AcDbLine
 10
39.81745244040233
 20
239.1590298647753
 30
0.0
 11
39.8626791335168
 21
240.4581815513678
 31
0.0
  0
LINE
  5
79E
330
77
100
AcDbEntity
  8
Spigoli visibili(ISO)
100
AcDbLine
 10
39.86267913351681
 20
239.2785178845632
 30
0.0
 11
39.8205600226248
 21
239.1474317941057
 31
0.0
  0
LINE
  5
79F
330
77
100
AcDbEntity
  8
Spigoli visibili(ISO)
100
AcDbLine
 10
39.86267913351681
 20
238.5872745356501
 30
0.0
 11
39.81745244040233
 21
238.4468380740477
 31
0.0
  0
LINE
  5
7A0
330
77
100
AcDbEntity
  8
Spigoli visibili(ISO)
100
AcDbLine
 10
39.81745244040233
 20
238.4468380740477
 30
0.0
 11
39.8626791335168
 21
239.0342178316664
 31
0.0
  0
LINE
  5
7A1
330
77
100
AcDbEntity
  8
Spigoli visibili(ISO)
100
AcDbLine
 10
37.36267913351681
 20
250.0207422188653
 30
0.0
 11
37.36267913351681
 21
227.5207422188653
 31
0.0
  0
LINE
  5
7A2
330
77
100
AcDbEntity
  8
Spigoli visibili(ISO)
100
AcDbLine
 10
39.62663117730045
 20
227.5207422188653
 30
0.0
 11
37.36267913351681
 21
227.5207422188653
 31
0.0
  0
LINE
  5
7A3
330
77
100
AcDbEntity
  8
Spigoli visibili(ISO)
100
AcDbLine
 10
39.37889632922145
 20
250.0207422188653
 30
0.0
 11
37.36267913351681
 21
250.0207422188653
 31
0.0
  0
ARC
  5
7A4
330
77
100
AcDbEntity
  8
Spigoli visibili(ISO)
100
AcDbCircle
 10
61.42517913351681
 20
238.7707422188653
 30
0.0
 40
26.5625
100
AcDbArc
 50
187.4934723620918
 51
205.057615418303
  0
ARC
  5
7A5
330
77
100
AcDbEntity
  8
Spigoli visibili(ISO)
100
AcDbCircle
 10
61.42517913351681
 20
238.7707422188653
 30
0.0
 40
26.5625
100
AcDbArc
 50
154.942384581697
 51
172.5065276379083
  0
LINE
  5
7A6
330
77
100
AcDbEntity
  8
Spigoli visibili(ISO)
100
AcDbLine
 10
39.8626791335168
 20
237.5789464250457
 30
0.0
 11
39.37389905402682
 21
237.5789464250457
 31
0.0
  0
ELLIPSE
  5
7A7
330
77
100
AcDbEntity
  8
Spigoli visibili(ISO)
100
AcDbEllipse
 10
40.06051153633912
 20
238.7707422188653
 30
0.0
 11
-3.581888449917619
 21
-11.24964498431675
 31
0.0
210
0.0
220
0.0
230
1.0
 40
0.0249516658456814
 41
4.689273418548228
 42
4.826469989497919
  0
LINE
  5
7A8
330
77
100
AcDbEntity
  8
Spigoli visibili(ISO)
100
AcDbLine
 10
39.37389905402682
 20
237.5789464250457
 30
0.0
 11
39.59545311400957
 21
237.7409507090635
 31
0.0
  0
LINE
  5
7A9
330
77
100
AcDbEntity
  8
Spigoli visibili(ISO)
100
AcDbLine
 10
39.86267913351681
 20
238.5808039132291
 30
0.0
 11
39.59545311400957
 21
237.7409507090635
 31
0.0
  0
LINE
  5
7AA
330
77
100
AcDbEntity
  8
Spigoli visibili(ISO)
100
AcDbLine
 10
39.59545311400957
 20
237.7409507090635
 30
0.0
 11
39.81745244040233
 21
237.7409507090635
 31
0.0
  0
ELLIPSE
  5
7AB
330
77
100
AcDbEntity
  8
Spigoli visibili(ISO)
100
AcDbEllipse
 10
61.42517913351667
 20
236.1726660075115
 30
0.0
 11
-26.39254452018586
 21
0.0000000000000608
 31
0.0
210
0.0
220
0.0
230
1.0
 40
0.4999999999997422
 41
6.217511590134276
 42
6.348859024224897
  0
ARC
  5
7AC
330
77
100
AcDbEntity
  8
Spigoli visibili(ISO)
100
AcDbCircle
 10
61.42517913351668
 20
238.7707422188644
 30
0.0
 40
26.39254452018588
100
AcDbArc
 50
176.2371731883674
 51
183.7628268116327
  0
ELLIPSE
  5
7AD
330
77
100
AcDbEntity
  8
Spigoli visibili(ISO)
100
AcDbEllipse
 10
61.42517913351658
 20
241.3688184302182
 30
0.0
 11
-26.39254452018578
 21
-0.0000000000001131
 31
0.0
210
0.0
220
0.0
230
1.0
 40
0.5000000000002569
 41
6.217511590134273
 42
6.348859024224895
  0
LINE
  5
7AE
330
77
100
AcDbEntity
  8
Spigoli visibili(ISO)
100
AcDbLine
 10
278.3626791335167
 20
227.5207422188653
 30
0.0
 11
278.3626791335167
 21
250.0207422188653
 31
0.0
  0
LINE
  5
7AF
330
77
100
AcDbEntity
  8
Spigoli visibili(ISO)
100
AcDbLine
 10
276.3464619378122
 20
250.0207422188653
 30
0.0
 11
278.3626791335167
 21
250.0207422188653
 31
0.0
  0
LINE
  5
7B0
330
77
100
AcDbEntity
  8
Spigoli visibili(ISO)
100
AcDbLine
 10
276.0987270897331
 20
227.5207422188653
 30
0.0
 11
278.3626791335167
 21
227.5207422188653
 31
0.0
  0
ARC
  5
7B1
330
77
100
AcDbEntity
  8
Spigoli visibili(ISO)
100
AcDbCircle
 10
254.3001791335168
 20
238.7707422188653
 30
0.0
 40
26.5625
100
AcDbArc
 50
334.942384581697
 51
352.5065276379081
  0
ARC
  5
7B2
330
77
100
AcDbEntity
  8
Spigoli visibili(ISO)
100
AcDbCircle
 10
254.3001791335168
 20
238.7707422188653
 30
0.0
 40
26.5625
100
AcDbArc
 50
7.493472362091869
 51
25.05761541830303
  0
LINE
  5
7B3
330
77
100
AcDbEntity
  8
Spigoli visibili(ISO)
100
AcDbLine
 10
275.8626791335167
 20
250.0207309275611
 30
0.0
 11
276.3414632943819
 21
250.0207309275611
 31
0.0
  0
ELLIPSE
  5
7B4
330
77
100
AcDbEntity
  8
Spigoli visibili(ISO)
100
AcDbEllipse
 10
275.6648467306945
 20
238.7707422188653
 30
0.0
 11
0.7554422904035152
 21
11.24752600178254
 31
0.0
210
0.0
220
0.0
230
1.0
 40
0.3122955378670229
 41
0.0209723157176134
 42
0.156752079237188
  0
LINE
  5
7B5
330
77
100
AcDbEntity
  8
Spigoli visibili(ISO)
100
AcDbLine
 10
275.8626791335167
 20
249.9134651017369
 30
0.0
 11
276.3514592130068
 21
249.9134651017369
 31
0.0
  0
ELLIPSE
  5
7B6
330
77
100
AcDbEntity
  8
Spigoli visibili(ISO)
100
AcDbEllipse
 10
275.6648467306945
 20
238.7707422188653
 30
0.0
 11
1.280769674733608
 21
11.24349956888201
 31
0.0
210
0.0
220
0.0
230
0.9999999999999996
 40
0.2985578940282653
 41
0.1722057605555769
 42
0.3094023315052702
  0
LINE
  5
7B7
330
77
100
AcDbEntity
  8
Spigoli visibili(ISO)
100
AcDbLine
 10
275.8626791335167
 20
249.589318849657
 30
0.0
 11
276.3514592130068
 21
249.589318849657
 31
0.0
  0
ELLIPSE
  5
7B8
330
77
100
AcDbEntity
  8
Spigoli visibili(ISO)
100
AcDbEllipse
 10
275.6648467306945
 20
238.7707422188653
 30
0.0
 11
1.765977034728383
 21
11.23925256739378
 31
0.0
210
0.0
220
0.0
230
1.0
 40
0.278390765102569
 41
0.321550389698368
 42
0.4587469606480516
  0
LINE
  5
7B9
330
77
100
AcDbEntity
  8
Spigoli visibili(ISO)
100
AcDbLine
 10
275.8626791335167
 20
249.0546013094073
 30
0.0
 11
276.3514592130068
 21
249.0546013094073
 31
0.0
  0
ELLIPSE
  5
7BA
330
77
100
AcDbEntity
  8
Spigoli visibili(ISO)
100
AcDbEllipse
 10
275.6648467306945
 20
238.7707422188653
 30
0.0
 11
2.200611118460658
 21
11.23624098625551
 31
0.0
210
0.0
220
0.0
230
1.0
 40
0.2527602520250363
 41
0.4669247811790019
 42
0.6041213521286854
  0
LINE
  5
7BB
330
77
100
AcDbEntity
  8
Spigoli visibili(ISO)
100
AcDbLine
 10
275.8626791335167
 20
248.3197201496764
 30
0.0
 11
276.3514592130068
 21
248.3197201496764
 31
0.0
  0
ELLIPSE
  5
7BC
330
77
100
AcDbEntity
  8
Spigoli visibili(ISO)
100
AcDbEllipse
 10
275.6648467306945
 20
238.7707422188653
 30
0.0
 11
2.578464740318169
 21
11.23533636925146
 31
0.0
210
0.0
220
0.0
230
1.0
 40
0.2226943791059046
 41
0.6081515946259689
 42
0.745348165575652
  0
LINE
  5
7BD
330
77
100
AcDbEntity
  8
Spigoli visibili(ISO)
100
AcDbLine
 10
275.8626791335167
 20
247.3989789963238
 30
0.0
 11
276.3514592130068
 21
247.3989789963238
 31
0.0
  0
ELLIPSE
  5
7BE
330
77
100
AcDbEntity
  8
Spigoli visibili(ISO)
100
AcDbEllipse
 10
275.6648467306945
 20
238.7707422188653
 30
0.0
 11
2.896629117188219
 21
11.23664763040325
 31
0.0
210
0.0
220
0.0
230
1.0
 40
0.189168420622039
 41
0.7454409059576115
 42
0.8826374769073051
  0
LINE
  5
7BF
330
77
100
AcDbEntity
  8
Spigoli visibili(ISO)
100
AcDbLine
 10
275.8626791335167
 20
246.3102990285718
 30
0.0
 11
276.3514592130068
 21
246.3102990285718
 31
0.0
  0
ELLIPSE
  5
7C0
330
77
100
AcDbEntity
  8
Spigoli visibili(ISO)
100
AcDbEllipse
 10
275.6648467306945
 20
238.7707422188653
 30
0.0
 11
3.154340951461255
 21
11.23963777574455
 31
0.0
210
0.0
220
0.0
230
1.0
 40
0.1530414562462642
 41
0.8792650738801912
 42
1.016461644829884
  0
LINE
  5
7C1
330
77
100
AcDbEntity
  8
Spigoli visibili(ISO)
100
AcDbLine
 10
275.8626791335167
 20
245.0748701636376
 30
0.0
 11
276.3514592130068
 21
245.0748701636376
 31
0.0
  0
ELLIPSE
  5
7C2
330
77
100
AcDbEntity
  8
Spigoli visibili(ISO)
100
AcDbEllipse
 10
275.6648467306945
 20
238.7707422188653
 30
0.0
 11
3.351987523198264
 21
11.24338965421796
 31
0.0
210
0.0
220
0.0
230
1.0
 40
0.1150368943965012
 41
1.010250042784127
 42
1.147446613733808
  0
LINE
  5
7C3
330
77
100
AcDbEntity
  8
Spigoli visibili(ISO)
100
AcDbLine
 10
275.8626791335167
 20
243.7167386190977
 30
0.0
 11
276.3514592130068
 21
243.7167386190977
 31
0.0
  0
ELLIPSE
  5
7C4
330
77
100
AcDbEntity
  8
Spigoli visibili(ISO)
100
AcDbEllipse
 10
275.6648467306945
 20
238.7707422188653
 30
0.0
 11
3.490393950449319
 21
11.24689245298834
 31
0.0
210
0.0
220
0.0
230
1.0
 40
0.0757522736762858
 41
1.139098769464554
 42
1.276295340414234
  0
LINE
  5
7C5
330
77
100
AcDbEntity
  8
Spigoli visibili(ISO)
100
AcDbLine
 10
275.8626791335167
 20
242.2623388806147
 30
0.0
 11
276.3514592130068
 21
242.2623388806147
 31
0.0
  0
ELLIPSE
  5
7C6
330
77
100
AcDbEntity
  8
Spigoli visibili(ISO)
100
AcDbEllipse
 10
275.6648467306945
 20
238.7707422188653
 30
0.0
 11
3.57037380046597
 21
11.24927850858912
 31
0.0
210
0.0
220
0.0
230
1.0
 40
0.0356850402979682
 41
1.26654573460217
 42
1.403742305551853
  0
LINE
  5
7C7
330
77
100
AcDbEntity
  8
Spigoli visibili(ISO)
100
AcDbLine
 10
275.8626791335167
 20
240.7399791847432
 30
0.0
 11
276.3514592130068
 21
240.7399791847432
 31
0.0
  0
ELLIPSE
  5
7C8
330
77
100
AcDbEntity
  8
Spigoli visibili(ISO)
100
AcDbEllipse
 10
275.6648467306945
 20
238.7707422188653
 30
0.0
 11
-3.592475315290085
 21
-11.24998714239211
 31
0.0
210
0.0
220
0.0
230
1.0
 40
0.0047345360845012
 41
1.611061373851189
 42
1.748257944800815
  0
LINE
  5
7C9
330
77
100
AcDbEntity
  8
Spigoli visibili(ISO)
100
AcDbLine
 10
275.8626791335167
 20
239.1792905313047
 30
0.0
 11
276.3514592130068
 21
239.1792905313047
 31
0.0
  0
ELLIPSE
  5
7CA
330
77
100
AcDbEntity
  8
Spigoli visibili(ISO)
100
AcDbEllipse
 10
275.6648467306945
 20
238.7707422188653
 30
0.0
 11
-3.556859285574501
 21
-11.24885585954883
 31
0.0
210
0.0
220
0.0
230
1.0
 40
0.045107961663989
 41
1.484185202679322
 42
1.621381773629011
  0
LINE
  5
7CB
330
77
100
AcDbEntity
  8
Spigoli visibili(ISO)
100
AcDbLine
 10
275.8626791335167
 20
237.6106499496813
 30
0.0
 11
276.3514592130068
 21
237.6106499496813
 31
0.0
  0
ELLIPSE
  5
7CC
330
77
100
AcDbEntity
  8
Spigoli visibili(ISO)
100
AcDbEllipse
 10
275.6648467306945
 20
238.7707422188653
 30
0.0
 11
-3.46326853570003
 21
-11.24614491116952
 31
0.0
210
0.0
220
0.0
230
1.0
 40
0.0850325255053146
 41
1.35647672929636
 42
1.493673300246046
  0
LINE
  5
7CD
330
77
100
AcDbEntity
  8
Spigoli visibili(ISO)
100
AcDbLine
 10
275.8626791335167
 20
236.0645892444923
 30
0.0
 11
276.3514592130068
 21
236.0645892444923
 31
0.0
  0
ELLIPSE
  5
7CE
330
77
100
AcDbEntity
  8
Spigoli visibili(ISO)
100
AcDbEllipse
 10
275.6648467306945
 20
238.7707422188653
 30
0.0
 11
3.311077789886054
 21
11.24249756574974
 31
0.0
210
0.0
220
0.0
230
1.0
 40
0.1240653645460893
 41
4.368785913922659
 42
4.505982484871868
  0
LINE
  5
7CF
330
77
100
AcDbEntity
  8
Spigoli visibili(ISO)
100
AcDbLine
 10
275.8626791335167
 20
234.571200728746
 30
0.0
 11
276.3514592130068
 21
234.571200728746
 31
0.0
  0
ELLIPSE
  5
7D0
330
77
100
AcDbEntity
  8
Spigoli visibili(ISO)
100
AcDbEllipse
 10
275.6648467306945
 20
238.7707422188653
 30
0.0
 11
3.099441994366385
 21
11.23883245177608
 31
0.0
210
0.0
220
0.0
230
0.9999999999999998
 40
0.1616883985915539
 41
4.237197643838921
 42
4.374394214788219
  0
LINE
  5
7D1
330
77
100
AcDbEntity
  8
Spigoli visibili(ISO)
100
AcDbLine
 10
275.8626791335167
 20
233.1595515111973
 30
0.0
 11
276.3514592130068
 21
233.1595515111973
 31
0.0
  0
ELLIPSE
  5
7D2
330
77
100
AcDbEntity
  8
Spigoli visibili(ISO)
100
AcDbEllipse
 10
275.6648467306945
 20
238.7707422188653
 30
0.0
 11
2.827589494328114
 21
11.23616216214093
 31
0.0
210
0.0
220
0.0
230
1.0
 40
0.1972765337478685
 41
4.10261451926601
 42
4.239811090215379
  0
LINE
  5
7D3
330
77
100
AcDbEntity
  8
Spigoli visibili(ISO)
100
AcDbLine
 10
275.8626791335167
 20
231.8571177381385
 30
0.0
 11
276.3514592130068
 21
231.8571177381385
 31
0.0
  0
ELLIPSE
  5
7D4
330
77
100
AcDbEntity
  8
Spigoli visibili(ISO)
100
AcDbEllipse
 10
275.6648467306945
 20
238.7707422188653
 30
0.0
 11
2.495327617838825
 21
11.23534137533337
 31
0.0
210
0.0
220
0.0
230
1.0
 40
0.2300746562685458
 41
3.964438423569017
 42
4.101634994518438
  0
LINE
  5
7D5
330
77
100
AcDbEntity
  8
Spigoli visibili(ISO)
100
AcDbLine
 10
275.8626791335167
 20
230.6892498014657
 30
0.0
 11
276.3514592130068
 21
230.6892498014657
 31
0.0
  0
ELLIPSE
  5
7D6
330
77
100
AcDbEntity
  8
Spigoli visibili(ISO)
100
AcDbEllipse
 10
275.6648467306945
 20
238.7707422188653
 30
0.0
 11
2.103823234132161
 21
11.23677672566123
 31
0.0
210
0.0
220
0.0
230
1.0
 40
0.2591933536186419
 41
3.82224760519168
 42
3.959444176141163
  0
LINE
  5
7D7
330
77
100
AcDbEntity
  8
Spigoli visibili(ISO)
100
AcDbLine
 10
275.8626791335167
 20
229.6786789221363
 30
0.0
 11
276.3514592130068
 21
229.6786789221363
 31
0.0
  0
ELLIPSE
  5
7D8
330
77
100
AcDbEntity
  8
Spigoli visibili(ISO)
100
AcDbEllipse
 10
275.6648467306945
 20
238.7707422188653
 30
0.0
 11
1.656653353666863
 21
11.24018257839182
 31
0.0
210
0.0
220
0.0
230
1.0
 40
0.2836374469672025
 41
3.675911479442323
 42
3.813108050391845
  0
LINE
  5
7D9
330
77
100
AcDbEntity
  8
Spigoli visibili(ISO)
100
AcDbLine
 10
275.8626791335167
 20
228.8450747128089
 30
0.0
 11
276.3514592130068
 21
228.8450747128089
 31
0.0
  0
ELLIPSE
  5
7DA
330
77
100
AcDbEntity
  8
Spigoli visibili(ISO)
100
AcDbEllipse
 10
275.6648467306945
 20
238.7707422188653
 30
0.0
 11
1.160952399123353
 21
11.24452149632395
 31
0.0
210
0.0
220
0.0
230
0.9999999999999998
 40
0.3023813105605333
 41
3.525714618730752
 42
3.662911189680446
  0
LINE
  5
7DB
330
77
100
AcDbEntity
  8
Spigoli visibili(ISO)
100
AcDbLine
 10
275.8626791335167
 20
228.2046623312075
 30
0.0
 11
276.3514592130068
 21
228.2046623312075
 31
0.0
  0
ELLIPSE
  5
7DC
330
77
100
AcDbEntity
  8
Spigoli visibili(ISO)
100
AcDbEllipse
 10
275.6648467306945
 20
238.7707422188653
 30
0.0
 11
0.6282328331176555
 21
11.24826492329669
 31
0.0
210
0.0
220
0.0
230
0.9999999999999998
 40
0.3144946214584784
 41
3.372441940911173
 42
3.509638511860856
  0
LINE
  5
7DD
330
77
100
AcDbEntity
  8
Spigoli visibili(ISO)
100
AcDbLine
 10
275.8626791335167
 20
227.7699066758817
 30
0.0
 11
276.3514592130068
 21
227.7699066758817
 31
0.0
  0
ELLIPSE
  5
7DE
330
77
100
AcDbEntity
  8
Spigoli visibili(ISO)
100
AcDbEllipse
 10
275.6648467306945
 20
238.7707422188653
 30
0.0
 11
0.0742874385968055
 21
11.24997499407319
 31
0.0
210
0.0
220
0.0
230
0.9999999999999998
 40
0.3192986712929786
 41
3.217360835688108
 42
3.354557406637791
  0
LINE
  5
7DF
330
77
100
AcDbEntity
  8
Spigoli visibili(ISO)
100
AcDbLine
 10
275.8626791335167
 20
227.549269771135
 30
0.0
 11
276.3514592130068
 21
227.549269771135
 31
0.0
  0
ELLIPSE
  5
7E0
330
77
100
AcDbEntity
  8
Spigoli visibili(ISO)
100
AcDbEllipse
 10
275.6648467306945
 20
238.7707422188653
 30
0.0
 11
-0.4822278819286712
 21
11.2489646072252
 31
0.0
210
0.0
220
0.0
230
1.0
 40
0.3165056842250151
 41
3.062058722526703
 42
3.199255293476387
  0
ELLIPSE
  5
7E1
330
77
100
AcDbEntity
  8
Spigoli visibili(ISO)
100
AcDbEllipse
 10
275.6648467306945
 20
238.7707422188653
 30
0.0
 11
-2.745093128075406
 21
11.23573619660846
 31
0.0
210
0.0
220
0.0
230
1.0
 40
0.2063070860588576
 41
2.32713243621275
 42
2.327457966190747
  0
ELLIPSE
  5
7E2
330
77
100
AcDbEntity
  8
Spigoli visibili(ISO)
100
AcDbEllipse
 10
275.6648467306945
 20
238.7707422188653
 30
0.0
 11
-3.033034586442597
 21
11.23798474536906
 31
0.0
210
0.0
220
0.0
230
1.0
 40
0.1713816799983757
 41
2.191646535008478
 42
2.192717453986738
  0
ELLIPSE
  5
7E3
330
77
100
AcDbEntity
  8
Spigoli visibili(ISO)
100
AcDbEllipse
 10
275.6648467306945
 20
238.7707422188653
 30
0.0
 11
-3.260624686265487
 21
11.24148259102846
 31
0.0
210
0.0
220
0.0
230
1.0
 40
0.1342338295111622
 41
2.059326423074608
 42
2.061326511534044
  0
LINE
  5
7E4
330
77
100
AcDbEntity
  8
Spigoli visibili(ISO)
100
AcDbLine
 10
275.8626791335167
 20
233.7427982067209
 30
0.0
 11
275.8629370271314
 21
233.7427699844457
 31
0.0
  0
LINE
  5
7E5
330
77
100
AcDbEntity
  8
Spigoli visibili(ISO)
100
AcDbLine
 10
275.8626791335167
 20
233.8179867012273
 30
0.0
 11
275.8641017189353
 21
233.8184540461829
 31
0.0
  0
LINE
  5
7E6
330
77
100
AcDbEntity
  8
Spigoli visibili(ISO)
100
AcDbLine
 10
275.8626791335167
 20
233.8909513936035
 30
0.0
 11
275.8652302385475
 21
233.8917875647431
 31
0.0
  0
LINE
  5
7E7
330
77
100
AcDbEntity
  8
Spigoli visibili(ISO)
100
AcDbLine
 10
275.8626791335167
 20
233.965213822431
 30
0.0
 11
275.8664037655661
 21
233.9680457568606
 31
0.0
  0
LINE
  5
7E8
330
77
100
AcDbEntity
  8
Spigoli visibili(ISO)
100
AcDbLine
 10
275.8626791335167
 20
234.13408415822
 30
0.0
 11
275.8690330831405
 21
234.1389042045541
 31
0.0
  0
LINE
  5
7E9
330
77
100
AcDbEntity
  8
Spigoli visibili(ISO)
100
AcDbLine
 10
275.8626791335167
 20
234.2059750876638
 30
0.0
 11
275.8702015173187
 21
234.2148314534564
 31
0.0
  0
LINE
  5
7EA
330
77
100
AcDbEntity
  8
Spigoli visibili(ISO)
100
AcDbLine
 10
275.8626791335167
 20
234.4674641978666
 30
0.0
 11
275.8742993004126
 21
234.481113801863
 31
0.0
  0
LINE
  5
7EB
330
77
100
AcDbEntity
  8
Spigoli visibili(ISO)
100
AcDbLine
 10
275.8626791335167
 20
234.5355843527596
 30
0.0
 11
275.8754462819564
 21
234.5556470145933
 31
0.0
  0
LINE
  5
7EC
330
77
100
AcDbEntity
  8
Spigoli visibili(ISO)
100
AcDbLine
 10
275.8642927961589
 20
230.6892498014662
 30
0.0
 11
275.8626791335167
 21
230.5314000448599
 31
0.0
  0
LINE
  5
7ED
330
77
100
AcDbEntity
  8
Spigoli visibili(ISO)
100
AcDbLine
 10
275.8626791335167
 20
235.3773803870085
 30
0.0
 11
275.8699860082741
 21
235.391486452996
 31
0.0
  0
LINE
  5
7EE
330
77
100
AcDbEntity
  8
Spigoli visibili(ISO)
100
AcDbLine
 10
275.8671543107596
 20
231.8571177381391
 30
0.0
 11
275.8626791335167
 21
231.4609476507763
 31
0.0
  0
LINE
  5
7EF
330
77
100
AcDbEntity
  8
Spigoli visibili(ISO)
100
AcDbLine
 10
275.8626791335167
 20
235.4340805494211
 30
0.0
 11
275.8711941259638
 21
235.4533310930308
 31
0.0
  0
LINE
  5
7F0
330
77
100
AcDbEntity
  8
Spigoli visibili(ISO)
100
AcDbLine
 10
275.8626791335167
 20
235.9362060528964
 30
0.0
 11
275.8814542392959
 21
235.9785555981752
 31
0.0
  0
LINE
  5
7F1
330
77
100
AcDbEntity
  8
Spigoli visibili(ISO)
100
AcDbLine
 10
275.8707657341521
 20
233.1595515111979
 30
0.0
 11
275.8626791335167
 21
232.532772093192
 31
0.0
  0
LINE
  5
7F2
330
77
100
AcDbEntity
  8
Spigoli visibili(ISO)
100
AcDbLine
 10
275.8626791335167
 20
235.9854792745429
 30
0.0
 11
275.8825778499252
 21
236.0360742451564
 31
0.0
  0
LINE
  5
7F3
330
77
100
AcDbEntity
  8
Spigoli visibili(ISO)
100
AcDbLine
 10
275.8626791335167
 20
236.5502027410179
 30
0.0
 11
275.8676480075024
 21
236.562807887486
 31
0.0
  0
LINE
  5
7F4
330
77
100
AcDbEntity
  8
Spigoli visibili(ISO)
100
AcDbLine
 10
275.8756856359627
 20
234.5712007287469
 30
0.0
 11
275.8626791335167
 21
233.7260115285181
 31
0.0
  0
LINE
  5
7F5
330
77
100
AcDbEntity
  8
Spigoli visibili(ISO)
100
AcDbLine
 10
275.8626791335167
 20
236.5910899746863
 30
0.0
 11
275.8688990509325
 21
236.6083501096034
 31
0.0
  0
LINE
  5
7F6
330
77
100
AcDbEntity
  8
Spigoli visibili(ISO)
100
AcDbLine
 10
275.8626791335167
 20
237.2074197042494
 30
0.0
 11
275.8872220773897
 21
237.2753703909606
 31
0.0
  0
LINE
  5
7F7
330
77
100
AcDbEntity
  8
Spigoli visibili(ISO)
100
AcDbLine
 10
275.8831348824361
 20
236.0645892444933
 30
0.0
 11
275.8626791335167
 21
235.017440908436
 31
0.0
  0
LINE
  5
7F8
330
77
100
AcDbEntity
  8
Spigoli visibili(ISO)
100
AcDbLine
 10
275.8626791335167
 20
237.239125126445
 30
0.0
 11
275.8883054202261
 21
237.3148077429329
 31
0.0
  0
LINE
  5
7F9
330
77
100
AcDbEntity
  8
Spigoli visibili(ISO)
100
AcDbLine
 10
275.8626791335167
 20
237.8950649619749
 30
0.0
 11
275.8683672154461
 21
237.9118253445869
 31
0.0
  0
LINE
  5
7FA
330
77
100
AcDbEntity
  8
Spigoli visibili(ISO)
100
AcDbLine
 10
275.896432196477
 20
237.6106499496828
 30
0.0
 11
275.8626791335167
 21
236.3819240290441
 31
0.0
  0
LINE
  5
7FB
330
77
100
AcDbEntity
  8
Spigoli visibili(ISO)
100
AcDbLine
 10
275.8626791335167
 20
237.916971462719
 30
0.0
 11
275.8696363295412
 21
237.9383591228875
 31
0.0
  0
LINE
  5
7FC
330
77
100
AcDbEntity
  8
Spigoli visibili(ISO)
100
AcDbLine
 10
275.8626791335167
 20
238.5997542814377
 30
0.0
 11
275.9079058266312
 21
238.7384718593422
 31
0.0
  0
LINE
  5
7FD
330
77
100
AcDbEntity
  8
Spigoli visibili(ISO)
100
AcDbLine
 10
275.9079058266312
 20
238.7384718593422
 30
0.0
 11
275.8626791335167
 21
237.7929027784768
 31
0.0
  0
LINE
  5
7FE
330
77
100
AcDbEntity
  8
Spigoli visibili(ISO)
100
AcDbLine
 10
275.8626791335167
 20
238.6114354756116
 30
0.0
 11
276.043801492565
 21
239.1792905313065
 31
0.0
  0
LINE
  5
7FF
330
77
100
AcDbEntity
  8
Spigoli visibili(ISO)
100
AcDbLine
 10
275.8626791335167
 20
239.3077716866066
 30
0.0
 11
275.9079058266312
 21
239.4492428395827
 31
0.0
  0
LINE
  5
800
330
77
100
AcDbEntity
  8
Spigoli visibili(ISO)
100
AcDbLine
 10
275.9079058266312
 20
239.4492428395827
 30
0.0
 11
275.8626791335167
 21
239.2229140603407
 31
0.0
  0
LINE
  5
801
330
77
100
AcDbEntity
  8
Spigoli visibili(ISO)
100
AcDbLine
 10
276.3514592130068
 20
240.7399791847432
 30
0.0
 11
276.129905153024
 21
240.146807577024
 31
0.0
  0
LINE
  5
802
330
77
100
AcDbEntity
  8
Spigoli visibili(ISO)
100
AcDbLine
 10
275.8626791335167
 20
239.3090002130529
 30
0.0
 11
276.129905153024
 21
240.146807577024
 31
0.0
  0
LINE
  5
803
330
77
100
AcDbEntity
  8
Spigoli visibili(ISO)
100
AcDbLine
 10
276.129905153024
 20
240.146807577024
 30
0.0
 11
275.9079058266312
 21
240.146807577024
 31
0.0
  0
LINE
  5
804
330
77
100
AcDbEntity
  8
Spigoli visibili(ISO)
100
AcDbLine
 10
275.8626791335167
 20
240.0053364240479
 30
0.0
 11
275.9079058266312
 21
240.146807577024
 31
0.0
  0
LINE
  5
805
330
77
100
AcDbEntity
  8
Spigoli visibili(ISO)
100
AcDbLine
 10
275.9079058266312
 20
240.146807577024
 30
0.0
 11
275.8626791335167
 21
240.6441243316482
 31
0.0
  0
LINE
  5
806
330
77
100
AcDbEntity
  8
Spigoli visibili(ISO)
100
AcDbLine
 10
275.9049334862611
 20
240.8971953864173
 30
0.0
 11
275.8626791335167
 21
242.0288713510709
 31
0.0
  0
LINE
  5
807
330
77
100
AcDbEntity
  8
Spigoli visibili(ISO)
100
AcDbLine
 10
275.8626791335167
 20
241.3152663952318
 30
0.0
 11
275.8866827583716
 21
241.3859949715146
 31
0.0
  0
LINE
  5
808
330
77
100
AcDbEntity
  8
Spigoli visibili(ISO)
100
AcDbLine
 10
275.8862642966362
 20
242.3585039886192
 30
0.0
 11
275.8626791335167
 21
243.3502025930022
 31
0.0
  0
LINE
  5
809
330
77
100
AcDbEntity
  8
Spigoli visibili(ISO)
100
AcDbLine
 10
275.8626791335167
 20
241.9021353321086
 30
0.0
 11
275.8669678386315
 21
241.9140092319619
 31
0.0
  0
LINE
  5
80A
330
77
100
AcDbEntity
  8
Spigoli visibili(ISO)
100
AcDbLine
 10
275.8768621401076
 20
243.7811415989636
 30
0.0
 11
275.8626791335167
 21
244.5823998478099
 31
0.0
  0
LINE
  5
80B
330
77
100
AcDbEntity
  8
Spigoli visibili(ISO)
100
AcDbLine
 10
275.8626791335167
 20
242.4280552639429
 30
0.0
 11
275.8833623248017
 21
242.4805248287443
 31
0.0
  0
LINE
  5
80C
330
77
100
AcDbEntity
  8
Spigoli visibili(ISO)
100
AcDbLine
 10
275.8710177686259
 20
245.1190984151755
 30
0.0
 11
275.8626791335167
 21
245.7014797975327
 31
0.0
  0
LINE
  5
80D
330
77
100
AcDbEntity
  8
Spigoli visibili(ISO)
100
AcDbLine
 10
275.8626791335167
 20
242.8827897574868
 30
0.0
 11
275.8732294550318
 21
242.9065872968435
 31
0.0
  0
LINE
  5
80E
330
77
100
AcDbEntity
  8
Spigoli visibili(ISO)
100
AcDbLine
 10
275.8668989212225
 20
246.3403596605641
 30
0.0
 11
275.8626791335167
 21
246.685660823884
 31
0.0
  0
LINE
  5
80F
330
77
100
AcDbEntity
  8
Spigoli visibili(ISO)
100
AcDbLine
 10
275.8626791335167
 20
243.2574879230761
 30
0.0
 11
275.8647873352988
 21
243.261557848241
 31
0.0
  0
LINE
  5
810
330
77
100
AcDbEntity
  8
Spigoli visibili(ISO)
100
AcDbLine
 10
275.8637328573384
 20
247.4186083027033
 30
0.0
 11
275.8626791335167
 21
247.5157869626751
 31
0.0
  0
LINE
  5
811
330
77
100
AcDbEntity
  8
Spigoli visibili(ISO)
100
AcDbLine
 10
275.8626791335167
 20
243.8370414209805
 30
0.0
 11
275.8756978498752
 21
243.8469172965814
 31
0.0
  0
LINE
  5
812
330
77
100
AcDbEntity
  8
Spigoli visibili(ISO)
100
AcDbLine
 10
275.8651208815781
 20
246.3362336393672
 30
0.0
 11
275.8626791335168
 21
246.5642952934997
 31
0.0
  0
LINE
  5
813
330
77
100
AcDbEntity
  8
Spigoli visibili(ISO)
100
AcDbLine
 10
275.8680825171339
 20
245.1114962349456
 30
0.0
 11
275.8626791335168
 21
245.5611656960515
 31
0.0
  0
LINE
  5
814
330
77
100
AcDbEntity
  8
Spigoli visibili(ISO)
100
AcDbLine
 10
275.8708371394998
 20
243.843230007478
 30
0.0
 11
275.8626791335168
 21
244.425868229612
 31
0.0
  0
ELLIPSE
  5
815
330
77
100
AcDbEntity
  8
Spigoli visibili(ISO)
100
AcDbEllipse
 10
254.3001791335169
 20
236.1726660075117
 30
0.0
 11
26.39254452018587
 21
-0.0000000000002222
 31
0.0
210
0.0
220
0.0
230
1.0
 40
0.4999999999997435
 41
6.217511590134281
 42
6.348859024224902
  0
ARC
  5
816
330
77
100
AcDbEntity
  8
Spigoli visibili(ISO)
100
AcDbCircle
 10
254.3001791335169
 20
238.7707422188644
 30
0.0
 40
26.39254452018588
100
AcDbArc
 50
356.2371731883674
 51
3.762826811632704
  0
ELLIPSE
  5
817
330
77
100
AcDbEntity
  8
Spigoli visibili(ISO)
100
AcDbEllipse
 10
254.3001791335169
 20
241.368818430218
 30
0.0
 11
26.39254452018589
 21
0.0000000000001669
 31
0.0
210
0.0
220
0.0
230
1.0
 40
0.5000000000002566
 41
6.217511590134273
 42
6.348859024224895
  0
LINE
  5
818
330
77
100
AcDbEntity
  8
Spigoli visibili(ISO)
100
AcDbLine
 10
268.8626791335166
 20
257.2707422188652
 30
0.0
 11
268.8626791335166
 21
256.2707422188634
 31
0.0
  0
LINE
  5
819
330
77
100
AcDbEntity
  8
Spigoli visibili(ISO)
100
AcDbLine
 10
268.8626791335166
 20
221.2707422188635
 30
0.0
 11
268.8626791335166
 21
220.2707422188653
 31
0.0
  0
LINE
  5
81A
330
77
100
AcDbEntity
  8
Spigoli visibili(ISO)
100
AcDbLine
 10
267.3626791335166
 20
218.7707422188653
 30
0.0
 11
267.3626791335166
 21
221.2707422188624
 31
0.0
  0
LINE
  5
81B
330
77
100
AcDbEntity
  8
Spigoli visibili(ISO)
100
AcDbLine
 10
267.3626791335166
 20
256.2707422188623
 30
0.0
 11
267.3626791335166
 21
258.7707422188652
 31
0.0
  0
LINE
  5
81C
330
77
100
AcDbEntity
  8
Spigoli visibili(ISO)
100
AcDbLine
 10
47.36267913351674
 20
258.7707422188652
 30
0.0
 11
47.36267913351674
 21
256.2707422188624
 31
0.0
  0
LINE
  5
81D
330
77
100
AcDbEntity
  8
Spigoli visibili(ISO)
100
AcDbLine
 10
47.36267913351674
 20
221.2707422188624
 30
0.0
 11
47.36267913351674
 21
218.7707422188653
 31
0.0
  0
LINE
  5
81E
330
77
100
AcDbEntity
  8
Spigoli visibili(ISO)
100
AcDbLine
 10
45.86267913351675
 20
220.2707422188653
 30
0.0
 11
45.86267913351675
 21
221.2707422188635
 31
0.0
  0
LINE
  5
81F
330
77
100
AcDbEntity
  8
Spigoli visibili(ISO)
100
AcDbLine
 10
45.86267913351675
 20
256.2707422188635
 30
0.0
 11
45.86267913351675
 21
257.2707422188653
 31
0.0
  0
LINE
  5
820
330
77
100
AcDbEntity
  8
Spigoli visibili(ISO)
100
AcDbLine
 10
268.8626791335166
 20
220.2707422188653
 30
0.0
 11
267.3626791335166
 21
218.7707422188653
 31
0.0
  0
LINE
  5
821
330
77
100
AcDbEntity
  8
Spigoli visibili(ISO)
100
AcDbLine
 10
268.8626791335166
 20
257.2707422188652
 30
0.0
 11
267.3626791335166
 21
258.7707422188652
 31
0.0
  0
LINE
  5
822
330
77
100
AcDbEntity
  8
Spigoli visibili(ISO)
100
AcDbLine
 10
45.86267913351675
 20
257.2707422188653
 30
0.0
 11
47.36267913351674
 21
258.7707422188652
 31
0.0
  0
LINE
  5
823
330
77
100
AcDbEntity
  8
Spigoli visibili(ISO)
100
AcDbLine
 10
45.86267913351675
 20
220.2707422188654
 30
0.0
 11
47.36267913351674
 21
218.7707422188653
 31
0.0
  0
LINE
  5
824
330
77
100
AcDbEntity
  8
Spigoli visibili(ISO)
100
AcDbLine
 10
267.3626791335166
 20
218.7707422188653
 30
0.0
 11
47.36267913351674
 21
218.7707422188653
 31
0.0
  0
LINE
  5
825
330
77
100
AcDbEntity
  8
Spigoli visibili(ISO)
100
AcDbLine
 10
267.3626791335166
 20
258.7707422188652
 30
0.0
 11
47.36267913351674
 21
258.7707422188652
 31
0.0
  0
LINE
  5
826
330
77
100
AcDbEntity
  8
Centro(ISO)
  6
CHAIN
 48
20.4628849029541
100
AcDbLine
 10
84.86267913351676
 20
238.7707422188561
 30
0.0
 11
70.86267913351678
 21
238.7707422188561
 31
0.0
  0
LINE
  5
827
330
77
100
AcDbEntity
  8
Centro(ISO)
  6
CHAIN
 48
20.4628849029541
100
AcDbLine
 10
77.86267913351678
 20
245.7707422188561
 30
0.0
 11
77.86267913351678
 21
231.7707422188561
 31
0.0
  0
LINE
  5
828
330
77
100
AcDbEntity
  8
Centro(ISO)
  6
CHAIN
 48
20.4628849029541
100
AcDbLine
 10
244.8626791335168
 20
238.7707422188561
 30
0.0
 11
230.8626791335168
 21
238.7707422188561
 31
0.0
  0
LINE
  5
829
330
77
100
AcDbEntity
  8
Centro(ISO)
  6
CHAIN
 48
20.4628849029541
100
AcDbLine
 10
237.8626791335168
 20
245.7707422188561
 30
0.0
 11
237.8626791335168
 21
231.7707422188561
 31
0.0
  0
DIMENSION
  5
82A
330
77
100
AcDbEntity
  8
Quote(ISO)
  6
Continuous
 62
    96
370
    25
100
AcDbDimension
  2
*D14
 10
237.8626791335168
 20
201.7707422188561
 30
0.0
 11
157.8626791335167
 21
201.7707422188561
 31
0.0
 70
   160
  1
<>
 42
160.0
  3
MAURO
100
AcDbAlignedDimension
 13
77.86267913351678
 23
231.7707422188561
 33
0.0
 14
237.8626791335168
 24
231.7707422188561
 34
0.0
 50
180.0
100
AcDbRotatedDimension
1001
ACAD
1000
DSTYLE
1002
{
1070
   172
1070
     0
1070
   289
1070
     1
1070
    74
1070
     0
1070
   271
1070
     3
1070
   272
1070
     3
1070
    48
1040
0.0
1070
    47
1040
0.0
1002
}
  0
DIMENSION
  5
900
330
77
100
AcDbEntity
  8
Quote(ISO)
  6
Continuous
 62
    96
370
    25
100
AcDbDimension
  2
*D15
 10
73.70351433152056
 20
237.0527933983621
 30
0.0
 11
88.96456570941035
 21
243.3563919481385
 31
0.0
 70
   163
  1
<>
 42
8.999999999999998
  3
MAURO
100
AcDbDiametricDimension
 15
82.02184393551275
 25
240.48869103935
 35
0.0
 40
0.0
1001
ACAD_DSTYLE_DIMRADIAL_EXTENSION
1070
   387
1070
     1
1070
   388
1040
0.0
1070
   390
1040
0.0
1001
ACAD
1000
DSTYLE
1002
{
1070
   144
1040
1.000000000000006
1070
    74
1070
     0
1070
   289
1070
     2
1070
   271
1070
     3
1070
   272
1070
     3
1070
    48
1040
0.0
1070
    47
1040
0.0
1002
}
  0
DIMENSION
  5
9B8
330
77
100
AcDbEntity
  8
Quote(ISO)
  6
Continuous
 62
    96
370
    25
100
AcDbDimension
  2
*D16
 10
242.2093453518177
 20
237.6060565158949
 30
0.0
 11
223.6648130954676
 21
242.5750489579959
 31
0.0
 70
   163
  1
<>
 42
8.999999999999943
  3
MAURO
100
AcDbDiametricDimension
 15
233.5160129152161
 25
239.9354279218172
 35
0.0
 40
0.0
1001
ACAD_DSTYLE_DIMRADIAL_EXTENSION
1070
   387
1070
     1
1070
   388
1040
0.0
1070
   390
1040
0.0
1001
ACAD
1000
DSTYLE
1002
{
1070
   144
1040
1.000000000000003
1070
    74
1070
     0
1070
   289
1070
     2
1070
   271
1070
     3
1070
   272
1070
     3
1070
    48
1040
0.0
1070
    47
1040
0.0
1002
}
  0
ENDSEC
  0
SECTION
  2
OBJECTS
  0
DICTIONARY
  5
C
330
0
100
AcDbDictionary
281
     1
  3
ACAD_COLOR
350
6E
  3
ACAD_GROUP
350
D
  3
ACAD_LAYOUT
350
6D
  3
ACAD_MATERIAL
350
10
  3
ACAD_MLEADERSTYLE
350
71
  3
ACAD_MLINESTYLE
350
6A
  3
ACAD_PLOTSETTINGS
350
6C
  3
ACAD_PLOTSTYLENAME
350
E
  3
ACAD_SCALELIST
350
3D
  3
ACAD_TABLESTYLE
350
6F
  3
ACAD_VISUALSTYLE
350
29
  3
ACDB_RECOMPOSE_DATA
350
C4F
  3
AcDbVariableDictionary
350
B5F
  3
AcmDictionary
350
BD1
  3
AMG
350
B7A
  3
AMGSNAPSETTINGS
350
C08
  3
DWGPROPS
350
C50
  0
DICTIONARY
  5
B16
330
8
100
AcDbDictionary
280
     1
281
     1
  0
DICTIONARY
  5
A6F
330
27F
100
AcDbDictionary
280
     1
281
     1
  3
ACAD_MLATT
360
C12
  3
ACAD_XREC_ROUNDTRIP
360
C11
  0
DICTIONARY
  5
A72
330
282
100
AcDbDictionary
280
     1
281
     1
  3
ACAD_MLATT
360
C14
  3
ACAD_XREC_ROUNDTRIP
360
C13
  0
DICTIONARY
  5
A75
330
284
100
AcDbDictionary
280
     1
281
     1
  3
ACAD_MLATT
360
C16
  3
ACAD_XREC_ROUNDTRIP
360
C15
  0
DICTIONARY
  5
A7A
330
286
100
AcDbDictionary
280
     1
281
     1
  3
ACAD_MLATT
360
C1A
  3
ACAD_XREC_ROUNDTRIP
360
C19
  0
DICTIONARY
  5
A7D
330
287
100
AcDbDictionary
280
     1
281
     1
  3
ACAD_MLATT
360
C1C
  3
ACAD_XREC_ROUNDTRIP
360
C1B
  0
DICTIONARY
  5
A80
330
288
100
AcDbDictionary
280
     1
281
     1
  3
ACAD_MLATT
360
C1E
  3
ACAD_XREC_ROUNDTRIP
360
C1D
  0
DICTIONARY
  5
A83
330
289
100
AcDbDictionary
280
     1
281
     1
  3
ACAD_MLATT
360
C20
  3
ACAD_XREC_ROUNDTRIP
360
C1F
  0
DICTIONARY
  5
C18
330
C17
100
AcDbDictionary
280
     1
281
     1
  0
DICTIONARY
  5
C81
330
45B
100
AcDbDictionary
280
     1
281
     1
  3
ACAD_MTEXT_RT
360
C82
  0
DICTIONARY
  5
A8A
330
467
100
AcDbDictionary
280
     1
281
     1
  3
ACAD_MLATT
360
C22
  3
ACAD_XREC_ROUNDTRIP
360
C21
  0
DICTIONARY
  5
A8D
330
468
100
AcDbDictionary
280
     1
281
     1
  3
ACAD_MLATT
360
C24
  3
ACAD_XREC_ROUNDTRIP
360
C23
  0
DICTIONARY
  5
A90
330
46A
100
AcDbDictionary
280
     1
281
     1
  3
ACAD_MLATT
360
C26
  3
ACAD_XREC_ROUNDTRIP
360
C25
  0
DICTIONARY
  5
A93
330
46C
100
AcDbDictionary
280
     1
281
     1
  3
ACAD_MLATT
360
C28
  3
ACAD_XREC_ROUNDTRIP
360
C27
  0
DICTIONARY
  5
A96
330
46D
100
AcDbDictionary
280
     1
281
     1
  3
ACAD_MLATT
360
C2A
  3
ACAD_XREC_ROUNDTRIP
360
C29
  0
DICTIONARY
  5
A99
330
46E
100
AcDbDictionary
280
     1
281
     1
  3
ACAD_MLATT
360
C2C
  3
ACAD_XREC_ROUNDTRIP
360
C2B
  0
DICTIONARY
  5
A9C
330
46F
100
AcDbDictionary
280
     1
281
     1
  3
ACAD_MLATT
360
C2E
  3
ACAD_XREC_ROUNDTRIP
360
C2D
  0
DICTIONARY
  5
A9F
330
470
100
AcDbDictionary
280
     1
281
     1
  3
ACAD_MLATT
360
C30
  3
ACAD_XREC_ROUNDTRIP
360
C2F
  0
DICTIONARY
  5
AA2
330
471
100
AcDbDictionary
280
     1
281
     1
  3
ACAD_MLATT
360
C32
  3
ACAD_XREC_ROUNDTRIP
360
C31
  0
DICTIONARY
  5
AA5
330
472
100
AcDbDictionary
280
     1
281
     1
  3
ACAD_MLATT
360
C34
  3
ACAD_XREC_ROUNDTRIP
360
C33
  0
DICTIONARY
  5
AA8
330
473
100
AcDbDictionary
280
     1
281
     1
  3
ACAD_MLATT
360
C36
  3
ACAD_XREC_ROUNDTRIP
360
C35
  0
DICTIONARY
  5
AAB
330
474
100
AcDbDictionary
280
     1
281
     1
  3
ACAD_MLATT
360
C38
  3
ACAD_XREC_ROUNDTRIP
360
C37
  0
DICTIONARY
  5
AAE
330
475
100
AcDbDictionary
280
     1
281
     1
  3
ACAD_MLATT
360
C3A
  3
ACAD_XREC_ROUNDTRIP
360
C39
  0
DICTIONARY
  5
AB1
330
476
100
AcDbDictionary
280
     1
281
     1
  3
ACAD_MLATT
360
C3C
  3
ACAD_XREC_ROUNDTRIP
360
C3B
  0
DICTIONARY
  5
AB4
330
477
100
AcDbDictionary
280
     1
281
     1
  3
ACAD_MLATT
360
C3E
  3
ACAD_XREC_ROUNDTRIP
360
C3D
  0
DICTIONARY
  5
AB7
330
478
100
AcDbDictionary
280
     1
281
     1
  3
ACAD_MLATT
360
C40
  3
ACAD_XREC_ROUNDTRIP
360
C3F
  0
DICTIONARY
  5
ABA
330
479
100
AcDbDictionary
280
     1
281
     1
  3
ACAD_MLATT
360
C42
  3
ACAD_XREC_ROUNDTRIP
360
C41
  0
DICTIONARY
  5
ABD
330
47A
100
AcDbDictionary
280
     1
281
     1
  3
ACAD_MLATT
360
C44
  3
ACAD_XREC_ROUNDTRIP
360
C43
  0
DICTIONARY
  5
AC0
330
47B
100
AcDbDictionary
280
     1
281
     1
  3
ACAD_MLATT
360
C46
  3
ACAD_XREC_ROUNDTRIP
360
C45
  0
DICTIONARY
  5
AC3
330
47C
100
AcDbDictionary
280
     1
281
     1
  3
ACAD_MLATT
360
C48
  3
ACAD_XREC_ROUNDTRIP
360
C47
  0
DICTIONARY
  5
AC6
330
47D
100
AcDbDictionary
280
     1
281
     1
  3
ACAD_MLATT
360
C4A
  3
ACAD_XREC_ROUNDTRIP
360
C49
  0
DICTIONARY
  5
AC9
330
47E
100
AcDbDictionary
280
     1
281
     1
  3
ACAD_MLATT
360
C4C
  3
ACAD_XREC_ROUNDTRIP
360
C4B
  0
DICTIONARY
  5
ACC
330
47F
100
AcDbDictionary
280
     1
281
     1
  3
ACAD_MLATT
360
C4E
  3
ACAD_XREC_ROUNDTRIP
360
C4D
  0
DICTIONARY
  5
C83
330
9B5
100
AcDbDictionary
280
     1
281
     1
  3
ACAD_MTEXT_RT
360
C84
  0
DICTIONARY
  5
C85
330
A6A
100
AcDbDictionary
280
     1
281
     1
  3
ACAD_MTEXT_RT
360
C86
  0
DICTIONARY
  5
6E
102
{ACAD_REACTORS
330
C
102
}
330
C
100
AcDbDictionary
281
     1
  0
DICTIONARY
  5
D
102
{ACAD_REACTORS
330
C
102
}
330
C
100
AcDbDictionary
281
     1
  0
DICTIONARY
  5
6D
102
{ACAD_REACTORS
330
C
102
}
330
C
100
AcDbDictionary
281
     1
  3
Layout1
350
76
  3
Layout2
350
7E
  3
Model
350
7A
  0
DICTIONARY
  5
10
102
{ACAD_REACTORS
330
C
102
}
330
C
100
AcDbDictionary
281
     1
  3
ByBlock
350
19
  3
ByLayer
350
11
  3
Global
350
21
  0
DICTIONARY
  5
71
102
{ACAD_REACTORS
330
C
102
}
330
C
100
AcDbDictionary
281
     1
  3
Standard
350
72
  0
DICTIONARY
  5
6A
102
{ACAD_REACTORS
330
C
102
}
330
C
100
AcDbDictionary
281
     1
  3
Standard
350
6B
  0
DICTIONARY
  5
6C
102
{ACAD_REACTORS
330
C
102
}
330
C
100
AcDbDictionary
281
     1
  0
ACDBDICTIONARYWDFLT
  5
E
102
{ACAD_REACTORS
330
C
102
}
330
C
100
AcDbDictionary
281
     1
  3
Normal
350
F
100
AcDbDictionaryWithDefault
340
F
  0
DICTIONARY
  5
3D
102
{ACAD_REACTORS
330
C
102
}
330
C
100
AcDbDictionary
281
     1
  3
A0
350
3E
  3
A1
350
3F
  3
A2
350
40
  3
A3
350
41
  3
A4
350
42
  3
A5
350
43
  3
A6
350
44
  3
A7
350
45
  3
A8
350
46
  3
A9
350
47
  3
B0
350
48
  3
B1
350
49
  3
B2
350
4A
  3
B3
350
4B
  3
B4
350
4C
  3
B5
350
4D
  3
B6
350
4E
  3
B7
350
4F
  3
B8
350
50
  3
B9
350
51
  3
C0
350
52
  3
C1
350
53
  3
C2
350
54
  3
C3
350
55
  3
C4
350
56
  3
C5
350
57
  3
C6
350
58
  3
C7
350
59
  3
C8
350
5A
  3
C9
350
5B
  3
D0
350
5C
  3
D1
350
5D
  3
D2
350
5E
  0
DICTIONARY
  5
6F
102
{ACAD_REACTORS
330
C
102
}
330
C
100
AcDbDictionary
281
     1
  3
Standard
350
70
  0
DICTIONARY
  5
29
102
{ACAD_REACTORS
330
C
102
}
330
C
100
AcDbDictionary
281
     1
  3
2dWireframe
350
2F
  3
3D Hidden
350
31
  3
3dWireframe
350
30
  3
Basic
350
2E
  3
Brighten
350
35
  3
ColorChange
350
39
  3
Conceptual
350
32
  3
Dim
350
34
  3
EdgeColorOff
350
3C
  3
Facepattern
350
38
  3
Flat
350
2A
  3
FlatWithEdges
350
2B
  3
Gouraud
350
2C
  3
GouraudWithEdges
350
2D
  3
JitterOff
350
3A
  3
Linepattern
350
37
  3
OverhangOff
350
3B
  3
Realistic
350
33
  3
Thicken
350
36
  0
XRECORD
  5
C4F
102
{ACAD_REACTORS
330
C
102
}
330
C
100
AcDbXrecord
280
     1
 90
        1
330
70
330
27F
330
282
330
284
330
286
330
287
330
288
330
289
330
467
330
468
330
46A
330
46C
330
46D
330
46E
330
46F
330
470
330
471
330
472
330
473
330
474
330
475
330
476
330
477
330
478
330
479
330
47A
330
47B
330
47C
330
47D
330
47E
330
47F
330
900
330
9B8
  0
DICTIONARY
  5
B5F
102
{ACAD_REACTORS
330
C
102
}
330
C
100
AcDbDictionary
281
     1
  3
CANNOSCALE
350
B63
  3
CMLEADERSTYLE
350
B61
  3
CTABLESTYLE
350
B60
  3
DIMASSOC
350
B6A
  3
HIDETEXT
350
B69
  3
INDEXCTL
350
B68
  3
LAYEREVAL
350
B65
  3
LAYERNOTIFY
350
B66
  3
LIGHTINGUNITS
350
B64
  3
MSLTSCALE
350
B62
  3
SORTENTS
350
B67
  3
XCLIPFRAME
350
C0F
  0
DICTIONARY
  5
BD1
102
{ACAD_REACTORS
330
C
102
}
330
C
100
AcDbDictionary
281
     1
  3
AcmStdDictionary
350
BDD
  0
DICTIONARY
  5
B7A
102
{ACAD_REACTORS
330
C
102
}
330
C
100
AcDbDictionary
281
     1
  0
DICTIONARY
  5
C08
102
{ACAD_REACTORS
330
C
102
}
330
C
100
AcDbDictionary
281
     1
  0
XRECORD
  5
C50
102
{ACAD_REACTORS
330
C
102
}
330
C
100
AcDbXrecord
280
     1
  1
DWGPROPS COOKIE
  2

  3

  4
PaoLor
  6

  7

  8
amenegon
  9

300
Responsabile=
301
Società=
302
Categoria=
303
Numero parte=252
304
Descrizione=
305
Progetto=
306
Progettista=PaoLor
307
Ingegnere=
308
Autorità=
309
Centro gestione costi=
 40
0.0003438078703704
 41
2456105.633949051
 42
2456105.645447685
  1

 90
       16
300
Fornitore=
300
Stato utente=
300
Stato progetto=In corso
300
Verificato da=
300
Progett. approvata da=
300
Prod. approvata da=
  0
XRECORD
  5
C12
102
{ACAD_REACTORS
330
A6F
102
}
330
A6F
100
AcDbXrecord
280
     1
 70
     4
 70
     0
 70
     0
 40
1.0
  2
DESCRIZIONE_1
  1
Embedded Object
 10
-93.49119398589706
 20
5.505471063720221
 30
0.0
 40
2.489199936389923
 41
106.9783856763648
 46
0.0
 71
     1
 72
     5
  1
MODIFICATO QUOTA DA 20 A 25
  7
Stile testo15
 73
     1
 44
1.0
  0
XRECORD
  5
C11
102
{ACAD_REACTORS
330
A6F
102
}
330
A6F
100
AcDbXrecord
280
     1
102
ACAD_MATT_HEIGHT
140
2.489199936389923
  0
XRECORD
  5
C14
102
{ACAD_REACTORS
330
A72
102
}
330
A72
100
AcDbXrecord
280
     1
 70
     4
 70
     0
 70
     0
 40
1.0
  2
DESCRIZIONE_2
  1
Embedded Object
 10
-93.56890635983567
 20
1.937379052550589
 30
0.0
 40
2.489199936389923
 41
106.0389395913541
 46
0.0
 71
     1
 72
     5
  1
MODIFICATO INTERASSE DA 80 A 90
  7
Stile testo15
 73
     1
 44
1.0
  0
XRECORD
  5
C13
102
{ACAD_REACTORS
330
A72
102
}
330
A72
100
AcDbXrecord
280
     1
102
ACAD_MATT_HEIGHT
140
2.489199936389923
  0
XRECORD
  5
C16
102
{ACAD_REACTORS
330
A75
102
}
330
A75
100
AcDbXrecord
280
     1
 70
     4
 70
     0
 70
     0
 40
1.0
  2
NR.REV
  1
Embedded Object
 10
17.21416714364988
 20
2.459098066293776
 30
0.0
 40
3.499999940395355
 41
5.795553091395007
 46
0.0
 71
     5
 72
     5
  1
\W0.9000;01
  7
Stile testo116
 73
     1
 44
1.0
  0
XRECORD
  5
C15
102
{ACAD_REACTORS
330
A75
102
}
330
A75
100
AcDbXrecord
280
     1
102
ACAD_MATT_HEIGHT
140
3.499999940395355
  0
XRECORD
  5
C1A
102
{ACAD_REACTORS
330
A7A
102
}
330
A7A
100
AcDbXrecord
280
     1
 70
     4
 70
     0
 70
     1
340
C17
 40
1.0
  2
DISEGNATO
  1
Embedded Object
 10
32.66124997243344
 20
4.468844212966427
 30
0.0
 40
2.489199936389923
 41
24.93167301252459
 46
0.0
 71
     5
 72
     5
  1
\W0.9000;FRIGETTO MAURO
  7
Stile testo115
 73
     1
 44
1.0
  0
XRECORD
  5
C19
102
{ACAD_REACTORS
330
A7A
102
}
330
A7A
100
AcDbXrecord
280
     1
102
ACAD_MATT_HEIGHT
140
2.489199936389923
  0
XRECORD
  5
C1C
102
{ACAD_REACTORS
330
A7D
102
}
330
A7D
100
AcDbXrecord
280
     1
 70
     4
 70
     0
 70
     0
 40
1.0
  2
DATA
  1
Embedded Object
 10
32.60244885683786
 20
0.4703683121771185
 30
0.0
 40
2.489199936389923
 41
24.99047412812017
 46
0.0
 71
     5
 72
     5
  1
12-12-01
  7
Stile testo15
 73
     1
 44
1.0
  0
XRECORD
  5
C1B
102
{ACAD_REACTORS
330
A7D
102
}
330
A7D
100
AcDbXrecord
280
     1
102
ACAD_MATT_HEIGHT
140
2.489199936389923
  0
XRECORD
  5
C1E
102
{ACAD_REACTORS
330
A80
102
}
330
A80
100
AcDbXrecord
280
     1
 70
     4
 70
     0
 70
     0
 40
1.0
  2
DATA
  1
Embedded Object
 10
57.6076232638568
 20
0.4850685912241559
 30
0.0
 40
2.489199936389923
 41
24.96107357032237
 46
0.0
 71
     5
 72
     5
  1
12-12-01
  7
Stile testo15
 73
     1
 44
1.0
  0
XRECORD
  5
C1D
102
{ACAD_REACTORS
330
A80
102
}
330
A80
100
AcDbXrecord
280
     1
102
ACAD_MATT_HEIGHT
140
2.489199936389923
  0
XRECORD
  5
C20
102
{ACAD_REACTORS
330
A83
102
}
330
A83
100
AcDbXrecord
280
     1
 70
     4
 70
     0
 70
     0
 40
1.0
  2
DATA
  1
Embedded Object
 10
82.5539965552803
 20
0.4703683121771541
 30
0.0
 40
2.489199936389923
 41
24.93167301252459
 46
0.0
 71
     5
 72
     5
  1
12-12-01
  7
Stile testo15
 73
     1
 44
1.0
  0
XRECORD
  5
C1F
102
{ACAD_REACTORS
330
A83
102
}
330
A83
100
AcDbXrecord
280
     1
102
ACAD_MATT_HEIGHT
140
2.489199936389923
  0
XRECORD
  5
C82
102
{ACAD_REACTORS
330
C81
102
}
330
C81
100
AcDbXrecord
280
     1
 40
567138.0
  1
\fArial|b0|i0;\H2.0066;Via Cassola , 64\P36027 Rosà (VI)\PITALY\PTel.0424/585111\PFax.0424/533417\Pwww.comunello.com
  0
XRECORD
  5
C22
102
{ACAD_REACTORS
330
A8A
102
}
330
A8A
100
AcDbXrecord
280
     1
 70
     4
 70
     0
 70
     0
 40
1.0
  2
Denominazione__1
  1
Embedded Object
 10
11.0
 20
66.5
 30
0.0
 40
2.006599903106689
 41
71.00000000000001
 46
0.0
 71
     1
 72
     5
  1
RULLO DI GUIDA L=240
  7
Stile testo6
 73
     1
 44
1.0
  0
XRECORD
  5
C21
102
{ACAD_REACTORS
330
A8A
102
}
330
A8A
100
AcDbXrecord
280
     1
102
ACAD_MATT_HEIGHT
140
2.006599903106689
  0
XRECORD
  5
C24
102
{ACAD_REACTORS
330
A8D
102
}
330
A8D
100
AcDbXrecord
280
     1
 70
     4
 70
     0
 70
     0
 40
1.0
  2
Denominazione_2
  1
Embedded Object
 10
11.0
 20
63.0
 30
0.0
 40
2.006599903106689
 41
71.00000000000001
 46
0.0
 71
     1
 72
     5
  1

  7
Stile testo6
 73
     1
 44
1.0
  0
XRECORD
  5
C23
102
{ACAD_REACTORS
330
A8D
102
}
330
A8D
100
AcDbXrecord
280
     1
102
ACAD_MATT_HEIGHT
140
2.006599903106689
  0
XRECORD
  5
C26
102
{ACAD_REACTORS
330
A90
102
}
330
A90
100
AcDbXrecord
280
     1
 70
     4
 70
     0
 70
     0
 40
1.0
  2
CODICE_DISEGNO
  1
Embedded Object
 10
97.25000000000001
 20
63.50000000000001
 30
0.0
 40
3.50519984960556
 41
28.5
 46
0.0
 71
     5
 72
     5
  1
\W0.7500;253-240
  7
Stile testo135
 73
     1
 44
1.0
  0
XRECORD
  5
C25
102
{ACAD_REACTORS
330
A90
102
}
330
A90
100
AcDbXrecord
280
     1
102
ACAD_MATT_HEIGHT
140
3.50519984960556
  0
XRECORD
  5
C28
102
{ACAD_REACTORS
330
A93
102
}
330
A93
100
AcDbXrecord
280
     1
 70
     4
 70
     0
 70
     0
 40
1.0
  2
Materiale_1
  1
Embedded Object
 10
144.75
 20
65.24632405268551
 30
0.0
 40
2.006599903106689
 41
63.50000000000001
 46
0.0
 71
     5
 72
     5
  1

  7
Stile testo6
 73
     1
 44
1.0
  0
XRECORD
  5
C27
102
{ACAD_REACTORS
330
A93
102
}
330
A93
100
AcDbXrecord
280
     1
102
ACAD_MATT_HEIGHT
140
2.006599903106689
  0
XRECORD
  5
C2A
102
{ACAD_REACTORS
330
A96
102
}
330
A96
100
AcDbXrecord
280
     1
 70
     4
 70
     0
 70
     0
 40
1.0
  2
Materiale_2
  1
Embedded Object
 10
144.809961390817
 20
61.5
 30
0.0
 40
2.006599903106689
 41
65.0
 46
0.0
 71
     5
 72
     5
  1

  7
Stile testo6
 73
     1
 44
1.0
  0
XRECORD
  5
C29
102
{ACAD_REACTORS
330
A96
102
}
330
A96
100
AcDbXrecord
280
     1
102
ACAD_MATT_HEIGHT
140
2.006599903106689
  0
XRECORD
  5
C2C
102
{ACAD_REACTORS
330
A99
102
}
330
A99
100
AcDbXrecord
280
     1
 70
     4
 70
     0
 70
     0
 40
1.0
  2
CODICE_MATERIALE
  1
Embedded Object
 10
188.5
 20
63.5
 30
0.0
 40
2.006599903106689
 41
23.00000000000001
 46
0.0
 71
     5
 72
     5
  1

  7
Stile testo6
 73
     1
 44
1.0
  0
XRECORD
  5
C2B
102
{ACAD_REACTORS
330
A99
102
}
330
A99
100
AcDbXrecord
280
     1
102
ACAD_MATT_HEIGHT
140
2.006599903106689
  0
XRECORD
  5
C2E
102
{ACAD_REACTORS
330
A9C
102
}
330
A9C
100
AcDbXrecord
280
     1
 70
     4
 70
     0
 70
     0
 40
1.0
  2
PESO_UNITARIO_KG
  1
Embedded Object
 10
97.05039695754834
 20
48.4920608646265
 30
0.0
 40
2.489199936389923
 41
26.99999999999999
 46
0.0
 71
     5
 72
     5
  1
0.999
  7
Stile testo15
 73
     1
 44
1.0
  0
XRECORD
  5
C2D
102
{ACAD_REACTORS
330
A9C
102
}
330
A9C
100
AcDbXrecord
280
     1
102
ACAD_MATT_HEIGHT
140
2.489199936389923
  0
XRECORD
  5
C30
102
{ACAD_REACTORS
330
A9F
102
}
330
A9F
100
AcDbXrecord
280
     1
 70
     4
 70
     0
 70
     0
 40
1.0
  2
TRATTAMENTO_1
  1
Embedded Object
 10
132.6521050609213
 20
53.48089266404504
 30
0.0
 40
2.489199936389923
 41
46.5
 46
0.0
 71
     1
 72
     5
  1
001 ZINCATO
  7
Stile testo15
 73
     1
 44
1.0
  0
XRECORD
  5
C2F
102
{ACAD_REACTORS
330
A9F
102
}
330
A9F
100
AcDbXrecord
280
     1
102
ACAD_MATT_HEIGHT
140
2.489199936389923
  0
XRECORD
  5
C32
102
{ACAD_REACTORS
330
AA2
102
}
330
AA2
100
AcDbXrecord
280
     1
 70
     4
 70
     0
 70
     0
 40
1.0
  2
TRATTAMENTO_2
  1
Embedded Object
 10
113.0632687693352
 20
49.98769965437094
 30
0.0
 40
2.489199936389923
 41
63.0
 46
0.0
 71
     1
 72
     5
  1

  7
Stile testo15
 73
     1
 44
1.0
  0
XRECORD
  5
C31
102
{ACAD_REACTORS
330
AA2
102
}
330
AA2
100
AcDbXrecord
280
     1
102
ACAD_MATT_HEIGHT
140
2.489199936389923
  0
XRECORD
  5
C34
102
{ACAD_REACTORS
330
AA5
102
}
330
AA5
100
AcDbXrecord
280
     1
 70
     4
 70
     0
 70
     0
 40
1.0
  2
COEFFICIENTE_D'IMPEGO
  1
Embedded Object
 10
188.5523258958931
 20
48.62644459325678
 30
0.0
 40
2.489199936389923
 41
21.00000000000001
 46
0.0
 71
     5
 72
     5
  1

  7
Stile testo15
 73
     1
 44
1.0
  0
XRECORD
  5
C33
102
{ACAD_REACTORS
330
AA5
102
}
330
AA5
100
AcDbXrecord
280
     1
102
ACAD_MATT_HEIGHT
140
2.489199936389923
  0
XRECORD
  5
C36
102
{ACAD_REACTORS
330
AA8
102
}
330
AA8
100
AcDbXrecord
280
     1
 70
     4
 70
     0
 70
     0
 40
1.0
  2
SCALA
  1
Embedded Object
 10
97.25000000000001
 20
41.0
 30
0.0
 40
2.489199936389923
 41
26.5
 46
0.0
 71
     5
 72
     5
  1
1:1
  7
Stile testo15
 73
     1
 44
1.0
  0
XRECORD
  5
C35
102
{ACAD_REACTORS
330
AA8
102
}
330
AA8
100
AcDbXrecord
280
     1
102
ACAD_MATT_HEIGHT
140
2.489199936389923
  0
XRECORD
  5
C38
102
{ACAD_REACTORS
330
AAB
102
}
330
AAB
100
AcDbXrecord
280
     1
 70
     4
 70
     0
 70
     0
 40
1.0
  2
FOGLIO
  1
Embedded Object
 10
119.1976741041069
 20
40.40294218049127
 30
0.0
 40
2.489199936389923
 41
13.50000000000001
 46
0.0
 71
     5
 72
     5
  1
A3
  7
Stile testo15
 73
     1
 44
1.0
  0
XRECORD
  5
C37
102
{ACAD_REACTORS
330
AAB
102
}
330
AAB
100
AcDbXrecord
280
     1
102
ACAD_MATT_HEIGHT
140
2.489199936389923
  0
XRECORD
  5
C3A
102
{ACAD_REACTORS
330
AAE
102
}
330
AAE
100
AcDbXrecord
280
     1
 70
     4
 70
     0
 70
     0
 40
1.0
  2
DISEGNATO
  1
Embedded Object
 10
127.5
 20
41.5
 30
0.0
 40
2.489199936389923
 41
31.5
 46
0.0
 71
     1
 72
     5
  1
LORENZETTI P.
  7
Stile testo15
 73
     1
 44
1.0
  0
XRECORD
  5
C39
102
{ACAD_REACTORS
330
AAE
102
}
330
AAE
100
AcDbXrecord
280
     1
102
ACAD_MATT_HEIGHT
140
2.489199936389923
  0
XRECORD
  5
C3C
102
{ACAD_REACTORS
330
AB1
102
}
330
AB1
100
AcDbXrecord
280
     1
 70
     4
 70
     0
 70
     0
 40
1.0
  2
DATA
  1
Embedded Object
 10
168.25
 20
40.5
 30
0.0
 40
2.489199936389923
 41
15.5
 46
0.0
 71
     5
 72
     5
  1
17/11/06
  7
Stile testo15
 73
     1
 44
1.0
  0
XRECORD
  5
C3B
102
{ACAD_REACTORS
330
AB1
102
}
330
AB1
100
AcDbXrecord
280
     1
102
ACAD_MATT_HEIGHT
140
2.489199936389923
  0
XRECORD
  5
C3E
102
{ACAD_REACTORS
330
AB4
102
}
330
AB4
100
AcDbXrecord
280
     1
 70
     4
 70
     0
 70
     0
 40
1.0
  2
DATA
  1
Embedded Object
 10
168.25
 20
32.75
 30
0.0
 40
2.489199936389923
 41
15.5
 46
0.0
 71
     5
 72
     5
  1
17/11/06
  7
Stile testo15
 73
     1
 44
1.0
  0
XRECORD
  5
C3D
102
{ACAD_REACTORS
330
AB4
102
}
330
AB4
100
AcDbXrecord
280
     1
102
ACAD_MATT_HEIGHT
140
2.489199936389923
  0
XRECORD
  5
C40
102
{ACAD_REACTORS
330
AB7
102
}
330
AB7
100
AcDbXrecord
280
     1
 70
     4
 70
     0
 70
     0
 40
1.0
  2
DATA
  1
Embedded Object
 10
168.25
 20
24.75
 30
0.0
 40
2.489199936389923
 41
15.5
 46
0.0
 71
     5
 72
     5
  1
17/11/06
  7
Stile testo15
 73
     1
 44
1.0
  0
XRECORD
  5
C3F
102
{ACAD_REACTORS
330
AB7
102
}
330
AB7
100
AcDbXrecord
280
     1
102
ACAD_MATT_HEIGHT
140
2.489199936389923
  0
XRECORD
  5
C42
102
{ACAD_REACTORS
330
ABA
102
}
330
ABA
100
AcDbXrecord
280
     1
 70
     4
 70
     0
 70
     0
 40
1.0
  2
NUMERO_ARTICOLO
  1
Embedded Object
 10
137.8158294861797
 20
21.53904977834278
 30
0.0
 40
2.489199936389923
 41
63.00000000000003
 46
0.0
 71
     1
 72
     5
  1
11305701  001
  7
Stile testo15
 73
     1
 44
1.0
  0
XRECORD
  5
C41
102
{ACAD_REACTORS
330
ABA
102
}
330
ABA
100
AcDbXrecord
280
     1
102
ACAD_MATT_HEIGHT
140
2.489199936389923
  0
XRECORD
  5
C44
102
{ACAD_REACTORS
330
ABD
102
}
330
ABD
100
AcDbXrecord
280
     1
 70
     4
 70
     0
 70
     0
 40
1.0
  2
NUMERO_ARTICOLO
  1
Embedded Object
 10
127.1848152468796
 20
17.63978885077316
 30
0.0
 40
2.489199936389923
 41
71.00000000000001
 46
0.0
 71
     1
 72
     5
  1

  7
Stile testo15
 73
     1
 44
1.0
  0
XRECORD
  5
C43
102
{ACAD_REACTORS
330
ABD
102
}
330
ABD
100
AcDbXrecord
280
     1
102
ACAD_MATT_HEIGHT
140
2.489199936389923
  0
XRECORD
  5
C46
102
{ACAD_REACTORS
330
AC0
102
}
330
AC0
100
AcDbXrecord
280
     1
 70
     4
 70
     0
 70
     0
 40
1.0
  2
ATTREZZAT._1
  1
Embedded Object
 10
188.5
 20
40.5
 30
0.0
 40
2.489199936389923
 41
21.00000000000001
 46
0.0
 71
     5
 72
     5
  1

  7
Stile testo15
 73
     1
 44
1.0
  0
XRECORD
  5
C45
102
{ACAD_REACTORS
330
AC0
102
}
330
AC0
100
AcDbXrecord
280
     1
102
ACAD_MATT_HEIGHT
140
2.489199936389923
  0
XRECORD
  5
C48
102
{ACAD_REACTORS
330
AC3
102
}
330
AC3
100
AcDbXrecord
280
     1
 70
     4
 70
     0
 70
     0
 40
1.0
  2
ATTREZZAT.2
  1
Embedded Object
 10
188.5
 20
32.5
 30
0.0
 40
2.489199936389923
 41
21.00000000000001
 46
0.0
 71
     5
 72
     5
  1

  7
Stile testo15
 73
     1
 44
1.0
  0
XRECORD
  5
C47
102
{ACAD_REACTORS
330
AC3
102
}
330
AC3
100
AcDbXrecord
280
     1
102
ACAD_MATT_HEIGHT
140
2.489199936389923
  0
XRECORD
  5
C4A
102
{ACAD_REACTORS
330
AC6
102
}
330
AC6
100
AcDbXrecord
280
     1
 70
     4
 70
     0
 70
     0
 40
1.0
  2
ATTREZZAT.3
  1
Embedded Object
 10
188.5
 20
24.5
 30
0.0
 40
2.489199936389923
 41
21.00000000000001
 46
0.0
 71
     5
 72
     5
  1

  7
Stile testo15
 73
     1
 44
1.0
  0
XRECORD
  5
C49
102
{ACAD_REACTORS
330
AC6
102
}
330
AC6
100
AcDbXrecord
280
     1
102
ACAD_MATT_HEIGHT
140
2.489199936389923
  0
XRECORD
  5
C4C
102
{ACAD_REACTORS
330
AC9
102
}
330
AC9
100
AcDbXrecord
280
     1
 70
     4
 70
     0
 70
     0
 40
1.0
  2
SOSTITUISCE_IL
  1
Embedded Object
 10
22.0
 20
41.0
 30
0.0
 40
2.489199936389923
 41
22.0
 46
0.0
 71
     5
 72
     5
  1

  7
Stile testo15
 73
     1
 44
1.0
  0
XRECORD
  5
C4B
102
{ACAD_REACTORS
330
AC9
102
}
330
AC9
100
AcDbXrecord
280
     1
102
ACAD_MATT_HEIGHT
140
2.489199936389923
  0
XRECORD
  5
C4E
102
{ACAD_REACTORS
330
ACC
102
}
330
ACC
100
AcDbXrecord
280
     1
 70
     4
 70
     0
 70
     0
 40
1.0
  2
SOSTITUITO_DAL
  1
Embedded Object
 10
46.5
 20
41.0
 30
0.0
 40
2.489199936389923
 41
22.0
 46
0.0
 71
     5
 72
     5
  1

  7
Stile testo15
 73
     1
 44
1.0
  0
XRECORD
  5
C4D
102
{ACAD_REACTORS
330
ACC
102
}
330
ACC
100
AcDbXrecord
280
     1
102
ACAD_MATT_HEIGHT
140
2.489199936389923
  0
XRECORD
  5
C84
102
{ACAD_REACTORS
330
C83
102
}
330
C83
100
AcDbXrecord
280
     1
 40
4473.0
  1
\A1;\U+22059
  0
XRECORD
  5
C86
102
{ACAD_REACTORS
330
C85
102
}
330
C85
100
AcDbXrecord
280
     1
 40
4473.0
  1
\A1;\U+22059
  0
LAYOUT
  5
76
102
{ACAD_XDICTIONARY
360
C7B
102
}
102
{ACAD_REACTORS
330
6D
102
}
330
6D
100
AcDbPlotSettings
  1

  2

  4

  6

 40
0.0
 41
0.0
 42
0.0
 43
0.0
 44
0.0
 45
0.0
 46
0.0
 47
0.0
 48
0.0
 49
0.0
140
0.0
141
0.0
142
1.0
143
1.0
 70
   688
 72
     0
 73
     0
 74
     5
  7

 75
    16
147
1.0
148
0.0
149
0.0
100
AcDbLayout
  1
Layout1
 70
     1
 71
     1
 10
0.0
 20
0.0
 11
420.0
 21
297.0
 12
0.0
 22
0.0
 32
0.0
 14
0.0
 24
0.0
 34
0.0
 15
420.0
 25
297.0
 35
0.0
146
0.0
 13
0.0
 23
0.0
 33
0.0
 16
1.0
 26
0.0
 36
0.0
 17
0.0
 27
1.0
 37
0.0
 76
     0
330
73
  0
LAYOUT
  5
7E
102
{ACAD_XDICTIONARY
360
C7F
102
}
102
{ACAD_REACTORS
330
6D
102
}
330
6D
100
AcDbPlotSettings
  1

  2

  4

  6

 40
0.0
 41
0.0
 42
0.0
 43
0.0
 44
0.0
 45
0.0
 46
0.0
 47
0.0
 48
0.0
 49
0.0
140
0.0
141
0.0
142
1.0
143
1.0
 70
   688
 72
     0
 73
     0
 74
     5
  7

 75
    16
147
1.0
148
0.0
149
0.0
100
AcDbLayout
  1
Layout2
 70
     1
 71
     2
 10
0.0
 20
0.0
 11
12.0
 21
9.0
 12
0.0
 22
0.0
 32
0.0
 14
0.0
 24
0.0
 34
0.0
 15
0.0
 25
0.0
 35
0.0
146
0.0
 13
0.0
 23
0.0
 33
0.0
 16
1.0
 26
0.0
 36
0.0
 17
0.0
 27
1.0
 37
0.0
 76
     0
330
7B
  0
LAYOUT
  5
7A
102
{ACAD_XDICTIONARY
360
C7D
102
}
102
{ACAD_REACTORS
330
6D
102
}
330
6D
100
AcDbPlotSettings
  1

  2

  4

  6

 40
0.0
 41
0.0
 42
0.0
 43
0.0
 44
0.0
 45
0.0
 46
0.0
 47
0.0
 48
0.0
 49
0.0
140
0.0
141
0.0
142
1.0
143
1.0
 70
  1712
 72
     0
 73
     0
 74
     0
  7

 75
     0
147
1.0
148
0.0
149
0.0
100
AcDbLayout
  1
Model
 70
     1
 71
     0
 10
0.0
 20
0.0
 11
12.0
 21
9.0
 12
0.0
 22
0.0
 32
0.0
 14
0.0
 24
0.0
 34
0.0
 15
0.0
 25
0.0
 35
0.0
146
0.0
 13
0.0
 23
0.0
 33
0.0
 16
1.0
 26
0.0
 36
0.0
 17
0.0
 27
1.0
 37
0.0
 76
     0
330
77
331
62
  0
MATERIAL
  5
19
102
{ACAD_XDICTIONARY
360
1A
102
}
102
{ACAD_REACTORS
330
10
102
}
330
10
100
AcDbMaterial
  1
ByBlock
 72
     0
 43
0.0208333333333333
 43
0.0
 43
0.0
 43
0.0
 43
0.0
 43
0.0208333333333333
 43
0.0
 43
0.0
 43
0.0
 43
0.0
 43
1.0
 43
0.0
 43
0.0
 43
0.0
 43
0.0
 43
1.0
 77
     0
 47
0.0208333333333333
 47
0.0
 47
0.0
 47
0.0
 47
0.0
 47
0.0208333333333333
 47
0.0
 47
0.0
 47
0.0
 47
0.0
 47
1.0
 47
0.0
 47
0.0
 47
0.0
 47
0.0
 47
1.0
171
     0
 49
0.0208333333333333
 49
0.0
 49
0.0
 49
0.0
 49
0.0
 49
0.0208333333333333
 49
0.0
 49
0.0
 49
0.0
 49
0.0
 49
1.0
 49
0.0
 49
0.0
 49
0.0
 49
0.0
 49
1.0
175
     0
142
0.0208333333333333
142
0.0
142
0.0
142
0.0
142
0.0
142
0.0208333333333333
142
0.0
142
0.0
142
0.0
142
0.0
142
1.0
142
0.0
142
0.0
142
0.0
142
0.0
142
1.0
179
     0
144
0.0208333333333333
144
0.0
144
0.0
144
0.0
144
0.0
144
0.0208333333333333
144
0.0
144
0.0
144
0.0
144
0.0
144
1.0
144
0.0
144
0.0
144
0.0
144
0.0
144
1.0
147
0.0208333333333333
147
0.0
147
0.0
147
0.0
147
0.0
147
0.0208333333333333
147
0.0
147
0.0
147
0.0
147
0.0
147
1.0
147
0.0
147
0.0
147
0.0
147
0.0
147
1.0
  0
MATERIAL
  5
11
102
{ACAD_XDICTIONARY
360
12
102
}
102
{ACAD_REACTORS
330
10
102
}
330
10
100
AcDbMaterial
  1
ByLayer
 72
     0
 43
0.0208333333333333
 43
0.0
 43
0.0
 43
0.0
 43
0.0
 43
0.0208333333333333
 43
0.0
 43
0.0
 43
0.0
 43
0.0
 43
1.0
 43
0.0
 43
0.0
 43
0.0
 43
0.0
 43
1.0
 77
     0
 47
0.0208333333333333
 47
0.0
 47
0.0
 47
0.0
 47
0.0
 47
0.0208333333333333
 47
0.0
 47
0.0
 47
0.0
 47
0.0
 47
1.0
 47
0.0
 47
0.0
 47
0.0
 47
0.0
 47
1.0
171
     0
 49
0.0208333333333333
 49
0.0
 49
0.0
 49
0.0
 49
0.0
 49
0.0208333333333333
 49
0.0
 49
0.0
 49
0.0
 49
0.0
 49
1.0
 49
0.0
 49
0.0
 49
0.0
 49
0.0
 49
1.0
175
     0
142
0.0208333333333333
142
0.0
142
0.0
142
0.0
142
0.0
142
0.0208333333333333
142
0.0
142
0.0
142
0.0
142
0.0
142
1.0
142
0.0
142
0.0
142
0.0
142
0.0
142
1.0
179
     0
144
0.0208333333333333
144
0.0
144
0.0
144
0.0
144
0.0
144
0.0208333333333333
144
0.0
144
0.0
144
0.0
144
0.0
144
1.0
144
0.0
144
0.0
144
0.0
144
0.0
144
1.0
147
0.0208333333333333
147
0.0
147
0.0
147
0.0
147
0.0
147
0.0208333333333333
147
0.0
147
0.0
147
0.0
147
0.0
147
1.0
147
0.0
147
0.0
147
0.0
147
0.0
147
1.0
  0
MATERIAL
  5
21
102
{ACAD_XDICTIONARY
360
22
102
}
102
{ACAD_REACTORS
330
10
102
}
330
10
100
AcDbMaterial
  1
Global
 72
     0
 43
0.0208333333333333
 43
0.0
 43
0.0
 43
0.0
 43
0.0
 43
0.0208333333333333
 43
0.0
 43
0.0
 43
0.0
 43
0.0
 43
1.0
 43
0.0
 43
0.0
 43
0.0
 43
0.0
 43
1.0
 77
     0
 47
0.0208333333333333
 47
0.0
 47
0.0
 47
0.0
 47
0.0
 47
0.0208333333333333
 47
0.0
 47
0.0
 47
0.0
 47
0.0
 47
1.0
 47
0.0
 47
0.0
 47
0.0
 47
0.0
 47
1.0
171
     0
 49
0.0208333333333333
 49
0.0
 49
0.0
 49
0.0
 49
0.0
 49
0.0208333333333333
 49
0.0
 49
0.0
 49
0.0
 49
0.0
 49
1.0
 49
0.0
 49
0.0
 49
0.0
 49
0.0
 49
1.0
175
     0
142
0.0208333333333333
142
0.0
142
0.0
142
0.0
142
0.0
142
0.0208333333333333
142
0.0
142
0.0
142
0.0
142
0.0
142
1.0
142
0.0
142
0.0
142
0.0
142
0.0
142
1.0
179
     0
144
0.0208333333333333
144
0.0
144
0.0
144
0.0
144
0.0
144
0.0208333333333333
144
0.0
144
0.0
144
0.0
144
0.0
144
1.0
144
0.0
144
0.0
144
0.0
144
0.0
144
1.0
147
0.0208333333333333
147
0.0
147
0.0
147
0.0
147
0.0
147
0.0208333333333333
147
0.0
147
0.0
147
0.0
147
0.0
147
1.0
147
0.0
147
0.0
147
0.0
147
0.0
147
1.0
  0
MLEADERSTYLE
  5
72
102
{ACAD_REACTORS
330
71
102
}
330
71
100
AcDbMLeaderStyle
170
     2
171
     1
172
     0
 90
        2
 40
0.0
 41
0.0
173
     1
 91
-1056964608
340
66
 92
       -2
290
     1
 42
0.09
291
     1
 43
0.36
  3
Standard
 44
0.18
300

342
60
174
     1
178
     6
175
     1
176
     0
 93
-1056964608
 45
0.18
292
     0
297
     0
 46
0.18
 94
-1056964608
 47
1.0
 49
1.0
140
1.0
293
     1
141
0.0
294
     1
177
     0
142
1.0
295
     0
296
     0
143
0.125
1001
ACAD_MLEADERVER
1070
     2
  0
MLINESTYLE
  5
6B
102
{ACAD_REACTORS
330
6A
102
}
330
6A
100
AcDbMlineStyle
  2
STANDARD
 70
     0
  3

 62
   256
 51
90.0
 52
90.0
 71
     2
 49
0.5
 62
   256
  6
BYLAYER
 49
-0.5
 62
   256
  6
BYLAYER
  0
ACDBPLACEHOLDER
  5
F
102
{ACAD_REACTORS
330
E
102
}
330
E
  0
SCALE
  5
3E
102
{ACAD_REACTORS
330
3D
102
}
330
3D
100
AcDbScale
 70
     0
300
1:1
140
1.0
141
1.0
290
     1
  0
SCALE
  5
3F
102
{ACAD_REACTORS
330
3D
102
}
330
3D
100
AcDbScale
 70
     0
300
1:2
140
1.0
141
2.0
290
     0
  0
SCALE
  5
40
102
{ACAD_REACTORS
330
3D
102
}
330
3D
100
AcDbScale
 70
     0
300
1:4
140
1.0
141
4.0
290
     0
  0
SCALE
  5
41
102
{ACAD_REACTORS
330
3D
102
}
330
3D
100
AcDbScale
 70
     0
300
1:5
140
1.0
141
5.0
290
     0
  0
SCALE
  5
42
102
{ACAD_REACTORS
330
3D
102
}
330
3D
100
AcDbScale
 70
     0
300
1:8
140
1.0
141
8.0
290
     0
  0
SCALE
  5
43
102
{ACAD_REACTORS
330
3D
102
}
330
3D
100
AcDbScale
 70
     0
300
1:10
140
1.0
141
10.0
290
     0
  0
SCALE
  5
44
102
{ACAD_REACTORS
330
3D
102
}
330
3D
100
AcDbScale
 70
     0
300
1:16
140
1.0
141
16.0
290
     0
  0
SCALE
  5
45
102
{ACAD_REACTORS
330
3D
102
}
330
3D
100
AcDbScale
 70
     0
300
1:20
140
1.0
141
20.0
290
     0
  0
SCALE
  5
46
102
{ACAD_REACTORS
330
3D
102
}
330
3D
100
AcDbScale
 70
     0
300
1:30
140
1.0
141
30.0
290
     0
  0
SCALE
  5
47
102
{ACAD_REACTORS
330
3D
102
}
330
3D
100
AcDbScale
 70
     0
300
1:40
140
1.0
141
40.0
290
     0
  0
SCALE
  5
48
102
{ACAD_REACTORS
330
3D
102
}
330
3D
100
AcDbScale
 70
     0
300
1:50
140
1.0
141
50.0
290
     0
  0
SCALE
  5
49
102
{ACAD_REACTORS
330
3D
102
}
330
3D
100
AcDbScale
 70
     0
300
1:100
140
1.0
141
100.0
290
     0
  0
SCALE
  5
4A
102
{ACAD_REACTORS
330
3D
102
}
330
3D
100
AcDbScale
 70
     0
300
2:1
140
2.0
141
1.0
290
     0
  0
SCALE
  5
4B
102
{ACAD_REACTORS
330
3D
102
}
330
3D
100
AcDbScale
 70
     0
300
4:1
140
4.0
141
1.0
290
     0
  0
SCALE
  5
4C
102
{ACAD_REACTORS
330
3D
102
}
330
3D
100
AcDbScale
 70
     0
300
8:1
140
8.0
141
1.0
290
     0
  0
SCALE
  5
4D
102
{ACAD_REACTORS
330
3D
102
}
330
3D
100
AcDbScale
 70
     0
300
10:1
140
10.0
141
1.0
290
     0
  0
SCALE
  5
4E
102
{ACAD_REACTORS
330
3D
102
}
330
3D
100
AcDbScale
 70
     0
300
100:1
140
100.0
141
1.0
290
     0
  0
SCALE
  5
4F
102
{ACAD_REACTORS
330
3D
102
}
330
3D
100
AcDbScale
 70
     0
300
1/128" = 1'-0"
140
0.0078125
141
12.0
290
     0
  0
SCALE
  5
50
102
{ACAD_REACTORS
330
3D
102
}
330
3D
100
AcDbScale
 70
     0
300
1/64" = 1'-0"
140
0.015625
141
12.0
290
     0
  0
SCALE
  5
51
102
{ACAD_REACTORS
330
3D
102
}
330
3D
100
AcDbScale
 70
     0
300
1/32" = 1'-0"
140
0.03125
141
12.0
290
     0
  0
SCALE
  5
52
102
{ACAD_REACTORS
330
3D
102
}
330
3D
100
AcDbScale
 70
     0
300
1/16" = 1'-0"
140
0.0625
141
12.0
290
     0
  0
SCALE
  5
53
102
{ACAD_REACTORS
330
3D
102
}
330
3D
100
AcDbScale
 70
     0
300
3/32" = 1'-0"
140
0.09375
141
12.0
290
     0
  0
SCALE
  5
54
102
{ACAD_REACTORS
330
3D
102
}
330
3D
100
AcDbScale
 70
     0
300
1/8" = 1'-0"
140
0.125
141
12.0
290
     0
  0
SCALE
  5
55
102
{ACAD_REACTORS
330
3D
102
}
330
3D
100
AcDbScale
 70
     0
300
3/16" = 1'-0"
140
0.1875
141
12.0
290
     0
  0
SCALE
  5
56
102
{ACAD_REACTORS
330
3D
102
}
330
3D
100
AcDbScale
 70
     0
300
1/4" = 1'-0"
140
0.25
141
12.0
290
     0
  0
SCALE
  5
57
102
{ACAD_REACTORS
330
3D
102
}
330
3D
100
AcDbScale
 70
     0
300
3/8" = 1'-0"
140
0.375
141
12.0
290
     0
  0
SCALE
  5
58
102
{ACAD_REACTORS
330
3D
102
}
330
3D
100
AcDbScale
 70
     0
300
1/2" = 1'-0"
140
0.5
141
12.0
290
     0
  0
SCALE
  5
59
102
{ACAD_REACTORS
330
3D
102
}
330
3D
100
AcDbScale
 70
     0
300
3/4" = 1'-0"
140
0.75
141
12.0
290
     0
  0
SCALE
  5
5A
102
{ACAD_REACTORS
330
3D
102
}
330
3D
100
AcDbScale
 70
     0
300
1" = 1'-0"
140
1.0
141
12.0
290
     0
  0
SCALE
  5
5B
102
{ACAD_REACTORS
330
3D
102
}
330
3D
100
AcDbScale
 70
     0
300
1-1/2" = 1'-0"
140
1.5
141
12.0
290
     0
  0
SCALE
  5
5C
102
{ACAD_REACTORS
330
3D
102
}
330
3D
100
AcDbScale
 70
     0
300
3" = 1'-0"
140
3.0
141
12.0
290
     0
  0
SCALE
  5
5D
102
{ACAD_REACTORS
330
3D
102
}
330
3D
100
AcDbScale
 70
     0
300
6" = 1'-0"
140
6.0
141
12.0
290
     0
  0
SCALE
  5
5E
102
{ACAD_REACTORS
330
3D
102
}
330
3D
100
AcDbScale
 70
     0
300
1'-0" = 1'-0"
140
12.0
141
12.0
290
     0
  0
TABLESTYLE
  5
70
102
{ACAD_XDICTIONARY
360
A6D
102
}
102
{ACAD_REACTORS
330
6F
102
}
330
6F
100
AcDbTableStyle
  3
Standard
 70
     0
 71
     0
 40
0.06
 41
0.06
280
     0
281
     0
  7
Standard
140
0.18
170
     2
 62
     0
 63
     7
283
     0
274
    -2
284
     1
 64
     0
275
    -2
285
     1
 65
     0
276
    -2
286
     1
 66
     0
277
    -2
287
     1
 67
     0
278
    -2
288
     1
 68
     0
279
    -2
289
     1
 69
     0
  7
Standard
140
0.25
170
     5
 62
     0
 63
     7
283
     0
274
    -2
284
     1
 64
     0
275
    -2
285
     1
 65
     0
276
    -2
286
     1
 66
     0
277
    -2
287
     1
 67
     0
278
    -2
288
     1
 68
     0
279
    -2
289
     1
 69
     0
  7
Standard
140
0.18
170
     5
 62
     0
 63
     7
283
     0
274
    -2
284
     1
 64
     0
275
    -2
285
     1
 65
     0
276
    -2
286
     1
 66
     0
277
    -2
287
     1
 67
     0
278
    -2
288
     1
 68
     0
279
    -2
289
     1
 69
     0
  0
VISUALSTYLE
  5
2F
102
{ACAD_XDICTIONARY
360
C5E
102
}
102
{ACAD_REACTORS
330
29
102
}
330
29
100
AcDbVisualStyle
  2
2dWireframe
 70
     4
 71
     0
 72
     2
 73
     0
 90
        0
 40
-0.6
 41
-30.0
 62
     5
 63
     7
 74
     1
 91
        4
 64
     7
 65
   257
 75
     1
175
     1
 42
1.0
 92
        0
 66
   257
 43
1.0
 76
     1
 77
     6
 78
     2
 67
     7
 79
     5
170
     0
171
     0
290
     0
174
     0
 93
        1
 44
0.0
173
     0
291
     0
 45
0.0
1001
ACAD
1000
AcDbSavedByObjectVersion
1070
     0
  0
VISUALSTYLE
  5
31
102
{ACAD_XDICTIONARY
360
C62
102
}
102
{ACAD_REACTORS
330
29
102
}
330
29
100
AcDbVisualStyle
  2
3D Hidden
 70
     6
 71
     1
 72
     2
 73
     2
 90
        0
 40
-0.6
 41
-30.0
 62
     5
 63
     7
 74
     2
 91
        2
 64
     7
 65
   257
 75
     2
175
     1
 42
179.0
 92
        0
 66
   257
 43
1.0
 76
     1
 77
     6
 78
     2
 67
     7
 79
     3
170
     0
171
     0
290
     0
174
     0
 93
        1
 44
0.0
173
     0
291
     0
 45
0.0
1001
ACAD
1000
AcDbSavedByObjectVersion
1070
     0
  0
VISUALSTYLE
  5
30
102
{ACAD_XDICTIONARY
360
C60
102
}
102
{ACAD_REACTORS
330
29
102
}
330
29
100
AcDbVisualStyle
  2
3dWireframe
 70
     5
 71
     0
 72
     2
 73
     0
 90
        0
 40
-0.6
 41
-30.0
 62
     5
 63
     7
 74
     1
 91
        4
 64
     7
 65
   257
 75
     1
175
     1
 42
1.0
 92
        0
 66
   257
 43
1.0
 76
     1
 77
     6
 78
     2
 67
     7
 79
     5
170
     0
171
     0
290
     0
174
     0
 93
        1
 44
0.0
173
     0
291
     0
 45
0.0
1001
ACAD
1000
AcDbSavedByObjectVersion
1070
     0
  0
VISUALSTYLE
  5
2E
102
{ACAD_XDICTIONARY
360
C5C
102
}
102
{ACAD_REACTORS
330
29
102
}
330
29
100
AcDbVisualStyle
  2
Basic
 70
     7
 71
     1
 72
     0
 73
     1
 90
        0
 40
-0.6
 41
-30.0
 62
     5
 63
     7
 74
     0
 91
        4
 64
     7
 65
   257
 75
     1
175
     1
 42
1.0
 92
        8
 66
     7
 43
1.0
 76
     1
 77
     6
 78
     2
 67
     7
 79
     5
170
     0
171
     0
290
     0
174
     0
 93
        1
 44
0.0
173
     0
291
     1
 45
0.0
1001
ACAD
1000
AcDbSavedByObjectVersion
1070
     0
  0
VISUALSTYLE
  5
35
102
{ACAD_XDICTIONARY
360
C6A
102
}
102
{ACAD_REACTORS
330
29
102
}
330
29
100
AcDbVisualStyle
  2
Brighten
 70
    12
 71
     2
 72
     2
 73
     0
 90
        0
 40
-0.6
 41
-30.0
 62
     5
 63
     7
 74
     1
 91
        4
 64
     7
 65
   257
 75
     1
175
     1
 42
1.0
 92
        8
 66
     7
 43
1.0
 76
     1
 77
     6
 78
     2
 67
     7
 79
     5
170
     0
171
     0
290
     0
174
     0
 93
        1
 44
50.0
173
     0
291
     1
 45
0.0
1001
ACAD
1000
AcDbSavedByObjectVersion
1070
     0
  0
VISUALSTYLE
  5
39
102
{ACAD_XDICTIONARY
360
C72
102
}
102
{ACAD_REACTORS
330
29
102
}
330
29
100
AcDbVisualStyle
  2
ColorChange
 70
    16
 71
     2
 72
     2
 73
     3
 90
        0
 40
-0.6
 41
-30.0
 62
     5
 63
     8
 74
     1
 91
        4
 64
     7
 65
   257
 75
     1
175
     1
 42
1.0
 92
        8
 66
     8
 43
1.0
 76
     1
 77
     6
 78
     2
 67
     7
 79
     5
170
     0
171
     0
290
     0
174
     0
 93
        1
 44
0.0
173
     0
291
     1
 45
0.0
1001
ACAD
1000
AcDbSavedByObjectVersion
1070
     0
  0
VISUALSTYLE
  5
32
102
{ACAD_XDICTIONARY
360
C64
102
}
102
{ACAD_REACTORS
330
29
102
}
330
29
100
AcDbVisualStyle
  2
Conceptual
 70
     9
 71
     3
 72
     2
 73
     0
 90
        0
 40
-0.6
 41
-30.0
 62
     5
 63
     7
 74
     2
 91
        2
 64
     7
 65
   257
 75
     1
175
     1
 42
179.0
 92
        8
 66
     7
 43
1.0
 76
     1
 77
     6
 78
     2
 67
     7
 79
     3
170
     0
171
     0
290
     0
174
     0
 93
        1
 44
0.0
173
     0
291
     0
 45
0.0
1001
ACAD
1000
AcDbSavedByObjectVersion
1070
     0
  0
VISUALSTYLE
  5
34
102
{ACAD_XDICTIONARY
360
C68
102
}
102
{ACAD_REACTORS
330
29
102
}
330
29
100
AcDbVisualStyle
  2
Dim
 70
    11
 71
     2
 72
     2
 73
     0
 90
        0
 40
-0.6
 41
-30.0
 62
     5
 63
     7
 74
     1
 91
        4
 64
     7
 65
   257
 75
     1
175
     1
 42
1.0
 92
        8
 66
     7
 43
1.0
 76
     1
 77
     6
 78
     2
 67
     7
 79
     5
170
     0
171
     0
290
     0
174
     0
 93
        1
 44
-50.0
173
     0
291
     1
 45
0.0
1001
ACAD
1000
AcDbSavedByObjectVersion
1070
     0
  0
VISUALSTYLE
  5
3C
102
{ACAD_XDICTIONARY
360
C78
102
}
102
{ACAD_REACTORS
330
29
102
}
330
29
100
AcDbVisualStyle
  2
EdgeColorOff
 70
    22
 71
     2
 72
     2
 73
     0
 90
        0
 40
-0.6
 41
-30.0
 62
     5
 63
     7
 74
     1
 91
        4
 64
     7
 65
   257
 75
     1
175
     1
 42
1.0
 92
        8
 66
     7
 43
1.0
 76
     1
 77
     6
 78
     2
 67
     7
 79
     5
170
     0
171
     0
290
     0
174
     0
 93
        1
 44
0.0
173
     0
291
     1
 45
0.0
1001
ACAD
1000
AcDbSavedByObjectVersion
1070
     0
  0
VISUALSTYLE
  5
38
102
{ACAD_XDICTIONARY
360
C70
102
}
102
{ACAD_REACTORS
330
29
102
}
330
29
100
AcDbVisualStyle
  2
Facepattern
 70
    15
 71
     2
 72
     2
 73
     0
 90
        0
 40
-0.6
 41
-30.0
 62
     5
 63
     7
 74
     1
 91
        4
 64
     7
 65
   257
 75
     1
175
     1
 42
1.0
 92
        8
 66
     7
 43
1.0
 76
     1
 77
     6
 78
     2
 67
     7
 79
     5
170
     0
171
     0
290
     0
174
     0
 93
        1
 44
0.0
173
     0
291
     1
 45
0.0
1001
ACAD
1000
AcDbSavedByObjectVersion
1070
     0
  0
VISUALSTYLE
  5
2A
102
{ACAD_XDICTIONARY
360
C54
102
}
102
{ACAD_REACTORS
330
29
102
}
330
29
100
AcDbVisualStyle
  2
Flat
 70
     0
 71
     2
 72
     1
 73
     1
 90
        2
 40
-0.6
 41
30.0
 62
     5
 63
     7
 74
     0
 91
        4
 64
     7
 65
   257
 75
     1
175
     1
 42
1.0
 92
        8
 66
     7
 43
1.0
 76
     1
 77
     6
 78
     2
 67
     7
 79
     5
170
     0
171
     0
290
     0
174
     0
 93
       13
 44
0.0
173
     0
291
     1
 45
0.0
1001
ACAD
1000
AcDbSavedByObjectVersion
1070
     0
  0
VISUALSTYLE
  5
2B
102
{ACAD_XDICTIONARY
360
C56
102
}
102
{ACAD_REACTORS
330
29
102
}
330
29
100
AcDbVisualStyle
  2
FlatWithEdges
 70
     1
 71
     2
 72
     1
 73
     1
 90
        2
 40
-0.6
 41
30.0
 62
     5
 63
     7
 74
     1
 91
        4
 64
     7
 65
   257
 75
     1
175
     1
 42
1.0
 92
        0
 66
   257
 43
1.0
 76
     1
 77
     6
 78
     2
 67
     7
 79
     5
170
     0
171
     0
290
     0
174
     0
 93
       13
 44
0.0
173
     0
291
     1
 45
0.0
1001
ACAD
1000
AcDbSavedByObjectVersion
1070
     0
  0
VISUALSTYLE
  5
2C
102
{ACAD_XDICTIONARY
360
C58
102
}
102
{ACAD_REACTORS
330
29
102
}
330
29
100
AcDbVisualStyle
  2
Gouraud
 70
     2
 71
     2
 72
     2
 73
     1
 90
        2
 40
-0.6
 41
30.0
 62
     5
 63
     7
 74
     0
 91
        4
 64
     7
 65
   257
 75
     1
175
     1
 42
1.0
 92
        0
 66
     7
 43
1.0
 76
     1
 77
     6
 78
     2
 67
     7
 79
     5
170
     0
171
     0
290
     0
174
     0
 93
       13
 44
0.0
173
     0
291
     1
 45
0.0
1001
ACAD
1000
AcDbSavedByObjectVersion
1070
     0
  0
VISUALSTYLE
  5
2D
102
{ACAD_XDICTIONARY
360
C5A
102
}
102
{ACAD_REACTORS
330
29
102
}
330
29
100
AcDbVisualStyle
  2
GouraudWithEdges
 70
     3
 71
     2
 72
     2
 73
     1
 90
        2
 40
-0.6
 41
30.0
 62
     5
 63
     7
 74
     1
 91
        4
 64
     7
 65
   257
 75
     1
175
     1
 42
1.0
 92
        0
 66
   257
 43
1.0
 76
     1
 77
     6
 78
     2
 67
     7
 79
     5
170
     0
171
     0
290
     0
174
     0
 93
       13
 44
0.0
173
     0
291
     1
 45
0.0
1001
ACAD
1000
AcDbSavedByObjectVersion
1070
     0
  0
VISUALSTYLE
  5
3A
102
{ACAD_XDICTIONARY
360
C74
102
}
102
{ACAD_REACTORS
330
29
102
}
330
29
100
AcDbVisualStyle
  2
JitterOff
 70
    20
 71
     2
 72
     2
 73
     0
 90
        0
 40
-0.6
 41
-30.0
 62
     5
 63
     7
 74
     1
 91
        4
 64
     7
 65
   257
 75
     1
175
     1
 42
1.0
 92
       10
 66
     7
 43
1.0
 76
     1
 77
     6
 78
     2
 67
     7
 79
     5
170
     0
171
     0
290
     0
174
     0
 93
        1
 44
0.0
173
     0
291
     1
 45
0.0
1001
ACAD
1000
AcDbSavedByObjectVersion
1070
     0
  0
VISUALSTYLE
  5
37
102
{ACAD_XDICTIONARY
360
C6E
102
}
102
{ACAD_REACTORS
330
29
102
}
330
29
100
AcDbVisualStyle
  2
Linepattern
 70
    14
 71
     2
 72
     2
 73
     0
 90
        0
 40
-0.6
 41
-30.0
 62
     5
 63
     7
 74
     1
 91
        4
 64
     7
 65
   257
 75
     7
175
     7
 42
1.0
 92
        8
 66
     7
 43
1.0
 76
     1
 77
     6
 78
     2
 67
     7
 79
     5
170
     0
171
     0
290
     0
174
     0
 93
        1
 44
0.0
173
     0
291
     1
 45
0.0
1001
ACAD
1000
AcDbSavedByObjectVersion
1070
     0
  0
VISUALSTYLE
  5
3B
102
{ACAD_XDICTIONARY
360
C76
102
}
102
{ACAD_REACTORS
330
29
102
}
330
29
100
AcDbVisualStyle
  2
OverhangOff
 70
    21
 71
     2
 72
     2
 73
     0
 90
        0
 40
-0.6
 41
-30.0
 62
     5
 63
     7
 74
     1
 91
        4
 64
     7
 65
   257
 75
     1
175
     1
 42
1.0
 92
        9
 66
     7
 43
1.0
 76
     1
 77
     6
 78
     2
 67
     7
 79
     5
170
     0
171
     0
290
     0
174
     0
 93
        1
 44
0.0
173
     0
291
     1
 45
0.0
1001
ACAD
1000
AcDbSavedByObjectVersion
1070
     0
  0
VISUALSTYLE
  5
33
102
{ACAD_XDICTIONARY
360
C66
102
}
102
{ACAD_REACTORS
330
29
102
}
330
29
100
AcDbVisualStyle
  2
Realistic
 70
     8
 71
     2
 72
     2
 73
     0
 90
        0
 40
-0.6
 41
-30.0
 62
     5
 63
     7
 74
     1
 91
        0
 64
     7
 65
   257
 75
     1
175
     1
 42
1.0
 92
        8
 66
     8
 43
1.0
 76
     1
 77
     6
 78
     2
 67
     7
 79
     5
170
     0
171
     0
290
     0
174
     0
 93
       13
 44
0.0
173
     0
291
     0
 45
0.0
1001
ACAD
1000
AcDbSavedByObjectVersion
1070
     0
  0
VISUALSTYLE
  5
36
102
{ACAD_XDICTIONARY
360
C6C
102
}
102
{ACAD_REACTORS
330
29
102
}
330
29
100
AcDbVisualStyle
  2
Thicken
 70
    13
 71
     2
 72
     2
 73
     0
 90
        0
 40
-0.6
 41
-30.0
 62
     5
 63
     7
 74
     1
 91
        4
 64
     7
 65
   257
 75
     1
175
     1
 42
1.0
 92
       12
 66
     7
 43
1.0
 76
     1
 77
     6
 78
     2
 67
     7
 79
     5
170
     0
171
     0
290
     0
174
     0
 93
        1
 44
0.0
173
     0
291
     1
 45
0.0
1001
ACAD
1000
AcDbSavedByObjectVersion
1070
     0
  0
DICTIONARYVAR
  5
B63
102
{ACAD_REACTORS
330
B5F
102
}
330
B5F
100
DictionaryVariables
280
     0
  1
1:1
  0
DICTIONARYVAR
  5
B61
102
{ACAD_REACTORS
330
B5F
102
}
330
B5F
100
DictionaryVariables
280
     0
  1
STANDARD
  0
DICTIONARYVAR
  5
B60
102
{ACAD_REACTORS
330
B5F
102
}
330
B5F
100
DictionaryVariables
280
     0
  1
STANDARD
  0
DICTIONARYVAR
  5
B6A
102
{ACAD_REACTORS
330
B5F
102
}
330
B5F
100
DictionaryVariables
280
     0
  1
1
  0
DICTIONARYVAR
  5
B69
102
{ACAD_REACTORS
330
B5F
102
}
330
B5F
100
DictionaryVariables
280
     0
  1
1
  0
DICTIONARYVAR
  5
B68
102
{ACAD_REACTORS
330
B5F
102
}
330
B5F
100
DictionaryVariables
280
     0
  1
0
  0
DICTIONARYVAR
  5
B65
102
{ACAD_REACTORS
330
B5F
102
}
330
B5F
100
DictionaryVariables
280
     0
  1
0
  0
DICTIONARYVAR
  5
B66
102
{ACAD_REACTORS
330
B5F
102
}
330
B5F
100
DictionaryVariables
280
     0
  1
0
  0
DICTIONARYVAR
  5
B64
102
{ACAD_REACTORS
330
B5F
102
}
330
B5F
100
DictionaryVariables
280
     0
  1
2
  0
DICTIONARYVAR
  5
B62
102
{ACAD_REACTORS
330
B5F
102
}
330
B5F
100
DictionaryVariables
280
     0
  1
1
  0
DICTIONARYVAR
  5
B67
102
{ACAD_REACTORS
330
B5F
102
}
330
B5F
100
DictionaryVariables
280
     0
  1
127
  0
DICTIONARYVAR
  5
C0F
102
{ACAD_REACTORS
330
B5F
102
}
330
B5F
100
DictionaryVariables
280
     0
  1
2
  0
DICTIONARY
  5
BDD
102
{ACAD_REACTORS
330
BD1
102
}
330
BD1
100
AcDbDictionary
281
     1
  0
DICTIONARY
  5
C7B
330
76
100
AcDbDictionary
280
     1
281
     1
  3
ACAD_XREC_ROUNDTRIP
360
C7C
  0
DICTIONARY
  5
C7F
330
7E
100
AcDbDictionary
280
     1
281
     1
  3
ACAD_XREC_ROUNDTRIP
360
C80
  0
DICTIONARY
  5
C7D
330
7A
100
AcDbDictionary
280
     1
281
     1
  3
ACAD_XREC_ROUNDTRIP
360
C7E
  0
DICTIONARY
  5
1A
330
19
100
AcDbDictionary
280
     1
281
     1
  3
ACAD_XREC_ROUNDTRIP
360
C52
  3
BUMPTILE
360
1C
  3
DIFFUSETILE
360
1B
  3
OPACITYTILE
360
1F
  3
REFLECTIONTILE
360
1E
  3
REFRACTIONTILE
360
20
  3
SPECULARTILE
360
1D
  0
DICTIONARY
  5
12
330
11
100
AcDbDictionary
280
     1
281
     1
  3
ACAD_XREC_ROUNDTRIP
360
C51
  3
BUMPTILE
360
14
  3
DIFFUSETILE
360
13
  3
OPACITYTILE
360
17
  3
REFLECTIONTILE
360
16
  3
REFRACTIONTILE
360
18
  3
SPECULARTILE
360
15
  0
DICTIONARY
  5
22
330
21
100
AcDbDictionary
280
     1
281
     1
  3
ACAD_XREC_ROUNDTRIP
360
C53
  3
BUMPTILE
360
24
  3
DIFFUSETILE
360
23
  3
OPACITYTILE
360
27
  3
REFLECTIONTILE
360
26
  3
REFRACTIONTILE
360
28
  3
SPECULARTILE
360
25
  0
DICTIONARY
  5
A6D
330
70
100
AcDbDictionary
280
     1
281
     1
  3
ACAD_ROUNDTRIP_2008_TABLESTYLE_CELLSTYLEMAP
360
C10
  3
ACAD_XREC_ROUNDTRIP
360
C7A
  0
DICTIONARY
  5
C5E
330
2F
100
AcDbDictionary
280
     1
281
     1
  3
ACAD_XREC_ROUNDTRIP
360
C5F
  0
DICTIONARY
  5
C62
330
31
100
AcDbDictionary
280
     1
281
     1
  3
ACAD_XREC_ROUNDTRIP
360
C63
  0
DICTIONARY
  5
C60
330
30
100
AcDbDictionary
280
     1
281
     1
  3
ACAD_XREC_ROUNDTRIP
360
C61
  0
DICTIONARY
  5
C5C
330
2E
100
AcDbDictionary
280
     1
281
     1
  3
ACAD_XREC_ROUNDTRIP
360
C5D
  0
DICTIONARY
  5
C6A
330
35
100
AcDbDictionary
280
     1
281
     1
  3
ACAD_XREC_ROUNDTRIP
360
C6B
  0
DICTIONARY
  5
C72
330
39
100
AcDbDictionary
280
     1
281
     1
  3
ACAD_XREC_ROUNDTRIP
360
C73
  0
DICTIONARY
  5
C64
330
32
100
AcDbDictionary
280
     1
281
     1
  3
ACAD_XREC_ROUNDTRIP
360
C65
  0
DICTIONARY
  5
C68
330
34
100
AcDbDictionary
280
     1
281
     1
  3
ACAD_XREC_ROUNDTRIP
360
C69
  0
DICTIONARY
  5
C78
330
3C
100
AcDbDictionary
280
     1
281
     1
  3
ACAD_XREC_ROUNDTRIP
360
C79
  0
DICTIONARY
  5
C70
330
38
100
AcDbDictionary
280
     1
281
     1
  3
ACAD_XREC_ROUNDTRIP
360
C71
  0
DICTIONARY
  5
C54
330
2A
100
AcDbDictionary
280
     1
281
     1
  3
ACAD_XREC_ROUNDTRIP
360
C55
  0
DICTIONARY
  5
C56
330
2B
100
AcDbDictionary
280
     1
281
     1
  3
ACAD_XREC_ROUNDTRIP
360
C57
  0
DICTIONARY
  5
C58
330
2C
100
AcDbDictionary
280
     1
281
     1
  3
ACAD_XREC_ROUNDTRIP
360
C59
  0
DICTIONARY
  5
C5A
330
2D
100
AcDbDictionary
280
     1
281
     1
  3
ACAD_XREC_ROUNDTRIP
360
C5B
  0
DICTIONARY
  5
C74
330
3A
100
AcDbDictionary
280
     1
281
     1
  3
ACAD_XREC_ROUNDTRIP
360
C75
  0
DICTIONARY
  5
C6E
330
37
100
AcDbDictionary
280
     1
281
     1
  3
ACAD_XREC_ROUNDTRIP
360
C6F
  0
DICTIONARY
  5
C76
330
3B
100
AcDbDictionary
280
     1
281
     1
  3
ACAD_XREC_ROUNDTRIP
360
C77
  0
DICTIONARY
  5
C66
330
33
100
AcDbDictionary
280
     1
281
     1
  3
ACAD_XREC_ROUNDTRIP
360
C67
  0
DICTIONARY
  5
C6C
330
36
100
AcDbDictionary
280
     1
281
     1
  3
ACAD_XREC_ROUNDTRIP
360
C6D
  0
XRECORD
  5
C7C
102
{ACAD_REACTORS
330
C7B
102
}
330
C7B
100
AcDbXrecord
280
     1
102
SHADEPLOT
 70
     0
102
SHADEPLOTRESLEVEL
 70
     2
102
SHADEPLOTCUSTOMDPI
 70
   300
  0
XRECORD
  5
C80
102
{ACAD_REACTORS
330
C7F
102
}
330
C7F
100
AcDbXrecord
280
     1
102
SHADEPLOT
 70
     0
102
SHADEPLOTRESLEVEL
 70
     2
102
SHADEPLOTCUSTOMDPI
 70
   300
  0
XRECORD
  5
C7E
102
{ACAD_REACTORS
330
C7D
102
}
330
C7D
100
AcDbXrecord
280
     1
102
SHADEPLOT
 70
     0
102
SHADEPLOTRESLEVEL
 70
     2
102
SHADEPLOTCUSTOMDPI
 70
   300
  0
XRECORD
  5
C52
102
{ACAD_REACTORS
330
1A
102
}
330
1A
100
AcDbXrecord
280
     1
102
MATERIAL
148
0.0
149
0.0
149
0.0
 93
        0
 94
      127
282
     0
 72
     0
 77
     0
171
     0
175
     0
179
     0
273
     0
  0
XRECORD
  5
1C
102
{ACAD_REACTORS
330
1A
102
}
330
1A
100
AcDbXrecord
280
     1
270
     1
271
     1
  0
XRECORD
  5
1B
102
{ACAD_REACTORS
330
1A
102
}
330
1A
100
AcDbXrecord
280
     1
270
     1
271
     1
  0
XRECORD
  5
1F
102
{ACAD_REACTORS
330
1A
102
}
330
1A
100
AcDbXrecord
280
     1
270
     1
271
     1
  0
XRECORD
  5
1E
102
{ACAD_REACTORS
330
1A
102
}
330
1A
100
AcDbXrecord
280
     1
270
     1
271
     1
  0
XRECORD
  5
20
102
{ACAD_REACTORS
330
1A
102
}
330
1A
100
AcDbXrecord
280
     1
270
     1
271
     1
  0
XRECORD
  5
1D
102
{ACAD_REACTORS
330
1A
102
}
330
1A
100
AcDbXrecord
280
     1
270
     1
271
     1
  0
XRECORD
  5
C51
102
{ACAD_REACTORS
330
12
102
}
330
12
100
AcDbXrecord
280
     1
102
MATERIAL
148
0.0
149
0.0
149
0.0
 93
        0
 94
      127
282
     0
 72
     0
 77
     0
171
     0
175
     0
179
     0
273
     0
  0
XRECORD
  5
14
102
{ACAD_REACTORS
330
12
102
}
330
12
100
AcDbXrecord
280
     1
270
     1
271
     1
  0
XRECORD
  5
13
102
{ACAD_REACTORS
330
12
102
}
330
12
100
AcDbXrecord
280
     1
270
     1
271
     1
  0
XRECORD
  5
17
102
{ACAD_REACTORS
330
12
102
}
330
12
100
AcDbXrecord
280
     1
270
     1
271
     1
  0
XRECORD
  5
16
102
{ACAD_REACTORS
330
12
102
}
330
12
100
AcDbXrecord
280
     1
270
     1
271
     1
  0
XRECORD
  5
18
102
{ACAD_REACTORS
330
12
102
}
330
12
100
AcDbXrecord
280
     1
270
     1
271
     1
  0
XRECORD
  5
15
102
{ACAD_REACTORS
330
12
102
}
330
12
100
AcDbXrecord
280
     1
270
     1
271
     1
  0
XRECORD
  5
C53
102
{ACAD_REACTORS
330
22
102
}
330
22
100
AcDbXrecord
280
     1
102
MATERIAL
148
0.0
149
0.0
149
0.0
 93
        0
 94
      127
282
     0
 72
     0
 77
     0
171
     0
175
     0
179
     0
273
     0
  0
XRECORD
  5
24
102
{ACAD_REACTORS
330
22
102
}
330
22
100
AcDbXrecord
280
     1
270
     1
271
     1
  0
XRECORD
  5
23
102
{ACAD_REACTORS
330
22
102
}
330
22
100
AcDbXrecord
280
     1
270
     1
271
     1
  0
XRECORD
  5
27
102
{ACAD_REACTORS
330
22
102
}
330
22
100
AcDbXrecord
280
     1
270
     1
271
     1
  0
XRECORD
  5
26
102
{ACAD_REACTORS
330
22
102
}
330
22
100
AcDbXrecord
280
     1
270
     1
271
     1
  0
XRECORD
  5
28
102
{ACAD_REACTORS
330
22
102
}
330
22
100
AcDbXrecord
280
     1
270
     1
271
     1
  0
XRECORD
  5
25
102
{ACAD_REACTORS
330
22
102
}
330
22
100
AcDbXrecord
280
     1
270
     1
271
     1
  0
CELLSTYLEMAP
  5
C10
102
{ACAD_REACTORS
330
A6D
102
}
330
A6D
100
AcDbCellStyleMap
 90
        3
300
CELLSTYLE
  1
TABLEFORMAT_BEGIN
 90
        5
170
     1
 91
        0
 92
    32768
 62
   257
 93
        1
300
CONTENTFORMAT
  1
CONTENTFORMAT_BEGIN
 90
        0
 91
        0
 92
      512
 93
        0
300

 40
0.0
140
1.0
 94
        5
 62
     0
340
60
144
0.25
309
CONTENTFORMAT_END
171
     0
 94
        0
309
TABLEFORMAT_END
  1
CELLSTYLE_BEGIN
 90
        1
 91
        1
300
_TITLE
309
CELLSTYLE_END
300
CELLSTYLE
  1
TABLEFORMAT_BEGIN
 90
        5
170
     1
 91
        0
 92
        0
 62
   257
 93
        1
300
CONTENTFORMAT
  1
CONTENTFORMAT_BEGIN
 90
        0
 91
        0
 92
      512
 93
        0
300

 40
0.0
140
1.0
 94
        5
 62
     0
340
60
144
0.18
309
CONTENTFORMAT_END
171
     0
 94
        0
309
TABLEFORMAT_END
  1
CELLSTYLE_BEGIN
 90
        2
 91
        1
300
_HEADER
309
CELLSTYLE_END
300
CELLSTYLE
  1
TABLEFORMAT_BEGIN
 90
        5
170
     1
 91
        0
 92
        0
 62
   257
 93
        1
300
CONTENTFORMAT
  1
CONTENTFORMAT_BEGIN
 90
        0
 91
        0
 92
      512
 93
        0
300

 40
0.0
140
1.0
 94
        2
 62
     0
340
60
144
0.18
309
CONTENTFORMAT_END
171
     0
 94
        0
309
TABLEFORMAT_END
  1
CELLSTYLE_BEGIN
 90
        3
 91
        2
300
_DATA
309
CELLSTYLE_END
  0
XRECORD
  5
C7A
102
{ACAD_REACTORS
330
A6D
102
}
330
A6D
100
AcDbXrecord
280
     1
102
ACAD_ROUNDTRIP_PRE2007_TABLESTYLE
 90
      512
 91
        0
  1

 92
      512
 93
        0
  2

 94
      512
 95
        0
  3

  0
XRECORD
  5
C5F
102
{ACAD_REACTORS
330
C5E
102
}
330
C5E
100
AcDbXrecord
280
     1
102
RTVSPropertyOp0
 70
     1
102
RTVSPropertyOp1
 70
     1
102
RTVSPropertyOp2
 70
     1
102
RTVSPropertyOp3
 70
     1
102
RTVSPropertyOp4
 70
     1
102
RTVSPropertyOp5
 70
     1
102
RTVSPropertyOp6
 70
     1
102
RTVSPropertyOp7
 70
     1
102
RTVSPropertyOp8
 70
     1
102
RTVSPropertyOp9
 70
     1
102
RTVSPropertyOp10
 70
     1
102
RTVSPropertyOp11
 70
     1
102
RTVSPropertyOp12
 70
     1
102
RTVSPropertyOp13
 70
     1
102
RTVSPropertyOp14
 70
     1
102
RTVSPropertyOp15
 70
     1
102
RTVSPropertyOp16
 70
     1
102
RTVSPropertyOp17
 70
     1
102
RTVSPropertyOp18
 70
     1
102
RTVSPropertyOp19
 70
     1
102
RTVSPropertyOp20
 70
     1
102
RTVSPropertyOp21
 70
     1
102
RTVSPropertyOp22
 70
     1
102
RTVSPropertyOp23
 70
     1
102
RTVSPropertyOp24
 70
     1
102
RTVSPropertyOp25
 70
     1
102
RTVSPropertyOp26
 70
     1
102
RTVSPropertyOp27
 70
     1
  0
XRECORD
  5
C63
102
{ACAD_REACTORS
330
C62
102
}
330
C62
100
AcDbXrecord
280
     1
102
RTVSPropertyOp0
 70
     1
102
RTVSPropertyOp1
 70
     1
102
RTVSPropertyOp2
 70
     1
102
RTVSPropertyOp3
 70
     1
102
RTVSPropertyOp4
 70
     1
102
RTVSPropertyOp5
 70
     1
102
RTVSPropertyOp6
 70
     1
102
RTVSPropertyOp7
 70
     1
102
RTVSPropertyOp8
 70
     1
102
RTVSPropertyOp9
 70
     1
102
RTVSPropertyOp10
 70
     1
102
RTVSPropertyOp11
 70
     1
102
RTVSPropertyOp12
 70
     1
102
RTVSPropertyOp13
 70
     1
102
RTVSPropertyOp14
 70
     1
102
RTVSPropertyOp15
 70
     1
102
RTVSPropertyOp16
 70
     1
102
RTVSPropertyOp17
 70
     1
102
RTVSPropertyOp18
 70
     1
102
RTVSPropertyOp19
 70
     1
102
RTVSPropertyOp20
 70
     1
102
RTVSPropertyOp21
 70
     1
102
RTVSPropertyOp22
 70
     1
102
RTVSPropertyOp23
 70
     1
102
RTVSPropertyOp24
 70
     1
102
RTVSPropertyOp25
 70
     1
102
RTVSPropertyOp26
 70
     1
102
RTVSPropertyOp27
 70
     1
  0
XRECORD
  5
C61
102
{ACAD_REACTORS
330
C60
102
}
330
C60
100
AcDbXrecord
280
     1
102
RTVSPropertyOp0
 70
     1
102
RTVSPropertyOp1
 70
     1
102
RTVSPropertyOp2
 70
     1
102
RTVSPropertyOp3
 70
     1
102
RTVSPropertyOp4
 70
     1
102
RTVSPropertyOp5
 70
     1
102
RTVSPropertyOp6
 70
     1
102
RTVSPropertyOp7
 70
     1
102
RTVSPropertyOp8
 70
     1
102
RTVSPropertyOp9
 70
     1
102
RTVSPropertyOp10
 70
     1
102
RTVSPropertyOp11
 70
     1
102
RTVSPropertyOp12
 70
     1
102
RTVSPropertyOp13
 70
     1
102
RTVSPropertyOp14
 70
     1
102
RTVSPropertyOp15
 70
     1
102
RTVSPropertyOp16
 70
     1
102
RTVSPropertyOp17
 70
     1
102
RTVSPropertyOp18
 70
     1
102
RTVSPropertyOp19
 70
     1
102
RTVSPropertyOp20
 70
     1
102
RTVSPropertyOp21
 70
     1
102
RTVSPropertyOp22
 70
     1
102
RTVSPropertyOp23
 70
     1
102
RTVSPropertyOp24
 70
     1
102
RTVSPropertyOp25
 70
     1
102
RTVSPropertyOp26
 70
     1
102
RTVSPropertyOp27
 70
     1
  0
XRECORD
  5
C5D
102
{ACAD_REACTORS
330
C5C
102
}
330
C5C
100
AcDbXrecord
280
     1
102
RTVSPropertyOp0
 70
     1
102
RTVSPropertyOp1
 70
     1
102
RTVSPropertyOp2
 70
     1
102
RTVSPropertyOp3
 70
     1
102
RTVSPropertyOp4
 70
     1
102
RTVSPropertyOp5
 70
     1
102
RTVSPropertyOp6
 70
     1
102
RTVSPropertyOp7
 70
     1
102
RTVSPropertyOp8
 70
     1
102
RTVSPropertyOp9
 70
     1
102
RTVSPropertyOp10
 70
     1
102
RTVSPropertyOp11
 70
     1
102
RTVSPropertyOp12
 70
     1
102
RTVSPropertyOp13
 70
     1
102
RTVSPropertyOp14
 70
     1
102
RTVSPropertyOp15
 70
     1
102
RTVSPropertyOp16
 70
     1
102
RTVSPropertyOp17
 70
     1
102
RTVSPropertyOp18
 70
     1
102
RTVSPropertyOp19
 70
     1
102
RTVSPropertyOp20
 70
     1
102
RTVSPropertyOp21
 70
     1
102
RTVSPropertyOp22
 70
     1
102
RTVSPropertyOp23
 70
     1
102
RTVSPropertyOp24
 70
     1
102
RTVSPropertyOp25
 70
     1
102
RTVSPropertyOp26
 70
     1
102
RTVSPropertyOp27
 70
     1
  0
XRECORD
  5
C6B
102
{ACAD_REACTORS
330
C6A
102
}
330
C6A
100
AcDbXrecord
280
     1
102
RTVSPropertyOp0
 70
     1
102
RTVSPropertyOp1
 70
     1
102
RTVSPropertyOp2
 70
     1
102
RTVSPropertyOp3
 70
     1
102
RTVSPropertyOp4
 70
     1
102
RTVSPropertyOp5
 70
     1
102
RTVSPropertyOp6
 70
     1
102
RTVSPropertyOp7
 70
     1
102
RTVSPropertyOp8
 70
     1
102
RTVSPropertyOp9
 70
     1
102
RTVSPropertyOp10
 70
     1
102
RTVSPropertyOp11
 70
     1
102
RTVSPropertyOp12
 70
     1
102
RTVSPropertyOp13
 70
     1
102
RTVSPropertyOp14
 70
     1
102
RTVSPropertyOp15
 70
     1
102
RTVSPropertyOp16
 70
     1
102
RTVSPropertyOp17
 70
     1
102
RTVSPropertyOp18
 70
     1
102
RTVSPropertyOp19
 70
     1
102
RTVSPropertyOp20
 70
     1
102
RTVSPropertyOp21
 70
     1
102
RTVSPropertyOp22
 70
     1
102
RTVSPropertyOp23
 70
     1
102
RTVSPropertyOp24
 70
     1
102
RTVSPropertyOp25
 70
     1
102
RTVSPropertyOp26
 70
     1
102
RTVSPropertyOp27
 70
     1
  0
XRECORD
  5
C73
102
{ACAD_REACTORS
330
C72
102
}
330
C72
100
AcDbXrecord
280
     1
102
RTVSPropertyOp0
 70
     1
102
RTVSPropertyOp1
 70
     1
102
RTVSPropertyOp2
 70
     1
102
RTVSPropertyOp3
 70
     1
102
RTVSPropertyOp4
 70
     1
102
RTVSPropertyOp5
 70
     1
102
RTVSPropertyOp6
 70
     1
102
RTVSPropertyOp7
 70
     1
102
RTVSPropertyOp8
 70
     1
102
RTVSPropertyOp9
 70
     1
102
RTVSPropertyOp10
 70
     1
102
RTVSPropertyOp11
 70
     1
102
RTVSPropertyOp12
 70
     1
102
RTVSPropertyOp13
 70
     1
102
RTVSPropertyOp14
 70
     1
102
RTVSPropertyOp15
 70
     1
102
RTVSPropertyOp16
 70
     1
102
RTVSPropertyOp17
 70
     1
102
RTVSPropertyOp18
 70
     1
102
RTVSPropertyOp19
 70
     1
102
RTVSPropertyOp20
 70
     1
102
RTVSPropertyOp21
 70
     1
102
RTVSPropertyOp22
 70
     1
102
RTVSPropertyOp23
 70
     1
102
RTVSPropertyOp24
 70
     1
102
RTVSPropertyOp25
 70
     1
102
RTVSPropertyOp26
 70
     1
102
RTVSPropertyOp27
 70
     1
  0
XRECORD
  5
C65
102
{ACAD_REACTORS
330
C64
102
}
330
C64
100
AcDbXrecord
280
     1
102
RTVSPropertyOp0
 70
     1
102
RTVSPropertyOp1
 70
     1
102
RTVSPropertyOp2
 70
     1
102
RTVSPropertyOp3
 70
     1
102
RTVSPropertyOp4
 70
     1
102
RTVSPropertyOp5
 70
     1
102
RTVSPropertyOp6
 70
     1
102
RTVSPropertyOp7
 70
     1
102
RTVSPropertyOp8
 70
     1
102
RTVSPropertyOp9
 70
     1
102
RTVSPropertyOp10
 70
     1
102
RTVSPropertyOp11
 70
     1
102
RTVSPropertyOp12
 70
     1
102
RTVSPropertyOp13
 70
     1
102
RTVSPropertyOp14
 70
     1
102
RTVSPropertyOp15
 70
     1
102
RTVSPropertyOp16
 70
     1
102
RTVSPropertyOp17
 70
     1
102
RTVSPropertyOp18
 70
     1
102
RTVSPropertyOp19
 70
     1
102
RTVSPropertyOp20
 70
     1
102
RTVSPropertyOp21
 70
     1
102
RTVSPropertyOp22
 70
     1
102
RTVSPropertyOp23
 70
     1
102
RTVSPropertyOp24
 70
     1
102
RTVSPropertyOp25
 70
     1
102
RTVSPropertyOp26
 70
     1
102
RTVSPropertyOp27
 70
     1
  0
XRECORD
  5
C69
102
{ACAD_REACTORS
330
C68
102
}
330
C68
100
AcDbXrecord
280
     1
102
RTVSPropertyOp0
 70
     1
102
RTVSPropertyOp1
 70
     1
102
RTVSPropertyOp2
 70
     1
102
RTVSPropertyOp3
 70
     1
102
RTVSPropertyOp4
 70
     1
102
RTVSPropertyOp5
 70
     1
102
RTVSPropertyOp6
 70
     1
102
RTVSPropertyOp7
 70
     1
102
RTVSPropertyOp8
 70
     1
102
RTVSPropertyOp9
 70
     1
102
RTVSPropertyOp10
 70
     1
102
RTVSPropertyOp11
 70
     1
102
RTVSPropertyOp12
 70
     1
102
RTVSPropertyOp13
 70
     1
102
RTVSPropertyOp14
 70
     1
102
RTVSPropertyOp15
 70
     1
102
RTVSPropertyOp16
 70
     1
102
RTVSPropertyOp17
 70
     1
102
RTVSPropertyOp18
 70
     1
102
RTVSPropertyOp19
 70
     1
102
RTVSPropertyOp20
 70
     1
102
RTVSPropertyOp21
 70
     1
102
RTVSPropertyOp22
 70
     1
102
RTVSPropertyOp23
 70
     1
102
RTVSPropertyOp24
 70
     1
102
RTVSPropertyOp25
 70
     1
102
RTVSPropertyOp26
 70
     1
102
RTVSPropertyOp27
 70
     1
  0
XRECORD
  5
C79
102
{ACAD_REACTORS
330
C78
102
}
330
C78
100
AcDbXrecord
280
     1
102
RTVSPropertyOp0
 70
     0
102
RTVSPropertyOp1
 70
     0
102
RTVSPropertyOp2
 70
     0
102
RTVSPropertyOp3
 70
     0
102
RTVSPropertyOp4
 70
     0
102
RTVSPropertyOp5
 70
     0
102
RTVSPropertyOp6
 70
     0
102
RTVSPropertyOp7
 70
     0
102
RTVSPropertyOp8
 70
     0
102
RTVSPropertyOp9
 70
     0
102
RTVSPropertyOp10
 70
     0
102
RTVSPropertyOp11
 70
     0
102
RTVSPropertyOp12
 70
     0
102
RTVSPropertyOp13
 70
     0
102
RTVSPropertyOp14
 70
     2
102
RTVSPropertyOp15
 70
     0
102
RTVSPropertyOp16
 70
     0
102
RTVSPropertyOp17
 70
     0
102
RTVSPropertyOp18
 70
     0
102
RTVSPropertyOp19
 70
     0
102
RTVSPropertyOp20
 70
     0
102
RTVSPropertyOp21
 70
     0
102
RTVSPropertyOp22
 70
     0
102
RTVSPropertyOp23
 70
     0
102
RTVSPropertyOp24
 70
     0
102
RTVSPropertyOp25
 70
     0
102
RTVSPropertyOp26
 70
     0
102
RTVSPropertyOp27
 70
     0
  0
XRECORD
  5
C71
102
{ACAD_REACTORS
330
C70
102
}
330
C70
100
AcDbXrecord
280
     1
102
RTVSPropertyOp0
 70
     1
102
RTVSPropertyOp1
 70
     1
102
RTVSPropertyOp2
 70
     1
102
RTVSPropertyOp3
 70
     1
102
RTVSPropertyOp4
 70
     1
102
RTVSPropertyOp5
 70
     1
102
RTVSPropertyOp6
 70
     1
102
RTVSPropertyOp7
 70
     1
102
RTVSPropertyOp8
 70
     1
102
RTVSPropertyOp9
 70
     1
102
RTVSPropertyOp10
 70
     1
102
RTVSPropertyOp11
 70
     1
102
RTVSPropertyOp12
 70
     1
102
RTVSPropertyOp13
 70
     1
102
RTVSPropertyOp14
 70
     1
102
RTVSPropertyOp15
 70
     1
102
RTVSPropertyOp16
 70
     1
102
RTVSPropertyOp17
 70
     1
102
RTVSPropertyOp18
 70
     1
102
RTVSPropertyOp19
 70
     1
102
RTVSPropertyOp20
 70
     1
102
RTVSPropertyOp21
 70
     1
102
RTVSPropertyOp22
 70
     1
102
RTVSPropertyOp23
 70
     1
102
RTVSPropertyOp24
 70
     1
102
RTVSPropertyOp25
 70
     1
102
RTVSPropertyOp26
 70
     1
102
RTVSPropertyOp27
 70
     1
  0
XRECORD
  5
C55
102
{ACAD_REACTORS
330
C54
102
}
330
C54
100
AcDbXrecord
280
     1
102
RTVSPropertyOp0
 70
     1
102
RTVSPropertyOp1
 70
     1
102
RTVSPropertyOp2
 70
     1
102
RTVSPropertyOp3
 70
     1
102
RTVSPropertyOp4
 70
     1
102
RTVSPropertyOp5
 70
     1
102
RTVSPropertyOp6
 70
     1
102
RTVSPropertyOp7
 70
     1
102
RTVSPropertyOp8
 70
     1
102
RTVSPropertyOp9
 70
     1
102
RTVSPropertyOp10
 70
     1
102
RTVSPropertyOp11
 70
     1
102
RTVSPropertyOp12
 70
     1
102
RTVSPropertyOp13
 70
     1
102
RTVSPropertyOp14
 70
     1
102
RTVSPropertyOp15
 70
     1
102
RTVSPropertyOp16
 70
     1
102
RTVSPropertyOp17
 70
     1
102
RTVSPropertyOp18
 70
     1
102
RTVSPropertyOp19
 70
     1
102
RTVSPropertyOp20
 70
     1
102
RTVSPropertyOp21
 70
     1
102
RTVSPropertyOp22
 70
     1
102
RTVSPropertyOp23
 70
     1
102
RTVSPropertyOp24
 70
     1
102
RTVSPropertyOp25
 70
     1
102
RTVSPropertyOp26
 70
     1
102
RTVSPropertyOp27
 70
     1
  0
XRECORD
  5
C57
102
{ACAD_REACTORS
330
C56
102
}
330
C56
100
AcDbXrecord
280
     1
102
RTVSPropertyOp0
 70
     1
102
RTVSPropertyOp1
 70
     1
102
RTVSPropertyOp2
 70
     1
102
RTVSPropertyOp3
 70
     1
102
RTVSPropertyOp4
 70
     1
102
RTVSPropertyOp5
 70
     1
102
RTVSPropertyOp6
 70
     1
102
RTVSPropertyOp7
 70
     1
102
RTVSPropertyOp8
 70
     1
102
RTVSPropertyOp9
 70
     1
102
RTVSPropertyOp10
 70
     1
102
RTVSPropertyOp11
 70
     1
102
RTVSPropertyOp12
 70
     1
102
RTVSPropertyOp13
 70
     1
102
RTVSPropertyOp14
 70
     1
102
RTVSPropertyOp15
 70
     1
102
RTVSPropertyOp16
 70
     1
102
RTVSPropertyOp17
 70
     1
102
RTVSPropertyOp18
 70
     1
102
RTVSPropertyOp19
 70
     1
102
RTVSPropertyOp20
 70
     1
102
RTVSPropertyOp21
 70
     1
102
RTVSPropertyOp22
 70
     1
102
RTVSPropertyOp23
 70
     1
102
RTVSPropertyOp24
 70
     1
102
RTVSPropertyOp25
 70
     1
102
RTVSPropertyOp26
 70
     1
102
RTVSPropertyOp27
 70
     1
  0
XRECORD
  5
C59
102
{ACAD_REACTORS
330
C58
102
}
330
C58
100
AcDbXrecord
280
     1
102
RTVSPropertyOp0
 70
     1
102
RTVSPropertyOp1
 70
     1
102
RTVSPropertyOp2
 70
     1
102
RTVSPropertyOp3
 70
     1
102
RTVSPropertyOp4
 70
     1
102
RTVSPropertyOp5
 70
     1
102
RTVSPropertyOp6
 70
     1
102
RTVSPropertyOp7
 70
     1
102
RTVSPropertyOp8
 70
     1
102
RTVSPropertyOp9
 70
     1
102
RTVSPropertyOp10
 70
     1
102
RTVSPropertyOp11
 70
     1
102
RTVSPropertyOp12
 70
     1
102
RTVSPropertyOp13
 70
     1
102
RTVSPropertyOp14
 70
     1
102
RTVSPropertyOp15
 70
     1
102
RTVSPropertyOp16
 70
     1
102
RTVSPropertyOp17
 70
     1
102
RTVSPropertyOp18
 70
     1
102
RTVSPropertyOp19
 70
     1
102
RTVSPropertyOp20
 70
     1
102
RTVSPropertyOp21
 70
     1
102
RTVSPropertyOp22
 70
     1
102
RTVSPropertyOp23
 70
     1
102
RTVSPropertyOp24
 70
     1
102
RTVSPropertyOp25
 70
     1
102
RTVSPropertyOp26
 70
     1
102
RTVSPropertyOp27
 70
     1
  0
XRECORD
  5
C5B
102
{ACAD_REACTORS
330
C5A
102
}
330
C5A
100
AcDbXrecord
280
     1
102
RTVSPropertyOp0
 70
     1
102
RTVSPropertyOp1
 70
     1
102
RTVSPropertyOp2
 70
     1
102
RTVSPropertyOp3
 70
     1
102
RTVSPropertyOp4
 70
     1
102
RTVSPropertyOp5
 70
     1
102
RTVSPropertyOp6
 70
     1
102
RTVSPropertyOp7
 70
     1
102
RTVSPropertyOp8
 70
     1
102
RTVSPropertyOp9
 70
     1
102
RTVSPropertyOp10
 70
     1
102
RTVSPropertyOp11
 70
     1
102
RTVSPropertyOp12
 70
     1
102
RTVSPropertyOp13
 70
     1
102
RTVSPropertyOp14
 70
     1
102
RTVSPropertyOp15
 70
     1
102
RTVSPropertyOp16
 70
     1
102
RTVSPropertyOp17
 70
     1
102
RTVSPropertyOp18
 70
     1
102
RTVSPropertyOp19
 70
     1
102
RTVSPropertyOp20
 70
     1
102
RTVSPropertyOp21
 70
     1
102
RTVSPropertyOp22
 70
     1
102
RTVSPropertyOp23
 70
     1
102
RTVSPropertyOp24
 70
     1
102
RTVSPropertyOp25
 70
     1
102
RTVSPropertyOp26
 70
     1
102
RTVSPropertyOp27
 70
     1
  0
XRECORD
  5
C75
102
{ACAD_REACTORS
330
C74
102
}
330
C74
100
AcDbXrecord
280
     1
102
RTVSPropertyOp0
 70
     0
102
RTVSPropertyOp1
 70
     0
102
RTVSPropertyOp2
 70
     0
102
RTVSPropertyOp3
 70
     0
102
RTVSPropertyOp4
 70
     0
102
RTVSPropertyOp5
 70
     0
102
RTVSPropertyOp6
 70
     0
102
RTVSPropertyOp7
 70
     0
102
RTVSPropertyOp8
 70
     0
102
RTVSPropertyOp9
 70
     0
102
RTVSPropertyOp10
 70
     0
102
RTVSPropertyOp11
 70
     0
102
RTVSPropertyOp12
 70
     0
102
RTVSPropertyOp13
 70
     0
102
RTVSPropertyOp14
 70
     2
102
RTVSPropertyOp15
 70
     0
102
RTVSPropertyOp16
 70
     0
102
RTVSPropertyOp17
 70
     0
102
RTVSPropertyOp18
 70
     0
102
RTVSPropertyOp19
 70
     0
102
RTVSPropertyOp20
 70
     0
102
RTVSPropertyOp21
 70
     0
102
RTVSPropertyOp22
 70
     0
102
RTVSPropertyOp23
 70
     0
102
RTVSPropertyOp24
 70
     0
102
RTVSPropertyOp25
 70
     0
102
RTVSPropertyOp26
 70
     0
102
RTVSPropertyOp27
 70
     0
  0
XRECORD
  5
C6F
102
{ACAD_REACTORS
330
C6E
102
}
330
C6E
100
AcDbXrecord
280
     1
102
RTVSPropertyOp0
 70
     1
102
RTVSPropertyOp1
 70
     1
102
RTVSPropertyOp2
 70
     1
102
RTVSPropertyOp3
 70
     1
102
RTVSPropertyOp4
 70
     1
102
RTVSPropertyOp5
 70
     1
102
RTVSPropertyOp6
 70
     1
102
RTVSPropertyOp7
 70
     1
102
RTVSPropertyOp8
 70
     1
102
RTVSPropertyOp9
 70
     1
102
RTVSPropertyOp10
 70
     1
102
RTVSPropertyOp11
 70
     1
102
RTVSPropertyOp12
 70
     1
102
RTVSPropertyOp13
 70
     1
102
RTVSPropertyOp14
 70
     1
102
RTVSPropertyOp15
 70
     1
102
RTVSPropertyOp16
 70
     1
102
RTVSPropertyOp17
 70
     1
102
RTVSPropertyOp18
 70
     1
102
RTVSPropertyOp19
 70
     1
102
RTVSPropertyOp20
 70
     1
102
RTVSPropertyOp21
 70
     1
102
RTVSPropertyOp22
 70
     1
102
RTVSPropertyOp23
 70
     1
102
RTVSPropertyOp24
 70
     1
102
RTVSPropertyOp25
 70
     1
102
RTVSPropertyOp26
 70
     1
102
RTVSPropertyOp27
 70
     1
  0
XRECORD
  5
C77
102
{ACAD_REACTORS
330
C76
102
}
330
C76
100
AcDbXrecord
280
     1
102
RTVSPropertyOp0
 70
     0
102
RTVSPropertyOp1
 70
     0
102
RTVSPropertyOp2
 70
     0
102
RTVSPropertyOp3
 70
     0
102
RTVSPropertyOp4
 70
     0
102
RTVSPropertyOp5
 70
     0
102
RTVSPropertyOp6
 70
     0
102
RTVSPropertyOp7
 70
     0
102
RTVSPropertyOp8
 70
     0
102
RTVSPropertyOp9
 70
     0
102
RTVSPropertyOp10
 70
     0
102
RTVSPropertyOp11
 70
     0
102
RTVSPropertyOp12
 70
     0
102
RTVSPropertyOp13
 70
     0
102
RTVSPropertyOp14
 70
     2
102
RTVSPropertyOp15
 70
     0
102
RTVSPropertyOp16
 70
     0
102
RTVSPropertyOp17
 70
     0
102
RTVSPropertyOp18
 70
     0
102
RTVSPropertyOp19
 70
     0
102
RTVSPropertyOp20
 70
     0
102
RTVSPropertyOp21
 70
     0
102
RTVSPropertyOp22
 70
     0
102
RTVSPropertyOp23
 70
     0
102
RTVSPropertyOp24
 70
     0
102
RTVSPropertyOp25
 70
     0
102
RTVSPropertyOp26
 70
     0
102
RTVSPropertyOp27
 70
     0
  0
XRECORD
  5
C67
102
{ACAD_REACTORS
330
C66
102
}
330
C66
100
AcDbXrecord
280
     1
102
RTVSPropertyOp0
 70
     1
102
RTVSPropertyOp1
 70
     1
102
RTVSPropertyOp2
 70
     1
102
RTVSPropertyOp3
 70
     1
102
RTVSPropertyOp4
 70
     1
102
RTVSPropertyOp5
 70
     1
102
RTVSPropertyOp6
 70
     1
102
RTVSPropertyOp7
 70
     1
102
RTVSPropertyOp8
 70
     1
102
RTVSPropertyOp9
 70
     1
102
RTVSPropertyOp10
 70
     1
102
RTVSPropertyOp11
 70
     1
102
RTVSPropertyOp12
 70
     1
102
RTVSPropertyOp13
 70
     1
102
RTVSPropertyOp14
 70
     1
102
RTVSPropertyOp15
 70
     1
102
RTVSPropertyOp16
 70
     1
102
RTVSPropertyOp17
 70
     1
102
RTVSPropertyOp18
 70
     1
102
RTVSPropertyOp19
 70
     1
102
RTVSPropertyOp20
 70
     1
102
RTVSPropertyOp21
 70
     1
102
RTVSPropertyOp22
 70
     1
102
RTVSPropertyOp23
 70
     1
102
RTVSPropertyOp24
 70
     1
102
RTVSPropertyOp25
 70
     1
102
RTVSPropertyOp26
 70
     1
102
RTVSPropertyOp27
 70
     1
  0
XRECORD
  5
C6D
102
{ACAD_REACTORS
330
C6C
102
}
330
C6C
100
AcDbXrecord
280
     1
102
RTVSPropertyOp0
 70
     1
102
RTVSPropertyOp1
 70
     1
102
RTVSPropertyOp2
 70
     1
102
RTVSPropertyOp3
 70
     1
102
RTVSPropertyOp4
 70
     1
102
RTVSPropertyOp5
 70
     1
102
RTVSPropertyOp6
 70
     1
102
RTVSPropertyOp7
 70
     1
102
RTVSPropertyOp8
 70
     1
102
RTVSPropertyOp9
 70
     1
102
RTVSPropertyOp10
 70
     1
102
RTVSPropertyOp11
 70
     1
102
RTVSPropertyOp12
 70
     1
102
RTVSPropertyOp13
 70
     1
102
RTVSPropertyOp14
 70
     1
102
RTVSPropertyOp15
 70
     1
102
RTVSPropertyOp16
 70
     1
102
RTVSPropertyOp17
 70
     1
102
RTVSPropertyOp18
 70
     1
102
RTVSPropertyOp19
 70
     1
102
RTVSPropertyOp20
 70
     1
102
RTVSPropertyOp21
 70
     1
102
RTVSPropertyOp22
 70
     1
102
RTVSPropertyOp23
 70
     1
102
RTVSPropertyOp24
 70
     1
102
RTVSPropertyOp25
 70
     1
102
RTVSPropertyOp26
 70
     1
102
RTVSPropertyOp27
 70
     1
  0
ENDSEC
  0
EOF
