  0
SECTION
  2
HEADER
  9
$ACADVER
  1
AC1015
  9
$ACADMAINTVER
 70
    20
  9
$DWGCODEPAGE
  3
ANSI_1252
  9
$INSBASE
 10
0.0
 20
0.0
 30
0.0
  9
$EXTMIN
 10
0.0
 20
0.0
 30
0.0
  9
$EXTMAX
 10
420.0
 20
297.0000076293946
 30
0.0
  9
$LIMMIN
 10
0.0
 20
0.0
  9
$LIMMAX
 10
420.0
 20
297.0
  9
$ORTHOMODE
 70
     0
  9
$REGENMODE
 70
     1
  9
$FILLMODE
 70
     1
  9
$QTEXTMODE
 70
     0
  9
$MIRRTEXT
 70
     0
  9
$LTSCALE
 40
1.0
  9
$ATTMODE
 70
     1
  9
$TEXTSIZE
 40
0.2
  9
$TRACEWID
 40
0.05
  9
$TEXTSTYLE
  7
Standard
  9
$CLAYER
  8
0
  9
$CELTYPE
  6
ByLayer
  9
$CECOLOR
 62
   256
  9
$CELTSCALE
 40
1.0
  9
$DISPSILH
 70
     0
  9
$DIMSCALE
 40
1.0
  9
$DIMASZ
 40
1.799999999999999
  9
$DIMEXO
 40
0.0625
  9
$DIMDLI
 40
0.38
  9
$DIMRND
 40
0.0
  9
$DIMDLE
 40
0.0
  9
$DIMEXE
 40
0.18
  9
$DIMTP
 40
0.0
  9
$DIMTM
 40
0.0
  9
$DIMTXT
 40
0.3499999940395355
  9
$DIMCEN
 40
0.09
  9
$DIMTSZ
 40
0.0
  9
$DIMTOL
 70
     0
  9
$DIMLIM
 70
     0
  9
$DIMTIH
 70
     1
  9
$DIMTOH
 70
     1
  9
$DIMSE1
 70
     0
  9
$DIMSE2
 70
     0
  9
$DIMTAD
 70
     0
  9
$DIMZIN
 70
     0
  9
$DIMBLK
  1

  9
$DIMASO
 70
     1
  9
$DIMSHO
 70
     1
  9
$DIMPOST
  1

  9
$DIMAPOST
  1

  9
$DIMALT
 70
     0
  9
$DIMALTD
 70
     2
  9
$DIMALTF
 40
25.4
  9
$DIMLFAC
 40
1.0
  9
$DIMTOFL
 70
     0
  9
$DIMTVP
 40
0.0
  9
$DIMTIX
 70
     0
  9
$DIMSOXD
 70
     0
  9
$DIMSAH
 70
     0
  9
$DIMBLK1
  1

  9
$DIMBLK2
  1

  9
$DIMSTYLE
  2
Standard
  9
$DIMCLRD
 70
     0
  9
$DIMCLRE
 70
     0
  9
$DIMCLRT
 70
     0
  9
$DIMTFAC
 40
1.0
  9
$DIMGAP
 40
0.09
  9
$DIMJUST
 70
     0
  9
$DIMSD1
 70
     0
  9
$DIMSD2
 70
     0
  9
$DIMTOLJ
 70
     1
  9
$DIMTZIN
 70
     0
  9
$DIMALTZ
 70
     0
  9
$DIMALTTZ
 70
     0
  9
$DIMUPT
 70
     0
  9
$DIMDEC
 70
     4
  9
$DIMTDEC
 70
     4
  9
$DIMALTU
 70
     2
  9
$DIMALTTD
 70
     2
  9
$DIMTXSTY
  7
Standard
  9
$DIMAUNIT
 70
     0
  9
$DIMADEC
 70
     0
  9
$DIMALTRND
 40
0.0
  9
$DIMAZIN
 70
     0
  9
$DIMDSEP
 70
    46
  9
$DIMATFIT
 70
     3
  9
$DIMFRAC
 70
     0
  9
$DIMLDRBLK
  1

  9
$DIMLUNIT
 70
     2
  9
$DIMLWD
 70
    -2
  9
$DIMLWE
 70
    -2
  9
$DIMTMOVE
 70
     0
  9
$LUNITS
 70
     2
  9
$LUPREC
 70
     4
  9
$SKETCHINC
 40
0.1
  9
$FILLETRAD
 40
0.0
  9
$AUNITS
 70
     0
  9
$AUPREC
 70
     0
  9
$MENU
  1
.
  9
$ELEVATION
 40
0.0
  9
$PELEVATION
 40
0.0
  9
$THICKNESS
 40
0.0
  9
$LIMCHECK
 70
     0
  9
$CHAMFERA
 40
0.0
  9
$CHAMFERB
 40
0.0
  9
$CHAMFERC
 40
0.0
  9
$CHAMFERD
 40
0.0
  9
$SKPOLY
 70
     0
  9
$TDCREATE
 40
2456105.612250382
  9
$TDUCREATE
 40
2456105.528917049
  9
$TDUPDATE
 40
2456105.638316273
  9
$TDUUPDATE
 40
2456105.554982940
  9
$TDINDWG
 40
0.0007212153
  9
$TDUSRTIMER
 40
0.0007212153
  9
$USRTIMER
 70
     1
  9
$ANGBASE
 50
0.0
  9
$ANGDIR
 70
     0
  9
$PDMODE
 70
     0
  9
$PDSIZE
 40
0.0
  9
$PLINEWID
 40
0.0
  9
$SPLFRAME
 70
     0
  9
$SPLINETYPE
 70
     6
  9
$SPLINESEGS
 70
     8
  9
$HANDSEED
  5
16C9
  9
$SURFTAB1
 70
     6
  9
$SURFTAB2
 70
     6
  9
$SURFTYPE
 70
     6
  9
$SURFU
 70
     6
  9
$SURFV
 70
     6
  9
$UCSBASE
  2

  9
$UCSNAME
  2

  9
$UCSORG
 10
0.0
 20
0.0
 30
0.0
  9
$UCSXDIR
 10
1.0
 20
0.0
 30
0.0
  9
$UCSYDIR
 10
0.0
 20
1.0
 30
0.0
  9
$UCSORTHOREF
  2

  9
$UCSORTHOVIEW
 70
     0
  9
$UCSORGTOP
 10
0.0
 20
0.0
 30
0.0
  9
$UCSORGBOTTOM
 10
0.0
 20
0.0
 30
0.0
  9
$UCSORGLEFT
 10
0.0
 20
0.0
 30
0.0
  9
$UCSORGRIGHT
 10
0.0
 20
0.0
 30
0.0
  9
$UCSORGFRONT
 10
0.0
 20
0.0
 30
0.0
  9
$UCSORGBACK
 10
0.0
 20
0.0
 30
0.0
  9
$PUCSBASE
  2

  9
$PUCSNAME
  2

  9
$PUCSORG
 10
0.0
 20
0.0
 30
0.0
  9
$PUCSXDIR
 10
1.0
 20
0.0
 30
0.0
  9
$PUCSYDIR
 10
0.0
 20
1.0
 30
0.0
  9
$PUCSORTHOREF
  2

  9
$PUCSORTHOVIEW
 70
     0
  9
$PUCSORGTOP
 10
0.0
 20
0.0
 30
0.0
  9
$PUCSORGBOTTOM
 10
0.0
 20
0.0
 30
0.0
  9
$PUCSORGLEFT
 10
0.0
 20
0.0
 30
0.0
  9
$PUCSORGRIGHT
 10
0.0
 20
0.0
 30
0.0
  9
$PUCSORGFRONT
 10
0.0
 20
0.0
 30
0.0
  9
$PUCSORGBACK
 10
0.0
 20
0.0
 30
0.0
  9
$USERI1
 70
     0
  9
$USERI2
 70
     0
  9
$USERI3
 70
     0
  9
$USERI4
 70
     0
  9
$USERI5
 70
     0
  9
$USERR1
 40
0.0
  9
$USERR2
 40
0.0
  9
$USERR3
 40
0.0
  9
$USERR4
 40
0.0
  9
$USERR5
 40
0.0
  9
$WORLDVIEW
 70
     1
  9
$SHADEDGE
 70
     3
  9
$SHADEDIF
 70
    70
  9
$TILEMODE
 70
     1
  9
$MAXACTVP
 70
    64
  9
$PINSBASE
 10
0.0
 20
0.0
 30
0.0
  9
$PLIMCHECK
 70
     0
  9
$PEXTMIN
 10
0.0
 20
0.0
 30
0.0
  9
$PEXTMAX
 10
420.0
 20
297.0
 30
0.0
  9
$PLIMMIN
 10
0.0
 20
0.0
  9
$PLIMMAX
 10
420.0
 20
297.0
  9
$UNITMODE
 70
     0
  9
$VISRETAIN
 70
     1
  9
$PLINEGEN
 70
     0
  9
$PSLTSCALE
 70
     1
  9
$TREEDEPTH
 70
  3020
  9
$CMLSTYLE
  2
Standard
  9
$CMLJUST
 70
     0
  9
$CMLSCALE
 40
1.0
  9
$PROXYGRAPHICS
 70
     1
  9
$MEASUREMENT
 70
     1
  9
$CELWEIGHT
370
    -1
  9
$ENDCAPS
280
     0
  9
$JOINSTYLE
280
     0
  9
$LWDISPLAY
290
     0
  9
$INSUNITS
 70
     4
  9
$HYPERLINKBASE
  1

  9
$STYLESHEET
  1

  9
$XEDIT
290
     1
  9
$CEPSNTYPE
380
     0
  9
$PSTYLEMODE
290
     1
  9
$FINGERPRINTGUID
  2
{AF2D17F0-ED3D-41FF-84D0-740795E2B6FF}
  9
$VERSIONGUID
  2
{18526875-D8A6-4D37-B68A-9920D631CB9A}
  9
$EXTNAMES
290
     1
  9
$PSVPSCALE
 40
0.0
  9
$OLESTARTUP
290
     0
  0
ENDSEC
  0
SECTION
  2
CLASSES
  0
CLASS
  1
ACDBDICTIONARYWDFLT
  2
AcDbDictionaryWithDefault
  3
ObjectDBX Classes
 90
        0
280
     0
281
     0
  0
CLASS
  1
MATERIAL
  2
AcDbMaterial
  3
ObjectDBX Classes
 90
     1153
280
     0
281
     0
  0
CLASS
  1
VISUALSTYLE
  2
AcDbVisualStyle
  3
ObjectDBX Classes
 90
     4095
280
     0
281
     0
  0
CLASS
  1
SCALE
  2
AcDbScale
  3
ObjectDBX Classes
 90
     1153
280
     0
281
     0
  0
CLASS
  1
TABLESTYLE
  2
AcDbTableStyle
  3
ObjectDBX Classes
 90
     4095
280
     0
281
     0
  0
CLASS
  1
MLEADERSTYLE
  2
AcDbMLeaderStyle
  3
ACDB_MLEADERSTYLE_CLASS
 90
     4095
280
     0
281
     0
  0
CLASS
  1
CELLSTYLEMAP
  2
AcDbCellStyleMap
  3
ObjectDBX Classes
 90
     1152
280
     0
281
     0
  0
CLASS
  1
DICTIONARYVAR
  2
AcDbDictionaryVar
  3
ObjectDBX Classes
 90
        0
280
     0
281
     0
  0
CLASS
  1
ACDBPLACEHOLDER
  2
AcDbPlaceHolder
  3
ObjectDBX Classes
 90
        0
280
     0
281
     0
  0
CLASS
  1
LAYOUT
  2
AcDbLayout
  3
ObjectDBX Classes
 90
        0
280
     0
281
     0
  0
CLASS
  1
ACME_DOCUMENT
  2
AcMeDbDoc
  3
AcMeServices
 90
     1024
280
     0
281
     0
  0
CLASS
  1
AMGSETTINGSOBJ
  2
AmgSettingsObj
  3
"AcadM|Product Description: AutoCAD Mechanical|Company: Autodesk, Inc."
 90
     1024
280
     0
281
     0
  0
CLASS
  1
ACMESCOPE
  2
AcMeScope
  3
AcMeServices
 90
     1024
280
     0
281
     0
  0
CLASS
  1
ACMECOMMANDHISTORY
  2
AcMeCommandHistory
  3
AcMeServices
 90
     1024
280
     0
281
     0
  0
CLASS
  1
ACIMSYSVARMAN
  2
AcImSysVarManager
  3
AcMeServices
 90
     1024
280
     0
281
     0
  0
CLASS
  1
ACIMINTSYSVAR
  2
AcImIntSysVar
  3
AcMeServices
 90
     1024
280
     0
281
     0
  0
CLASS
  1
ACMEDRAWINGMAN
  2
AcMeDrawingMan
  3
AcMeServices
 90
     1024
280
     0
281
     0
  0
CLASS
  1
ACMEVIEW
  2
AcMeView
  3
AcMeServices
 90
     1024
280
     0
281
     0
  0
CLASS
  1
ACDBENTITYCACHE
  2
AcMeEntityCache
  3
AcMeServices
 90
     1024
280
     0
281
     0
  0
CLASS
  1
ACMESTATEMGR
  2
AcMeStateMgr
  3
AcMeServices
 90
     1024
280
     0
281
     0
  0
CLASS
  1
ACGREFMASTER
  2
AcGrefMaster
  3
AcAttribServices
 90
     1024
280
     0
281
     0
  0
CLASS
  1
AM_DRAWING_MGR
  2
AcDmDwgMgr
  3
AcMechDwgViewMgmt
 90
     1024
280
     0
281
     0
  0
CLASS
  1
AM_DWG_DOCUMENT
  2
AcDmDwgDocument
  3
AcMechDwgViewMgmt
 90
     1024
280
     0
281
     0
  0
CLASS
  1
AM_DWG_SHEET
  2
AcDmSheet
  3
AcMechDwgViewMgmt
 90
     1024
280
     0
281
     0
  0
CLASS
  1
AM_VIEWDIMPARMAP
  2
AcDmViewDimParMap
  3
AcMechDwgViewMgmt
 90
     1024
280
     0
281
     0
  0
CLASS
  1
AMDTINTERNALREACTOR
  2
AmdtInternalReactor
  3
AcMeServices
 90
     1024
280
     0
281
     0
  0
CLASS
  1
ACIMREALSYSVAR
  2
AcImRealSysVar
  3
AcMeServices
 90
     1024
280
     0
281
     0
  0
CLASS
  1
AM_DWGMGR_NAME
  2
AcDmDwgMgrName
  3
AcMechDwgViewMgmt
 90
     1024
280
     0
281
     0
  0
CLASS
  1
ACME_DATABASE
  2
AcMeDbDatabase
  3
AcMeServices
 90
     1024
280
     0
281
     0
  0
CLASS
  1
ACRFINSADJUSTERMGR
  2
AcRfInsAdjusterMgr
  3
AcMeServices
 90
     1024
280
     0
281
     0
  0
CLASS
  1
ACGREFACADMASTER
  2
AcGrefacadMaster
  3
AcGrefServices
 90
     1024
280
     0
281
     0
  0
CLASS
  1
AMDTMENUSTATEMGR
  2
AmdtMenuStateMgr
  3
McadcomServices
 90
     1024
280
     0
281
     0
  0
CLASS
  1
AMDTMCOMMENUSTATE
  2
AmdtMcomMenuState
  3
McadcomServices
 90
     1024
280
     0
281
     0
  0
CLASS
  1
AMIMASTER
  2
AmiMaster
  3
AmiServices
 90
     1024
280
     0
281
     0
  0
CLASS
  1
MAPIAMMOUDLE
  2
MApiAmModule
  3
MApiAmServices
 90
     1024
280
     0
281
     0
  0
CLASS
  1
ACIMSTRSYSVAR
  2
AcImStrSysVar
  3
AcMeServices
 90
     1024
280
     0
281
     0
  0
CLASS
  1
AMDTADMENUSTATE
  2
AmdtAdMenuState
  3
DesignerServices
 90
     1024
280
     0
281
     0
  0
CLASS
  1
ADAPPL
  2
AcAdAppl
  3
DesignerServices
 90
     1024
280
     0
281
     0
  0
CLASS
  1
DEPMGR
  2
AcAdDepMgr
  3
DesignerServices
 90
     1024
280
     0
281
     0
  0
CLASS
  1
PARAMMGR
  2
AcAdParamMgr
  3
DesignerServices
 90
     1024
280
     0
281
     0
  0
CLASS
  1
PARAMSCOPE
  2
AcAdParamScope
  3
DesignerServices
 90
     1024
280
     0
281
     0
  0
CLASS
  1
NAMEDAPPL
  2
AcAdNamedAppl
  3
DesignerServices
 90
     1024
280
     0
281
     0
  0
CLASS
  1
AMDTDMMENUSTATE
  2
AmdtDmMenuState
  3
AcMechDwgViewMgmt
 90
     1024
280
     0
281
     0
  0
CLASS
  1
AMDTAMMENUSTATE
  2
AmdtAmMenuState
  3
DesignerAssemblies
 90
     1024
280
     0
281
     0
  0
CLASS
  1
ACAMPROJECT
  2
AcAmProject
  3
DesignerAssemblies
 90
     1024
280
     0
281
     0
  0
CLASS
  1
ACAMGRCOMPDEF
  2
AcAmGrCompDef
  3
DesignerAssemblies
 90
     1024
280
     0
281
     0
  0
CLASS
  1
ACAMCOMPDEF
  2
AcAmCompDef
  3
DesignerAssemblies
 90
     1024
280
     0
281
     0
  0
CLASS
  1
ACAMCOMPDEFMGR
  2
AcAmCompDefMgr
  3
DesignerAssemblies
 90
     1024
280
     0
281
     0
  0
CLASS
  1
AMCONTEXTMGR
  2
AcAmContextMgr
  3
DesignerAssemblies
 90
     1024
280
     0
281
     0
  0
CLASS
  1
ACAMCONTEXTMODELER
  2
AcAmContextModeler
  3
DesignerAssemblies
 90
     1024
280
     0
281
     0
  0
CLASS
  1
ACMDATADICTIONARY
  2
AcmDataDictionary
  3
"AcmSymBB|Product Description: AutoCAD Mechanical|Company: Autodesk, Inc."
 90
     1024
280
     0
281
     0
  0
CLASS
  1
CATALOGSTATE
  2
AcAmCatalogState
  3
DesignerAssemblies
 90
     1024
280
     0
281
     0
  0
CLASS
  1
ACAMGRCOMPDEFSET
  2
AcAmGrCompDefSet
  3
DesignerAssemblies
 90
     1024
280
     0
281
     0
  0
CLASS
  1
AMDTBROWSERDBTAB
  2
AmdtBrowserDbTab
  3
McadcomServices
 90
     1024
280
     0
281
     0
  0
CLASS
  1
CBROWSERAPPOBJECT
  2
CBrowserAppObject
  3
McadcomServices
 90
     1024
280
     0
281
     0
  0
CLASS
  1
DM_PLACEHOLDER
  2
AcDmSelsetPlaceholder
  3
AcMechDwgViewMgmt
 90
     1024
280
     0
281
     0
  0
CLASS
  1
EXACXREFPANELOBJECT
  2
ExAcXREFPanelObject
  3
EXAC_ESW
 90
     1025
280
     0
281
     0
  0
CLASS
  1
NPOCOLLECTION
  2
AcDbImpNonPersistentObjectsCollection
  3
ObjectDBX Classes
 90
     1153
280
     0
281
     0
  0
CLASS
  1
ACMSTANDARDISO
  2
AcmStandardISO
  3
"Amdt_StdImp|Product Description: AutoCAD Mechanical|Company: Autodesk, Inc."
 90
     1024
280
     0
281
     0
  0
CLASS
  1
AMDTEDGESTANDARDISO13715
  2
AmdtEdgeStdISO13715
  3
"Amdt_StdImp|Product Description: AutoCAD Mechanical|Company: Autodesk, Inc."
 90
     1024
280
     0
281
     0
  0
CLASS
  1
ACMSURFSTANDARDISO2002
  2
AcmSurfTextStdISO2002
  3
"Amdt_StdImp|Product Description: AutoCAD Mechanical|Company: Autodesk, Inc."
 90
     1024
280
     0
281
     0
  0
CLASS
  1
ACMFCFSTANDARDISO
  2
AcmFCFStdISO
  3
"Amdt_StdImp|Product Description: AutoCAD Mechanical|Company: Autodesk, Inc."
 90
     1024
280
     0
281
     0
  0
CLASS
  1
ACMWELDSTANDARDISO
  2
AcmWeldingStdISO
  3
"Amdt_StdImp|Product Description: AutoCAD Mechanical|Company: Autodesk, Inc."
 90
     1024
280
     0
281
     0
  0
CLASS
  1
ACMIDSTANDARDISO
  2
AcmIdStdISO
  3
"Amdt_StdImp|Product Description: AutoCAD Mechanical|Company: Autodesk, Inc."
 90
     1024
280
     0
281
     0
  0
CLASS
  1
ACMDATUMSTANDARDISO
  2
AcmDatumStdISO
  3
"Amdt_StdImp|Product Description: AutoCAD Mechanical|Company: Autodesk, Inc."
 90
     1024
280
     0
281
     0
  0
CLASS
  1
ACMBOMSTANDARDISO
  2
AcmBOMStdISO
  3
"Amdt_StdImp|Product Description: AutoCAD Mechanical|Company: Autodesk, Inc."
 90
     1024
280
     0
281
     0
  0
CLASS
  1
ACMDETAILSTANDARDISO
  2
AmdtDetailSymStdISO
  3
"Amdt_StdImp|Product Description: AutoCAD Mechanical|Company: Autodesk, Inc."
 90
     1024
280
     0
281
     0
  0
CLASS
  1
ACMSECTIONSTANDARDISO2001
  2
AmdtSectionSymStdISO2001
  3
"Amdt_StdImp|Product Description: AutoCAD Mechanical|Company: Autodesk, Inc."
 90
     1024
280
     0
281
     0
  0
CLASS
  1
ACMCENTERLINESTANDARDISO
  2
AmdtCenterLineStdISO
  3
"Amdt_StdImp|Product Description: AutoCAD Mechanical|Company: Autodesk, Inc."
 90
     1024
280
     0
281
     0
  0
CLASS
  1
ACMTHREADLINESTANDARDISO
  2
AmdtThreadLineStdISO
  3
"Amdt_StdImp|Product Description: AutoCAD Mechanical|Company: Autodesk, Inc."
 90
     1024
280
     0
281
     0
  0
CLASS
  1
ACMNOTESTANDARDISO
  2
AmdtNoteStdISO
  3
"Amdt_StdImp|Product Description: AutoCAD Mechanical|Company: Autodesk, Inc."
 90
     1024
280
     0
281
     0
  0
CLASS
  1
ACMTAPERSTANDARDISO
  2
AcmTaperStdISO
  3
"Amdt_StdImp|Product Description: AutoCAD Mechanical|Company: Autodesk, Inc."
 90
     1024
280
     0
281
     0
  0
CLASS
  1
ACMANOOTATIONVIEWSTANDARDISO
  2
AmdtAnViewStdISO
  3
"Amdt_StdImp|Product Description: AutoCAD Mechanical|Company: Autodesk, Inc."
 90
     1024
280
     0
281
     0
  0
CLASS
  1
ACAMGLAYSTD
  2
AcAmgLayStd
  3
"AmgLay|Product Description: AutoCAD Mechanical|Company: Autodesk, Inc."
 90
     1024
280
     0
281
     0
  0
CLASS
  1
ACAMGDIMSTD
  2
AcAmgDimStd
  3
"AmgDim|Product Description: AutoCAD Mechanical|Company: Autodesk, Inc."
 90
     1024
280
     0
281
     0
  0
CLASS
  1
ACAMGHOLECHARTSTDISO
  2
AcAmgHoleChartStdISO
  3
AmgDim|Product Description: AutoCAD Mechanical|Company: Autodesk, Inc.
 90
     1024
280
     0
281
     0
  0
CLASS
  1
AMGOBJPROPCFG
  2
AmgObjPropCfg
  3
"AmgLay|Product Description: AutoCAD Mechanical|Company: Autodesk, Inc."
 90
     1025
280
     0
281
     0
  0
CLASS
  1
ACAMGTITLESTD
  2
AcAmgTitleStd
  3
"AmgTitle|Product Description: AutoCAD Mechanical|Company: Autodesk, Inc."
 90
     4095
280
     0
281
     0
  0
CLASS
  1
AMDTNOTETEMPLATEDB
  2
AmdtNoteTemplateDB
  3
AcmSymBB|Product Description: AutoCAD Mechanical|Company: Autodesk, Inc.
 90
     1024
280
     0
281
     0
  0
CLASS
  1
ACAMGFILTERDAT
  2
AcAmgFilterDat
  3
"AcadM|Product Description: AutoCAD Mechanical|Company: Autodesk, Inc."
 90
     1024
280
     0
281
     0
  0
ENDSEC
  0
SECTION
  2
TABLES
  0
TABLE
  2
VPORT
  5
8
102
{ACAD_XDICTIONARY
360
14E5
102
}
330
0
100
AcDbSymbolTable
 70
     1
  0
VPORT
  5
62
330
8
100
AcDbSymbolTableRecord
100
AcDbViewportTableRecord
  2
*Active
 70
     0
 10
0.0
 20
0.0
 11
1.0
 21
1.0
 12
229.7397074984736
 22
150.2927163704696
 13
0.0
 23
0.0
 14
1.0
 24
1.0
 15
0.0
 25
0.0
 16
0.0
 26
0.0
 36
1.0
 17
0.0
 27
0.0
 37
0.0
 40
374.6391329165926
 41
1.610192837465564
 42
50.0
 43
0.0
 44
0.0
 50
0.0
 51
0.0
 71
     0
 72
   100
 73
     1
 74
     1
 75
     0
 76
     0
 77
     0
 78
     0
281
     0
 65
     1
110
0.0
120
0.0
130
0.0
111
1.0
121
0.0
131
0.0
112
0.0
122
1.0
132
0.0
 79
     0
146
0.0
  0
ENDTAB
  0
TABLE
  2
LTYPE
  5
5
330
0
100
AcDbSymbolTable
 70
    69
  0
LTYPE
  5
66
330
5
100
AcDbSymbolTableRecord
100
AcDbLinetypeTableRecord
  2
ByBlock
 70
     0
  3

 72
    65
 73
     0
 40
0.0
  0
LTYPE
  5
67
330
5
100
AcDbSymbolTableRecord
100
AcDbLinetypeTableRecord
  2
ByLayer
 70
     0
  3

 72
    65
 73
     0
 40
0.0
  0
LTYPE
  5
68
330
5
100
AcDbSymbolTableRecord
100
AcDbLinetypeTableRecord
  2
Continuous
 70
     0
  3
Solid line
 72
    65
 73
     0
 40
0.0
  0
LTYPE
  5
7F
330
5
100
AcDbSymbolTableRecord
100
AcDbLinetypeTableRecord
  2
Section_View_Lines
 70
     0
  3
Section View Lines
 72
    65
 73
     4
 40
0.8406
 49
0.6614
 74
     0
 49
-0.0827
 74
     0
 49
0.0138
 74
     0
 49
-0.0827
 74
     0
  0
LTYPE
  5
80
330
5
100
AcDbSymbolTableRecord
100
AcDbLinetypeTableRecord
  2
CHAIN
 70
     0
  3
Chain ____ _ ____ _ ____ _ ____ _ ____ _ ____
 72
    65
 73
     4
 40
0.3543
 49
0.2362
 74
     0
 49
-0.0295
 74
     0
 49
0.0591
 74
     0
 49
-0.0295
 74
     0
  0
LTYPE
  5
81
330
5
100
AcDbSymbolTableRecord
100
AcDbLinetypeTableRecord
  2
DASH_DOT
 70
     0
  3
Dash dot _._._._._._._._._._._._._._._.
 72
    65
 73
     4
 40
0.182
 49
0.1181
 74
     0
 49
-0.0295
 74
     0
 49
0.0049
 74
     0
 49
-0.0295
 74
     0
  0
LTYPE
  5
82
330
5
100
AcDbSymbolTableRecord
100
AcDbLinetypeTableRecord
  2
DASH_DOUBLE_DOT
 70
     0
  3
Dash Double Dot __ __ . __ __ . __ __ . __ _
 72
    65
 73
     6
 40
0.2164
 49
0.1181
 74
     0
 49
-0.0295
 74
     0
 49
0.0049
 74
     0
 49
-0.0295
 74
     0
 49
0.0049
 74
     0
 49
-0.0295
 74
     0
  0
LTYPE
  5
83
330
5
100
AcDbSymbolTableRecord
100
AcDbLinetypeTableRecord
  2
DASH_TRIPLE_DOT
 70
     0
  3
Dash Triple-Dot _ . . . _ . . . _ . . . _
 72
    65
 73
     8
 40
0.2508
 49
0.1181
 74
     0
 49
-0.0295
 74
     0
 49
0.0049
 74
     0
 49
-0.0295
 74
     0
 49
0.0049
 74
     0
 49
-0.0295
 74
     0
 49
0.0049
 74
     0
 49
-0.0295
 74
     0
  0
LTYPE
  5
84
330
5
100
AcDbSymbolTableRecord
100
AcDbLinetypeTableRecord
  2
DASHED
 70
     0
  3
Dashed __ __ __ __ __ __ __ __ __ __ __ __ __ _
 72
    65
 73
     2
 40
0.2068
 49
0.1655
 74
     0
 49
-0.0413
 74
     0
  0
LTYPE
  5
85
330
5
100
AcDbSymbolTableRecord
100
AcDbLinetypeTableRecord
  2
DASHED_SPACE
 70
     0
  3
Dashed Space __ __ __ __ __ __ __ __ __ __ __ _
 72
    65
 73
     2
 40
0.2067
 49
0.1654
 74
     0
 49
-0.0413
 74
     0
  0
LTYPE
  5
86
330
5
100
AcDbSymbolTableRecord
100
AcDbLinetypeTableRecord
  2
DOTTED
 70
     0
  3
Dotted . . . . . . . . . . . . . . . . . . . . 
 72
    65
 73
     2
 40
0.0481
 49
0.0068
 74
     0
 49
-0.0413
 74
     0
  0
LTYPE
  5
87
330
5
100
AcDbSymbolTableRecord
100
AcDbLinetypeTableRecord
  2
DOUBLE_DASH_CHAIN
 70
     0
  3
Double Dash Chain ___ _ _ ___ _ _ ___ _ _ ___ _
 72
    65
 73
     6
 40
1.240299999999999
 49
0.6614
 74
     0
 49
-0.0827
 74
     0
 49
0.1654
 74
     0
 49
-0.0827
 74
     0
 49
0.1654
 74
     0
 49
-0.0827
 74
     0
  0
LTYPE
  5
88
330
5
100
AcDbSymbolTableRecord
100
AcDbLinetypeTableRecord
  2
DOUBLE_DASH_DOT
 70
     0
  3
Double Dash Dot __ __ . __ __ . __ __ . __ _
 72
    65
 73
     6
 40
0.3296
 49
0.1181
 74
     0
 49
-0.0295
 74
     0
 49
0.1181
 74
     0
 49
-0.0295
 74
     0
 49
0.0049
 74
     0
 49
-0.0295
 74
     0
  0
LTYPE
  5
89
330
5
100
AcDbSymbolTableRecord
100
AcDbLinetypeTableRecord
  2
DOUBLE_DASH_DOUBLE_DOT
 70
     0
  3
Double Dash Double Dot _ _ . . _ _ . . _ _
 72
    65
 73
     8
 40
0.364
 49
0.1181
 74
     0
 49
-0.0295
 74
     0
 49
0.1181
 74
     0
 49
-0.0295
 74
     0
 49
0.0049
 74
     0
 49
-0.0295
 74
     0
 49
0.0049
 74
     0
 49
-0.0295
 74
     0
  0
LTYPE
  5
8A
330
5
100
AcDbSymbolTableRecord
100
AcDbLinetypeTableRecord
  2
DOUBLE_DASH_TRIPLE_DOT
 70
     0
  3
Double Dash Triple Dot __ __ . . . __ __ . . .
 72
    65
 73
    10
 40
0.3984
 49
0.1181
 74
     0
 49
-0.0295
 74
     0
 49
0.1181
 74
     0
 49
-0.0295
 74
     0
 49
0.0049
 74
     0
 49
-0.0295
 74
     0
 49
0.0049
 74
     0
 49
-0.0295
 74
     0
 49
0.0049
 74
     0
 49
-0.0295
 74
     0
  0
LTYPE
  5
8B
330
5
100
AcDbSymbolTableRecord
100
AcDbLinetypeTableRecord
  2
LONG_DASH_DOTTED
 70
     0
  3
Long Dash Dotted ____ . ____ . ____ . ____ . _
 72
    65
 73
     4
 40
0.3001
 49
0.2362
 74
     0
 49
-0.0295
 74
     0
 49
0.0049
 74
     0
 49
-0.0295
 74
     0
  0
LTYPE
  5
8C
330
5
100
AcDbSymbolTableRecord
100
AcDbLinetypeTableRecord
  2
LONG_DASH_DOUBLE_DOT
 70
     0
  3
Long Dash Double Dot ____ . . ____ . . ____ . .
 72
    65
 73
     6
 40
0.3345
 49
0.2362
 74
     0
 49
-0.0295
 74
     0
 49
0.0049
 74
     0
 49
-0.0295
 74
     0
 49
0.0049
 74
     0
 49
-0.0295
 74
     0
  0
LTYPE
  5
8D
330
5
100
AcDbSymbolTableRecord
100
AcDbLinetypeTableRecord
  2
LONG_DASH_TRIPLE_DOT
 70
     0
  3
Long Dash Triple Dot ____ ... ____ ... ____
 72
    65
 73
     8
 40
0.3689
 49
0.2362
 74
     0
 49
-0.0295
 74
     0
 49
0.0049
 74
     0
 49
-0.0295
 74
     0
 49
0.0049
 74
     0
 49
-0.0295
 74
     0
 49
0.0049
 74
     0
 49
-0.0295
 74
     0
  0
LTYPE
  5
8E
330
5
100
AcDbSymbolTableRecord
100
AcDbLinetypeTableRecord
  2
BORDER
 70
     0
  3
Border __ __ . __ __ . __ __ . __ __ . __ __ .
 72
    65
 73
     6
 40
44.45
 49
12.7
 74
     0
 49
-6.349999999999999
 74
     0
 49
12.7
 74
     0
 49
-6.349999999999999
 74
     0
 49
0.0
 74
     0
 49
-6.349999999999999
 74
     0
  0
LTYPE
  5
8F
330
5
100
AcDbSymbolTableRecord
100
AcDbLinetypeTableRecord
  2
BORDER2
 70
     0
  3
Border (.5x) __.__.__.__.__.__.__.__.__.__.__.
 72
    65
 73
     6
 40
22.225
 49
6.349999999999999
 74
     0
 49
-3.174999999999999
 74
     0
 49
6.349999999999999
 74
     0
 49
-3.174999999999999
 74
     0
 49
0.0
 74
     0
 49
-3.174999999999999
 74
     0
  0
LTYPE
  5
90
330
5
100
AcDbSymbolTableRecord
100
AcDbLinetypeTableRecord
  2
BORDERX2
 70
     0
  3
Border (2x) ____  ____  .  ____  ____  .  ___
 72
    65
 73
     6
 40
88.9
 49
25.4
 74
     0
 49
-12.7
 74
     0
 49
25.4
 74
     0
 49
-12.7
 74
     0
 49
0.0
 74
     0
 49
-12.7
 74
     0
  0
LTYPE
  5
91
330
5
100
AcDbSymbolTableRecord
100
AcDbLinetypeTableRecord
  2
CENTER
 70
     0
  3
Center ____ _ ____ _ ____ _ ____ _ ____ _ ____
 72
    65
 73
     4
 40
50.8
 49
31.75
 74
     0
 49
-6.349999999999999
 74
     0
 49
6.349999999999999
 74
     0
 49
-6.349999999999999
 74
     0
  0
LTYPE
  5
92
330
5
100
AcDbSymbolTableRecord
100
AcDbLinetypeTableRecord
  2
CENTER2
 70
     0
  3
Center (.5x) ___ _ ___ _ ___ _ ___ _ ___ _ ___
 72
    65
 73
     4
 40
28.575
 49
19.05
 74
     0
 49
-3.174999999999999
 74
     0
 49
3.174999999999999
 74
     0
 49
-3.174999999999999
 74
     0
  0
LTYPE
  5
93
330
5
100
AcDbSymbolTableRecord
100
AcDbLinetypeTableRecord
  2
CENTERX2
 70
     0
  3
Center (2x) ________  __  ________  __  _____
 72
    65
 73
     4
 40
101.6
 49
63.5
 74
     0
 49
-12.7
 74
     0
 49
12.7
 74
     0
 49
-12.7
 74
     0
  0
LTYPE
  5
94
330
5
100
AcDbSymbolTableRecord
100
AcDbLinetypeTableRecord
  2
DASHDOT2
 70
     0
  3
Dash dot (.5x) _._._._._._._._._._._._._._._.
 72
    65
 73
     4
 40
12.7
 49
6.349999999999999
 74
     0
 49
-3.174999999999999
 74
     0
 49
0.0
 74
     0
 49
-3.174999999999999
 74
     0
  0
LTYPE
  5
95
330
5
100
AcDbSymbolTableRecord
100
AcDbLinetypeTableRecord
  2
DASHDOTX2
 70
     0
  3
Dash dot (2x) ____  .  ____  .  ____  .  ___
 72
    65
 73
     4
 40
50.8
 49
25.4
 74
     0
 49
-12.7
 74
     0
 49
0.0
 74
     0
 49
-12.7
 74
     0
  0
LTYPE
  5
96
330
5
100
AcDbSymbolTableRecord
100
AcDbLinetypeTableRecord
  2
DASHED2
 70
     0
  3
Dashed (.5x) _ _ _ _ _ _ _ _ _ _ _ _ _ _ _ _ _
 72
    65
 73
     2
 40
9.524999999999998
 49
6.349999999999999
 74
     0
 49
-3.174999999999999
 74
     0
  0
LTYPE
  5
97
330
5
100
AcDbSymbolTableRecord
100
AcDbLinetypeTableRecord
  2
DASHEDX2
 70
     0
  3
Dashed (2x) ____  ____  ____  ____  ____  ___
 72
    65
 73
     2
 40
38.1
 49
25.4
 74
     0
 49
-12.7
 74
     0
  0
LTYPE
  5
98
330
5
100
AcDbSymbolTableRecord
100
AcDbLinetypeTableRecord
  2
DIVIDE
 70
     0
  3
Divide ____ . . ____ . . ____ . . ____ . . ____
 72
    65
 73
     6
 40
31.75
 49
12.7
 74
     0
 49
-6.349999999999999
 74
     0
 49
0.0
 74
     0
 49
-6.349999999999999
 74
     0
 49
0.0
 74
     0
 49
-6.349999999999999
 74
     0
  0
LTYPE
  5
99
330
5
100
AcDbSymbolTableRecord
100
AcDbLinetypeTableRecord
  2
DIVIDE2
 70
     0
  3
Divide (.5x) __..__..__..__..__..__..__..__.._
 72
    65
 73
     6
 40
15.875
 49
6.349999999999999
 74
     0
 49
-3.174999999999999
 74
     0
 49
0.0
 74
     0
 49
-3.174999999999999
 74
     0
 49
0.0
 74
     0
 49
-3.174999999999999
 74
     0
  0
LTYPE
  5
9A
330
5
100
AcDbSymbolTableRecord
100
AcDbLinetypeTableRecord
  2
DIVIDEX2
 70
     0
  3
Divide (2x) ________  .  .  ________  .  .  _
 72
    65
 73
     6
 40
63.49999999999999
 49
25.4
 74
     0
 49
-12.7
 74
     0
 49
0.0
 74
     0
 49
-12.7
 74
     0
 49
0.0
 74
     0
 49
-12.7
 74
     0
  0
LTYPE
  5
9B
330
5
100
AcDbSymbolTableRecord
100
AcDbLinetypeTableRecord
  2
DOT
 70
     0
  3
Dot . . . . . . . . . . . . . . . . . . . . . .
 72
    65
 73
     2
 40
6.349999999999999
 49
0.0
 74
     0
 49
-6.349999999999999
 74
     0
  0
LTYPE
  5
9C
330
5
100
AcDbSymbolTableRecord
100
AcDbLinetypeTableRecord
  2
DOT2
 70
     0
  3
Dot (.5x) .....................................
 72
    65
 73
     2
 40
3.174999999999999
 49
0.0
 74
     0
 49
-3.174999999999999
 74
     0
  0
LTYPE
  5
9D
330
5
100
AcDbSymbolTableRecord
100
AcDbLinetypeTableRecord
  2
DOTX2
 70
     0
  3
Dot (2x) .  .  .  .  .  .  .  .  .  .  .  .  . 
 72
    65
 73
     2
 40
12.7
 49
0.0
 74
     0
 49
-12.7
 74
     0
  0
LTYPE
  5
9E
330
5
100
AcDbSymbolTableRecord
100
AcDbLinetypeTableRecord
  2
HIDDEN
 70
     0
  3
Hidden __ __ __ __ __ __ __ __ __ __ __ __ __ _
 72
    65
 73
     2
 40
9.524999999999998
 49
6.349999999999999
 74
     0
 49
-3.174999999999999
 74
     0
  0
LTYPE
  5
9F
330
5
100
AcDbSymbolTableRecord
100
AcDbLinetypeTableRecord
  2
HIDDEN2
 70
     0
  3
Hidden (.5x) _ _ _ _ _ _ _ _ _ _ _ _ _ _ _ _ _
 72
    65
 73
     2
 40
4.762499999999999
 49
3.174999999999999
 74
     0
 49
-1.587499999999999
 74
     0
  0
LTYPE
  5
A0
330
5
100
AcDbSymbolTableRecord
100
AcDbLinetypeTableRecord
  2
HIDDENX2
 70
     0
  3
Hidden (2x) ____ ____ ____ ____ ____ ____ ____
 72
    65
 73
     2
 40
19.05
 49
12.7
 74
     0
 49
-6.349999999999999
 74
     0
  0
LTYPE
  5
A1
330
5
100
AcDbSymbolTableRecord
100
AcDbLinetypeTableRecord
  2
PHANTOM
 70
     0
  3
Phantom ______  __  __  ______  __  __  ______
 72
    65
 73
     6
 40
63.5
 49
31.75
 74
     0
 49
-6.349999999999999
 74
     0
 49
6.349999999999999
 74
     0
 49
-6.349999999999999
 74
     0
 49
6.349999999999999
 74
     0
 49
-6.349999999999999
 74
     0
  0
LTYPE
  5
A2
330
5
100
AcDbSymbolTableRecord
100
AcDbLinetypeTableRecord
  2
PHANTOM2
 70
     0
  3
Phantom (.5x) ___ _ _ ___ _ _ ___ _ _ ___ _ _
 72
    65
 73
     6
 40
31.75
 49
15.875
 74
     0
 49
-3.174999999999999
 74
     0
 49
3.174999999999999
 74
     0
 49
-3.174999999999999
 74
     0
 49
3.174999999999999
 74
     0
 49
-3.174999999999999
 74
     0
  0
LTYPE
  5
A3
330
5
100
AcDbSymbolTableRecord
100
AcDbLinetypeTableRecord
  2
PHANTOMX2
 70
     0
  3
Phantom (2x) ____________    ____    ____   _
 72
    65
 73
     6
 40
127.0
 49
63.5
 74
     0
 49
-12.7
 74
     0
 49
12.7
 74
     0
 49
-12.7
 74
     0
 49
12.7
 74
     0
 49
-12.7
 74
     0
  0
LTYPE
  5
A4
330
5
100
AcDbSymbolTableRecord
100
AcDbLinetypeTableRecord
  2
ACAD_ISO02W100
 70
     0
  3
ISO dash __ __ __ __ __ __ __ __ __ __ __ __ __
 72
    65
 73
     2
 40
15.0
 49
12.0
 74
     0
 49
-3.0
 74
     0
  0
LTYPE
  5
A5
330
5
100
AcDbSymbolTableRecord
100
AcDbLinetypeTableRecord
  2
ACAD_ISO03W100
 70
     0
  3
ISO dash space __    __    __    __    __    __
 72
    65
 73
     2
 40
30.0
 49
12.0
 74
     0
 49
-18.0
 74
     0
  0
LTYPE
  5
A6
330
5
100
AcDbSymbolTableRecord
100
AcDbLinetypeTableRecord
  2
ACAD_ISO04W100
 70
     0
  3
ISO long-dash dot ____ . ____ . ____ . ____ . _
 72
    65
 73
     4
 40
30.0
 49
24.0
 74
     0
 49
-3.0
 74
     0
 49
0.0
 74
     0
 49
-3.0
 74
     0
  0
LTYPE
  5
A7
330
5
100
AcDbSymbolTableRecord
100
AcDbLinetypeTableRecord
  2
ACAD_ISO05W100
 70
     0
  3
ISO long-dash double-dot ____ .. ____ .. ____ .
 72
    65
 73
     6
 40
33.0
 49
24.0
 74
     0
 49
-3.0
 74
     0
 49
0.0
 74
     0
 49
-3.0
 74
     0
 49
0.0
 74
     0
 49
-3.0
 74
     0
  0
LTYPE
  5
A8
330
5
100
AcDbSymbolTableRecord
100
AcDbLinetypeTableRecord
  2
ACAD_ISO06W100
 70
     0
  3
ISO long-dash triple-dot ____ ... ____ ... ____
 72
    65
 73
     8
 40
36.0
 49
24.0
 74
     0
 49
-3.0
 74
     0
 49
0.0
 74
     0
 49
-3.0
 74
     0
 49
0.0
 74
     0
 49
-3.0
 74
     0
 49
0.0
 74
     0
 49
-3.0
 74
     0
  0
LTYPE
  5
A9
330
5
100
AcDbSymbolTableRecord
100
AcDbLinetypeTableRecord
  2
ACAD_ISO07W100
 70
     0
  3
ISO dot . . . . . . . . . . . . . . . . . . . .
 72
    65
 73
     2
 40
3.0
 49
0.0
 74
     0
 49
-3.0
 74
     0
  0
LTYPE
  5
AA
330
5
100
AcDbSymbolTableRecord
100
AcDbLinetypeTableRecord
  2
ACAD_ISO08W100
 70
     0
  3
ISO long-dash short-dash ____ __ ____ __ ____ _
 72
    65
 73
     4
 40
36.0
 49
24.0
 74
     0
 49
-3.0
 74
     0
 49
6.0
 74
     0
 49
-3.0
 74
     0
  0
LTYPE
  5
AB
330
5
100
AcDbSymbolTableRecord
100
AcDbLinetypeTableRecord
  2
ACAD_ISO09W100
 70
     0
  3
ISO long-dash double-short-dash ____ __ __ ____
 72
    65
 73
     6
 40
45.0
 49
24.0
 74
     0
 49
-3.0
 74
     0
 49
6.0
 74
     0
 49
-3.0
 74
     0
 49
6.0
 74
     0
 49
-3.0
 74
     0
  0
LTYPE
  5
AC
330
5
100
AcDbSymbolTableRecord
100
AcDbLinetypeTableRecord
  2
ACAD_ISO10W100
 70
     0
  3
ISO dash dot __ . __ . __ . __ . __ . __ . __ .
 72
    65
 73
     4
 40
18.0
 49
12.0
 74
     0
 49
-3.0
 74
     0
 49
0.0
 74
     0
 49
-3.0
 74
     0
  0
LTYPE
  5
AD
330
5
100
AcDbSymbolTableRecord
100
AcDbLinetypeTableRecord
  2
ACAD_ISO11W100
 70
     0
  3
ISO double-dash dot __ __ . __ __ . __ __ . __ 
 72
    65
 73
     6
 40
33.0
 49
12.0
 74
     0
 49
-3.0
 74
     0
 49
12.0
 74
     0
 49
-3.0
 74
     0
 49
0.0
 74
     0
 49
-3.0
 74
     0
  0
LTYPE
  5
AE
330
5
100
AcDbSymbolTableRecord
100
AcDbLinetypeTableRecord
  2
ACAD_ISO12W100
 70
     0
  3
ISO dash double-dot __ . . __ . . __ . . __ . .
 72
    65
 73
     6
 40
21.0
 49
12.0
 74
     0
 49
-3.0
 74
     0
 49
0.0
 74
     0
 49
-3.0
 74
     0
 49
0.0
 74
     0
 49
-3.0
 74
     0
  0
LTYPE
  5
AF
330
5
100
AcDbSymbolTableRecord
100
AcDbLinetypeTableRecord
  2
ACAD_ISO13W100
 70
     0
  3
ISO double-dash double-dot __ __ . . __ __ . . 
 72
    65
 73
     8
 40
36.0
 49
12.0
 74
     0
 49
-3.0
 74
     0
 49
12.0
 74
     0
 49
-3.0
 74
     0
 49
0.0
 74
     0
 49
-3.0
 74
     0
 49
0.0
 74
     0
 49
-3.0
 74
     0
  0
LTYPE
  5
B0
330
5
100
AcDbSymbolTableRecord
100
AcDbLinetypeTableRecord
  2
ACAD_ISO14W100
 70
     0
  3
ISO dash triple-dot __ . . . __ . . . __ . . . 
 72
    65
 73
     8
 40
24.0
 49
12.0
 74
     0
 49
-3.0
 74
     0
 49
0.0
 74
     0
 49
-3.0
 74
     0
 49
0.0
 74
     0
 49
-3.0
 74
     0
 49
0.0
 74
     0
 49
-3.0
 74
     0
  0
LTYPE
  5
B1
330
5
100
AcDbSymbolTableRecord
100
AcDbLinetypeTableRecord
  2
ACAD_ISO15W100
 70
     0
  3
ISO double-dash triple-dot __ __ . . . __ __ . 
 72
    65
 73
    10
 40
39.0
 49
12.0
 74
     0
 49
-3.0
 74
     0
 49
12.0
 74
     0
 49
-3.0
 74
     0
 49
0.0
 74
     0
 49
-3.0
 74
     0
 49
0.0
 74
     0
 49
-3.0
 74
     0
 49
0.0
 74
     0
 49
-3.0
 74
     0
  0
LTYPE
  5
B4
330
5
100
AcDbSymbolTableRecord
100
AcDbLinetypeTableRecord
  2
FENCELINE1
 70
     0
  3
Fenceline circle ----0-----0----0-----0----0---
 72
    65
 73
     4
 40
36.83
 49
6.349999999999999
 74
     0
 49
-2.54
 74
     4
 75
   133
340
B3
 46
2.54
 50
0.0
 44
-2.54
 45
0.0
 49
-2.54
 74
     0
 49
25.4
 74
     0
  0
LTYPE
  5
B5
330
5
100
AcDbSymbolTableRecord
100
AcDbLinetypeTableRecord
  2
FENCELINE2
 70
     0
  3
Fenceline square ----[]-----[]----[]-----[]----
 72
    65
 73
     4
 40
36.83
 49
6.349999999999999
 74
     0
 49
-2.54
 74
     4
 75
   132
340
B3
 46
2.54
 50
0.0
 44
-2.54
 45
0.0
 49
-2.54
 74
     0
 49
25.4
 74
     0
  0
LTYPE
  5
B6
330
5
100
AcDbSymbolTableRecord
100
AcDbLinetypeTableRecord
  2
TRACKS
 70
     0
  3
Tracks -|-|-|-|-|-|-|-|-|-|-|-|-|-|-|-|-|-|-|-|
 72
    65
 73
     2
 40
7.62
 49
3.81
 74
     4
 75
   130
340
B3
 46
6.349999999999999
 50
0.0
 44
0.0
 45
0.0
 49
3.81
 74
     0
  0
LTYPE
  5
B7
330
5
100
AcDbSymbolTableRecord
100
AcDbLinetypeTableRecord
  2
BATTING
 70
     0
  3
Batting SSSSSSSSSSSSSSSSSSSSSSSSSSSSSSSSSSSSSSS
 72
    65
 73
     4
 40
10.16254
 49
0.00254
 74
     0
 49
-2.54
 74
     4
 75
   134
340
B3
 46
2.54
 50
0.0
 44
-2.54
 45
0.0
 49
-5.08
 74
     4
 75
   134
340
B3
 46
2.54
 50
180.0
 44
2.54
 45
0.0
 49
-2.54
 74
     0
  0
LTYPE
  5
B8
330
5
100
AcDbSymbolTableRecord
100
AcDbLinetypeTableRecord
  2
HOT_WATER_SUPPLY
 70
     0
  3
Hot water supply ---- HW ---- HW ---- HW ----
 72
    65
 73
     3
 40
22.86
 49
12.7
 74
     0
 49
-5.08
 74
     2
 75
     0
340
60
 46
2.54
 50
0.0
 44
-2.54
 45
-1.27
  9
HW
 49
-5.08
 74
     0
  0
LTYPE
  5
B9
330
5
100
AcDbSymbolTableRecord
100
AcDbLinetypeTableRecord
  2
GAS_LINE
 70
     0
  3
Gas line ----GAS----GAS----GAS----GAS----GAS---
 72
    65
 73
     3
 40
24.13
 49
12.7
 74
     0
 49
-5.08
 74
     2
 75
     0
340
60
 46
2.54
 50
0.0
 44
-2.54
 45
-1.27
  9
GAS
 49
-6.349999999999999
 74
     0
  0
LTYPE
  5
BA
330
5
100
AcDbSymbolTableRecord
100
AcDbLinetypeTableRecord
  2
ZIGZAG
 70
     0
  3
Zig zag /\/\/\/\/\/\/\/\/\/\/\/\/\/\/\/\/\/\/\/
 72
    65
 73
     4
 40
20.32254
 49
0.00254
 74
     0
 49
-5.08
 74
     4
 75
   131
340
B3
 46
5.08
 50
0.0
 44
-5.08
 45
0.0
 49
-10.16
 74
     4
 75
   131
340
B3
 46
5.08
 50
180.0
 44
5.08
 45
0.0
 49
-5.08
 74
     0
  0
LTYPE
  5
15C1
330
5
100
AcDbSymbolTableRecord
100
AcDbLinetypeTableRecord
  2
AM_ISO02W050
 70
     0
  3
__ __ __ __ __ __ __ __ __ __ __ __ __ __ __
 72
    65
 73
     2
 40
7.5
 49
6.0
 74
     0
 49
-1.5
 74
     0
  0
LTYPE
  5
15C2
330
5
100
AcDbSymbolTableRecord
100
AcDbLinetypeTableRecord
  2
AM_ISO08W050
 70
     0
  3
____ . ____ . ____ . ____ . ____ . ____ . ____
 72
    65
 73
     4
 40
18.0
 49
12.0
 74
     0
 49
-1.5
 74
     0
 49
3.0
 74
     0
 49
-1.5
 74
     0
  0
LTYPE
  5
15C3
330
5
100
AcDbSymbolTableRecord
100
AcDbLinetypeTableRecord
  2
AM_ISO09W050
 70
     0
  3
_____ . . _____ . . _____ . . ____ .. ____
 72
    65
 73
     6
 40
22.5
 49
12.0
 74
     0
 49
-1.5
 74
     0
 49
3.0
 74
     0
 49
-1.5
 74
     0
 49
3.0
 74
     0
 49
-1.5
 74
     0
  0
LTYPE
  5
15C4
330
5
100
AcDbSymbolTableRecord
100
AcDbLinetypeTableRecord
  2
Amconstr
 70
     0
  3
_______________________
 72
    65
 73
     2
 40
9999.0
 49
9999.0
 74
     0
 49
0.0
 74
     0
  0
LTYPE
  5
15C5
330
5
100
AcDbSymbolTableRecord
100
AcDbLinetypeTableRecord
  2
AM_ISO08W050x2
 70
     0
  3
__ . __ . __ . __ . __ . __
 72
    65
 73
     4
 40
9.0
 49
6.0
 74
     0
 49
-0.75
 74
     0
 49
1.5
 74
     0
 49
-0.75
 74
     0
  0
LTYPE
  5
15C6
330
5
100
AcDbSymbolTableRecord
100
AcDbLinetypeTableRecord
  2
AM_ISO02W050x2
 70
     0
  3
 _ _ _ _ _ _ _ _ _ _ _ _
 72
    65
 73
     2
 40
3.75
 49
3.0
 74
     0
 49
-0.75
 74
     0
  0
LTYPE
  5
15C9
330
5
100
AcDbSymbolTableRecord
100
AcDbLinetypeTableRecord
  2
Amzigzag
 70
     0
  3
/\/-/\/-/\/-/\/-/\/-/\/
 72
    65
 73
     2
 40
11.0001
 49
0.0001
 74
     4
 75
   136
340
15C8
 46
0.04
 50
0.0
 44
0.0
 45
0.0
 49
-11.0
 74
     0
  0
LTYPE
  5
15CD
330
5
100
AcDbSymbolTableRecord
100
AcDbLinetypeTableRecord
  2
ACISOWELD
 70
     0
  3
_ _ _ _ _
 72
    65
 73
     2
 40
2.0
 49
2.0
 74
     0
 49
-1.0
 74
     0
  0
LTYPE
  5
15CE
330
5
100
AcDbSymbolTableRecord
100
AcDbLinetypeTableRecord
  2
ACISOTGB
 70
     0
  3
__ . . __ . .
 72
    65
 73
     6
 40
9.0
 49
4.0
 74
     0
 49
-1.0
 74
     0
 49
1.0
 74
     0
 49
-1.0
 74
     0
 49
1.0
 74
     0
 49
-1.0
 74
     0
  0
LTYPE
  5
15CF
330
5
100
AcDbSymbolTableRecord
100
AcDbLinetypeTableRecord
  2
ACISOTGL
 70
     0
  3
_ _ _ _ _
 72
    65
 73
     2
 40
3.0
 49
2.0
 74
     0
 49
-1.0
 74
     0
  0
ENDTAB
  0
TABLE
  2
LAYER
  5
2
330
0
100
AcDbSymbolTable
 70
    12
  0
LAYER
  5
5F
330
2
100
AcDbSymbolTableRecord
100
AcDbLayerTableRecord
  2
0
 70
     0
 62
     7
  6
Continuous
370
    -3
390
F
  0
LAYER
  5
C1
330
2
100
AcDbSymbolTableRecord
100
AcDbLayerTableRecord
  2
Bordo_0
 70
     0
 62
   179
  6
Continuous
370
    50
390
F
  0
LAYER
  5
C2
330
2
100
AcDbSymbolTableRecord
100
AcDbLayerTableRecord
  2
Bordo_2
 70
     0
 62
   179
  6
Continuous
370
    50
390
F
  0
LAYER
  5
C7
330
2
100
AcDbSymbolTableRecord
100
AcDbLayerTableRecord
  2
Centro(ISO)
 70
     0
 62
   150
  6
Continuous
370
    18
390
F
  0
LAYER
  5
DF
330
2
100
AcDbSymbolTableRecord
100
AcDbLayerTableRecord
  2
Geometria schizzo(ISO)
 70
     0
 62
   179
  6
Continuous
370
    35
390
F
  0
LAYER
  5
E6
330
2
100
AcDbSymbolTableRecord
100
AcDbLayerTableRecord
  2
Linea del centro(ISO)
 70
     0
 62
   150
  6
LONG_DASH_DOTTED
370
    18
390
F
  0
LAYER
  5
15F
330
2
100
AcDbSymbolTableRecord
100
AcDbLayerTableRecord
  2
Quote(ISO)
 70
     0
 62
    96
  6
Continuous
370
    18
390
F
  0
LAYER
  5
165
330
2
100
AcDbSymbolTableRecord
100
AcDbLayerTableRecord
  2
Simboli(ISO)
 70
     0
 62
   179
  6
Continuous
370
    18
390
F
  0
LAYER
  5
172
330
2
100
AcDbSymbolTableRecord
100
AcDbLayerTableRecord
  2
Spigoli nascosti(ISO)
 70
     0
 62
     6
  6
DASHED
370
    35
390
F
  0
LAYER
  5
18A
330
2
100
AcDbSymbolTableRecord
100
AcDbLayerTableRecord
  2
Spigoli visibili(ISO)
 70
     0
 62
   179
  6
Continuous
370
    35
390
F
  0
LAYER
  5
18C
330
2
100
AcDbSymbolTableRecord
100
AcDbLayerTableRecord
  2
Tratteggio
 70
     0
 62
   179
  6
Continuous
370
     9
390
F
  0
LAYER
  5
437
330
2
100
AcDbSymbolTableRecord
100
AcDbLayerTableRecord
  2
Defpoints
 70
     0
 62
     7
  6
Continuous
290
     0
370
    -3
390
F
  0
ENDTAB
  0
TABLE
  2
STYLE
  5
3
330
0
100
AcDbSymbolTable
 70
    65
  0
STYLE
  5
60
330
3
100
AcDbSymbolTableRecord
100
AcDbTextStyleTableRecord
  2
Standard
 70
     0
 40
0.0
 41
1.0
 50
0.0
 71
     0
 42
0.2
  3
ARIAL.TTF
  4

1001
ACAD
1000
Arial
1071
      256
  0
STYLE
  5
65
330
3
100
AcDbSymbolTableRecord
100
AcDbTextStyleTableRecord
  2
Annotative
 70
     0
 40
0.0
 41
1.0
 50
0.0
 71
     0
 42
0.2
  3
txt
  4

1001
AcadAnnotative
1000
AnnotativeData
1002
{
1070
     1
1070
     1
1002
}
  0
STYLE
  5
B3
330
3
100
AcDbSymbolTableRecord
100
AcDbTextStyleTableRecord
  2

 70
     1
 40
0.0
 41
1.0
 50
0.0
 71
     0
 42
0.2
  3
ltypeshp.shx
  4

  0
STYLE
  5
18D
330
3
100
AcDbSymbolTableRecord
100
AcDbTextStyleTableRecord
  2
Bordo_1
 70
     0
 40
0.0
 41
1.0
 50
0.0
 71
     0
 42
0.2
  3
ARIAL.TTF
  4

1001
ACAD
1000
Arial
1071
      256
  0
STYLE
  5
18E
330
3
100
AcDbSymbolTableRecord
100
AcDbTextStyleTableRecord
  2
Corrente-ANSI
 70
     0
 40
0.0
 41
1.0
 50
0.0
 71
     0
 42
0.2
  3
ARIAL.TTF
  4

1001
ACAD
1000
Arial
1071
      256
  0
STYLE
  5
18F
330
3
100
AcDbSymbolTableRecord
100
AcDbTextStyleTableRecord
  2
Corrente-BSI
 70
     0
 40
0.0
 41
1.0
 50
0.0
 71
     0
 42
0.2
  3
ARIAL.TTF
  4

1001
ACAD
1000
Arial
1071
      256
  0
STYLE
  5
190
330
3
100
AcDbSymbolTableRecord
100
AcDbTextStyleTableRecord
  2
Corrente-DIN
 70
     0
 40
0.0
 41
1.0
 50
0.0
 71
     0
 42
0.2
  3
ARIAL.TTF
  4

1001
ACAD
1000
Arial
1071
      256
  0
STYLE
  5
191
330
3
100
AcDbSymbolTableRecord
100
AcDbTextStyleTableRecord
  2
Corrente-GB
 70
     0
 40
0.0
 41
1.0
 50
0.0
 71
     0
 42
0.2
  3
ARIAL.TTF
  4

1001
ACAD
1000
Arial
1071
      256
  0
STYLE
  5
192
330
3
100
AcDbSymbolTableRecord
100
AcDbTextStyleTableRecord
  2
Corrente-ISO
 70
     0
 40
0.0
 41
1.0
 50
0.0
 71
     0
 42
0.2
  3
ARIAL.TTF
  4

1001
ACAD
1000
Arial
1071
      256
  0
STYLE
  5
193
330
3
100
AcDbSymbolTableRecord
100
AcDbTextStyleTableRecord
  2
Corrente-JIS
 70
     0
 40
0.0
 41
1.0
 50
0.0
 71
     0
 42
0.2
  3
ARIAL.TTF
  4

1001
ACAD
1000
Arial
1071
      256
  0
STYLE
  5
194
330
3
100
AcDbSymbolTableRecord
100
AcDbTextStyleTableRecord
  2
DEFAULT-ANSI
 70
     0
 40
0.0
 41
1.0
 50
0.0
 71
     0
 42
0.2
  3
ARIAL.TTF
  4

1001
ACAD
1000
Arial
1071
      256
  0
STYLE
  5
195
330
3
100
AcDbSymbolTableRecord
100
AcDbTextStyleTableRecord
  2
DEFAULT-ANSI~0
 70
     0
 40
0.0
 41
1.0
 50
0.0
 71
     0
 42
0.2
  3
ARIAL.TTF
  4

1001
ACAD
1000
Arial
1071
      256
  0
STYLE
  5
196
330
3
100
AcDbSymbolTableRecord
100
AcDbTextStyleTableRecord
  2
DEFAULT-ANSIDa layer
 70
     0
 40
0.0
 41
1.0
 50
0.0
 71
     0
 42
0.2
  3
ARIAL.TTF
  4

1001
ACAD
1000
Arial
1071
      256
  0
STYLE
  5
197
330
3
100
AcDbSymbolTableRecord
100
AcDbTextStyleTableRecord
  2
DEFAULT-ANSITesto caratteri grandi
 70
     0
 40
0.0
 41
1.0
 50
0.0
 71
     0
 42
0.2
  3
ARIAL.TTF
  4

1001
ACAD
1000
Arial
1071
      256
  0
STYLE
  5
198
330
3
100
AcDbSymbolTableRecord
100
AcDbTextStyleTableRecord
  2
DEFAULT-BSI
 70
     0
 40
0.0
 41
1.0
 50
0.0
 71
     0
 42
0.2
  3
ARIAL.TTF
  4

1001
ACAD
1000
Arial
1071
      256
  0
STYLE
  5
199
330
3
100
AcDbSymbolTableRecord
100
AcDbTextStyleTableRecord
  2
DEFAULT-BSIDa layer
 70
     0
 40
0.0
 41
1.0
 50
0.0
 71
     0
 42
0.2
  3
ARIAL.TTF
  4

1001
ACAD
1000
Arial
1071
      256
  0
STYLE
  5
19A
330
3
100
AcDbSymbolTableRecord
100
AcDbTextStyleTableRecord
  2
DEFAULT-BSITesto caratteri grandi
 70
     0
 40
0.0
 41
1.0
 50
0.0
 71
     0
 42
0.2
  3
ARIAL.TTF
  4

1001
ACAD
1000
Arial
1071
      256
  0
STYLE
  5
19B
330
3
100
AcDbSymbolTableRecord
100
AcDbTextStyleTableRecord
  2
DEFAULT-DIN
 70
     0
 40
0.0
 41
1.0
 50
0.0
 71
     0
 42
0.2
  3
ARIAL.TTF
  4

1001
ACAD
1000
Arial
1071
      256
  0
STYLE
  5
19C
330
3
100
AcDbSymbolTableRecord
100
AcDbTextStyleTableRecord
  2
DEFAULT-DINDa layer
 70
     0
 40
0.0
 41
1.0
 50
0.0
 71
     0
 42
0.2
  3
ARIAL.TTF
  4

1001
ACAD
1000
Arial
1071
      256
  0
STYLE
  5
19D
330
3
100
AcDbSymbolTableRecord
100
AcDbTextStyleTableRecord
  2
DEFAULT-DINTesto caratteri grandi
 70
     0
 40
0.0
 41
1.0
 50
0.0
 71
     0
 42
0.2
  3
ARIAL.TTF
  4

1001
ACAD
1000
Arial
1071
      256
  0
STYLE
  5
19E
330
3
100
AcDbSymbolTableRecord
100
AcDbTextStyleTableRecord
  2
DEFAULT-GB
 70
     0
 40
0.0
 41
1.0
 50
0.0
 71
     0
 42
0.2
  3
ARIAL.TTF
  4

1001
ACAD
1000
Arial
1071
      256
  0
STYLE
  5
19F
330
3
100
AcDbSymbolTableRecord
100
AcDbTextStyleTableRecord
  2
DEFAULT-GBDa layer
 70
     0
 40
0.0
 41
1.0
 50
0.0
 71
     0
 42
0.2
  3
ARIAL.TTF
  4

1001
ACAD
1000
Arial
1071
      256
  0
STYLE
  5
1A0
330
3
100
AcDbSymbolTableRecord
100
AcDbTextStyleTableRecord
  2
DEFAULT-GBTesto caratteri grandi
 70
     0
 40
0.0
 41
1.0
 50
0.0
 71
     0
 42
0.2
  3
ARIAL.TTF
  4

1001
ACAD
1000
Arial
1071
      256
  0
STYLE
  5
1A1
330
3
100
AcDbSymbolTableRecord
100
AcDbTextStyleTableRecord
  2
DEFAULT-ISO
 70
     0
 40
0.0
 41
1.0
 50
0.0
 71
     0
 42
0.2
  3
ARIAL.TTF
  4

1001
ACAD
1000
Arial
1071
      256
  0
STYLE
  5
1A2
330
3
100
AcDbSymbolTableRecord
100
AcDbTextStyleTableRecord
  2
DEFAULT-ISO~0
 70
     0
 40
0.0
 41
1.0
 50
0.0
 71
     0
 42
0.2
  3
ARIAL.TTF
  4

1001
ACAD
1000
Arial
1071
      256
  0
STYLE
  5
1A3
330
3
100
AcDbSymbolTableRecord
100
AcDbTextStyleTableRecord
  2
DEFAULT-ISODa layer
 70
     0
 40
0.0
 41
1.0
 50
0.0
 71
     0
 42
0.2
  3
ARIAL.TTF
  4

1001
ACAD
1000
Arial
1071
      256
  0
STYLE
  5
1A4
330
3
100
AcDbSymbolTableRecord
100
AcDbTextStyleTableRecord
  2
DEFAULT-ISOTesto caratteri grandi
 70
     0
 40
0.0
 41
1.0
 50
0.0
 71
     0
 42
0.2
  3
ARIAL.TTF
  4

1001
ACAD
1000
Arial
1071
      256
  0
STYLE
  5
1A5
330
3
100
AcDbSymbolTableRecord
100
AcDbTextStyleTableRecord
  2
DEFAULT-JIS
 70
     0
 40
0.0
 41
1.0
 50
0.0
 71
     0
 42
0.2
  3
ARIAL.TTF
  4

1001
ACAD
1000
Arial
1071
      256
  0
STYLE
  5
1A6
330
3
100
AcDbSymbolTableRecord
100
AcDbTextStyleTableRecord
  2
DEFAULT-JIS~0
 70
     0
 40
0.0
 41
1.0
 50
0.0
 71
     0
 42
0.2
  3
ARIAL.TTF
  4

1001
ACAD
1000
Arial
1071
      256
  0
STYLE
  5
1A7
330
3
100
AcDbSymbolTableRecord
100
AcDbTextStyleTableRecord
  2
DEFAULT-JISDa layer
 70
     0
 40
0.0
 41
1.0
 50
0.0
 71
     0
 42
0.2
  3
ARIAL.TTF
  4

1001
ACAD
1000
Arial
1071
      256
  0
STYLE
  5
1A8
330
3
100
AcDbSymbolTableRecord
100
AcDbTextStyleTableRecord
  2
DEFAULT-JISTesto caratteri grandi
 70
     0
 40
0.0
 41
1.0
 50
0.0
 71
     0
 42
0.2
  3
ARIAL.TTF
  4

1001
ACAD
1000
Arial
1071
      256
  0
STYLE
  5
1A9
330
3
100
AcDbSymbolTableRecord
100
AcDbTextStyleTableRecord
  2
ISOCADMEC_1-1
 70
     0
 40
0.0
 41
1.064000010490417
 50
0.0
 71
     0
 42
0.2
  3
ARIAL.TTF
  4

1001
ACAD
1000
Arial
1071
      256
  0
STYLE
  5
1AA
330
3
100
AcDbSymbolTableRecord
100
AcDbTextStyleTableRecord
  2
MM-ANSI
 70
     0
 40
0.0
 41
1.0
 50
0.0
 71
     0
 42
0.2
  3
ARIAL.TTF
  4

1001
ACAD
1000
Arial
1071
      256
  0
STYLE
  5
1AB
330
3
100
AcDbSymbolTableRecord
100
AcDbTextStyleTableRecord
  2
STANDARDAM_ISO
 70
     0
 40
0.0
 41
1.064000010490417
 50
0.0
 71
     0
 42
0.2
  3
ISOCP.shx
  4

  0
STYLE
  5
1AC
330
3
100
AcDbSymbolTableRecord
100
AcDbTextStyleTableRecord
  2
STANDARDAM_ISO$3
 70
     0
 40
0.0
 41
1.064000010490417
 50
0.0
 71
     0
 42
0.2
  3
ISOCP.shx
  4

  0
STYLE
  5
1AD
330
3
100
AcDbSymbolTableRecord
100
AcDbTextStyleTableRecord
  2
STANDARDAM_ISO$4
 70
     0
 40
0.0
 41
1.064000010490417
 50
0.0
 71
     0
 42
0.2
  3
ISOCP.shx
  4

  0
STYLE
  5
1AE
330
3
100
AcDbSymbolTableRecord
100
AcDbTextStyleTableRecord
  2
STANDARDAM_ISO$6
 70
     0
 40
0.0
 41
1.064000010490417
 50
0.0
 71
     0
 42
0.2
  3
ISOCP.shx
  4

  0
STYLE
  5
1AF
330
3
100
AcDbSymbolTableRecord
100
AcDbTextStyleTableRecord
  2
STANDARDAM_ISO$7
 70
     0
 40
0.0
 41
1.064000010490417
 50
0.0
 71
     0
 42
0.2
  3
ISOCP.shx
  4

  0
STYLE
  5
1B0
330
3
100
AcDbSymbolTableRecord
100
AcDbTextStyleTableRecord
  2
STANDARDAM_ISO$SF
 70
     0
 40
0.0
 41
1.064000010490417
 50
0.0
 71
     0
 42
0.2
  3
ISOCP.shx
  4

  0
STYLE
  5
1B1
330
3
100
AcDbSymbolTableRecord
100
AcDbTextStyleTableRecord
  2
STANDARDAM_ISO$SH
 70
     0
 40
0.0
 41
1.064000010490417
 50
0.0
 71
     0
 42
0.2
  3
ISOCP.shx
  4

  0
STYLE
  5
1B2
330
3
100
AcDbSymbolTableRecord
100
AcDbTextStyleTableRecord
  2
STANDARDGEN-ISO
 70
     0
 40
0.0
 41
1.064000010490417
 50
0.0
 71
     0
 42
0.2
  3
ISOCP.shx
  4

  0
STYLE
  5
1B3
330
3
100
AcDbSymbolTableRecord
100
AcDbTextStyleTableRecord
  2
STANDARDGEN-ISO-AXE-F
 70
     0
 40
0.0
 41
1.064000010490417
 50
0.0
 71
     0
 42
0.2
  3
ISOCP.shx
  4

  0
STYLE
  5
1B4
330
3
100
AcDbSymbolTableRecord
100
AcDbTextStyleTableRecord
  2
STANDARDGEN-ISO-AXE-H
 70
     0
 40
0.0
 41
1.064000010490417
 50
0.0
 71
     0
 42
0.2
  3
ISOCP.shx
  4

  0
STYLE
  5
1B5
330
3
100
AcDbSymbolTableRecord
100
AcDbTextStyleTableRecord
  2
STANDARDGEN-ISO-POS
 70
     0
 40
0.0
 41
1.064000010490417
 50
0.0
 71
     0
 42
0.2
  3
ISOCP.shx
  4

  0
STYLE
  5
1B6
330
3
100
AcDbSymbolTableRecord
100
AcDbTextStyleTableRecord
  2
STANDARDGEN-ISO$3
 70
     0
 40
0.0
 41
1.064000010490417
 50
0.0
 71
     0
 42
0.2
  3
ISOCP.shx
  4

  0
STYLE
  5
1B7
330
3
100
AcDbSymbolTableRecord
100
AcDbTextStyleTableRecord
  2
STANDARDGEN-ISO$4
 70
     0
 40
0.0
 41
1.064000010490417
 50
0.0
 71
     0
 42
0.2
  3
ISOCP.shx
  4

  0
STYLE
  5
1B8
330
3
100
AcDbSymbolTableRecord
100
AcDbTextStyleTableRecord
  2
STANDARDGEN-ISO$6
 70
     0
 40
0.0
 41
1.064000010490417
 50
0.0
 71
     0
 42
0.2
  3
ISOCP.shx
  4

  0
STYLE
  5
1B9
330
3
100
AcDbSymbolTableRecord
100
AcDbTextStyleTableRecord
  2
STANDARDISO-25
 70
     0
 40
0.0
 41
1.064000010490417
 50
0.0
 71
     0
 42
0.2
  3
ISOCP.shx
  4

  0
STYLE
  5
1BA
330
3
100
AcDbSymbolTableRecord
100
AcDbTextStyleTableRecord
  2
STANDARDISO-35
 70
     0
 40
0.0
 41
1.064000010490417
 50
0.0
 71
     0
 42
0.2
  3
ISOCP.shx
  4

  0
STYLE
  5
1BB
330
3
100
AcDbSymbolTableRecord
100
AcDbTextStyleTableRecord
  2
STANDARDISO-5
 70
     0
 40
0.0
 41
1.064000010490417
 50
0.0
 71
     0
 42
0.2
  3
ISOCP.shx
  4

  0
STYLE
  5
1BC
330
3
100
AcDbSymbolTableRecord
100
AcDbTextStyleTableRecord
  2
STANDARDISO-7
 70
     0
 40
0.0
 41
1.064000010490417
 50
0.0
 71
     0
 42
0.2
  3
ISOCP.shx
  4

  0
STYLE
  5
1BD
330
3
100
AcDbSymbolTableRecord
100
AcDbTextStyleTableRecord
  2
STANDARDISO1
 70
     0
 40
0.0
 41
1.064000010490417
 50
0.0
 71
     0
 42
0.2
  3
ISOCP.shx
  4

  0
STYLE
  5
1BE
330
3
100
AcDbSymbolTableRecord
100
AcDbTextStyleTableRecord
  2
STANDARDISO1-4
 70
     0
 40
0.0
 41
1.064000010490417
 50
0.0
 71
     0
 42
0.2
  3
ISOCP.shx
  4

  0
STYLE
  5
1BF
330
3
100
AcDbSymbolTableRecord
100
AcDbTextStyleTableRecord
  2
STANDARDISO2
 70
     0
 40
0.0
 41
1.064000010490417
 50
0.0
 71
     0
 42
0.2
  3
ISOCP.shx
  4

  0
STYLE
  5
1C0
330
3
100
AcDbSymbolTableRecord
100
AcDbTextStyleTableRecord
  2
STANDARDSTANDARD
 70
     0
 40
0.0
 41
1.064000010490417
 50
0.0
 71
     0
 42
0.2
  3
ISOCP.shx
  4

  0
STYLE
  5
1C1
330
3
100
AcDbSymbolTableRecord
100
AcDbTextStyleTableRecord
  2
X . XXX
 70
     0
 40
0.0
 41
1.0
 50
0.0
 71
     0
 42
0.2
  3
ARIAL.TTF
  4

1001
ACAD
1000
Arial
1071
      256
  0
STYLE
  5
1C2
330
3
100
AcDbSymbolTableRecord
100
AcDbTextStyleTableRecord
  2
X.X spazio grande e testo
 70
     0
 40
0.0
 41
1.0
 50
0.0
 71
     0
 42
0.2
  3
ARIAL.TTF
  4

1001
ACAD
1000
Arial
1071
      256
  0
STYLE
  5
27E
330
3
100
AcDbSymbolTableRecord
100
AcDbTextStyleTableRecord
  2
Stile testo15
 70
     0
 40
0.0
 41
1.0
 50
0.0
 71
     0
 42
0.2
  3
ARIAL.TTF
  4

1001
ACAD
1000
Arial
1071
      256
  0
STYLE
  5
283
330
3
100
AcDbSymbolTableRecord
100
AcDbTextStyleTableRecord
  2
Stile testo116
 70
     0
 40
0.0
 41
0.899999976158142
 50
0.0
 71
     0
 42
0.2
  3
ARIAL.TTF
  4

1001
ACAD
1000
Arial
1071
      256
  0
STYLE
  5
285
330
3
100
AcDbSymbolTableRecord
100
AcDbTextStyleTableRecord
  2
Stile testo115
 70
     0
 40
0.0
 41
0.899999976158142
 50
0.0
 71
     0
 42
0.2
  3
ARIAL.TTF
  4

1001
ACAD
1000
Arial
1071
      256
  0
STYLE
  5
35E
330
3
100
AcDbSymbolTableRecord
100
AcDbTextStyleTableRecord
  2
Stile testo6
 70
     0
 40
0.0
 41
1.0
 50
0.0
 71
     0
 42
0.2
  3
ARIAL.TTF
  4

1001
ACAD
1000
Arial
1071
      256
  0
STYLE
  5
361
330
3
100
AcDbSymbolTableRecord
100
AcDbTextStyleTableRecord
  2
Stile testo125
 70
     0
 40
0.0
 41
1.0
 50
0.0
 71
     0
 42
0.2
  3

  4

1001
ACAD
1000
Arial
1071
 33554688
  0
STYLE
  5
15C8
330
3
100
AcDbSymbolTableRecord
100
AcDbTextStyleTableRecord
  2

 70
     1
 40
0.0
 41
1.0
 50
0.0
 71
     0
 42
0.2
  3
genltshp.shx
  4

  0
STYLE
  5
15CB
330
3
100
AcDbSymbolTableRecord
100
AcDbTextStyleTableRecord
  2
ACISOTS
 70
     0
 40
1.0
 41
1.0
 50
0.0
 71
     0
 42
0.2
  3
isocp.shx
  4

  0
STYLE
  5
15CC
330
3
100
AcDbSymbolTableRecord
100
AcDbTextStyleTableRecord
  2
ACISOGDT
 70
     0
 40
0.0
 41
1.0
 50
0.0
 71
     0
 42
0.2
  3
amgdt.shx
  4

  0
ENDTAB
  0
TABLE
  2
VIEW
  5
6
330
0
100
AcDbSymbolTable
 70
     0
  0
ENDTAB
  0
TABLE
  2
UCS
  5
7
330
0
100
AcDbSymbolTable
 70
     0
  0
ENDTAB
  0
TABLE
  2
APPID
  5
9
330
0
100
AcDbSymbolTable
 70
    15
  0
APPID
  5
61
330
9
100
AcDbSymbolTableRecord
100
AcDbRegAppTableRecord
  2
ACAD
 70
     0
  0
APPID
  5
69
330
9
100
AcDbSymbolTableRecord
100
AcDbRegAppTableRecord
  2
AcadAnnotative
 70
     0
  0
APPID
  5
281
330
9
100
AcDbSymbolTableRecord
100
AcDbRegAppTableRecord
  2
AcadAnnoPO
 70
     0
  0
APPID
  5
670
330
9
100
AcDbSymbolTableRecord
100
AcDbRegAppTableRecord
  2
ACAD_DSTYLE_DIMANGULAR_EXTENSION
 70
     0
  0
APPID
  5
1182
330
9
100
AcDbSymbolTableRecord
100
AcDbRegAppTableRecord
  2
ACAD_DSTYLE_DIMRADIAL_EXTENSION
 70
     0
  0
APPID
  5
1511
330
9
100
AcDbSymbolTableRecord
100
AcDbRegAppTableRecord
  2
ACAD_MLEADERVER
 70
     0
  0
APPID
  5
154D
330
9
100
AcDbSymbolTableRecord
100
AcDbRegAppTableRecord
  2
MCAD_NO_VIS
 70
     0
  0
APPID
  5
154E
330
9
100
AcDbSymbolTableRecord
100
AcDbRegAppTableRecord
  2
ACAD_TEMP_GRAPHIC
 70
     0
  0
APPID
  5
157B
330
9
100
AcDbSymbolTableRecord
100
AcDbRegAppTableRecord
  2
AD_DRAW
 70
     0
  0
APPID
  5
157E
330
9
100
AcDbSymbolTableRecord
100
AcDbRegAppTableRecord
  2
ACATTRIBSERVICES
 70
     0
  0
APPID
  5
159E
330
9
100
AcDbSymbolTableRecord
100
AcDbRegAppTableRecord
  2
DESIGNERASSEMBLIES
 70
     0
  0
APPID
  5
15A4
330
9
100
AcDbSymbolTableRecord
100
AcDbRegAppTableRecord
  2
ACADM_DIM_EDIT
 70
     0
  0
APPID
  5
15A5
330
9
100
AcDbSymbolTableRecord
100
AcDbRegAppTableRecord
  2
AMDT_DM_ADJ
 70
     0
  0
APPID
  5
15BD
330
9
100
AcDbSymbolTableRecord
100
AcDbRegAppTableRecord
  2
ACAD_DSTYLE_DIMBREAK
 70
     0
  0
APPID
  5
15BE
330
9
100
AcDbSymbolTableRecord
100
AcDbRegAppTableRecord
  2
ACAD_DSTYLE_DIMJAG
 70
     0
  0
ENDTAB
  0
TABLE
  2
DIMSTYLE
  5
A
330
0
100
AcDbSymbolTable
 70
   100
100
AcDbDimStyleTable
 71
     2
340
1E7
340
63
  0
DIMSTYLE
105
63
330
A
100
AcDbSymbolTableRecord
100
AcDbDimStyleTableRecord
  2
Standard
 70
     0
 41
2.5
340
60
342
1F0
  0
DIMSTYLE
105
64
330
A
100
AcDbSymbolTableRecord
100
AcDbDimStyleTableRecord
  2
Annotative
 70
     0
340
60
1001
AcadAnnotative
1000
AnnotativeData
1002
{
1070
     1
1070
     1
1002
}
  0
DIMSTYLE
105
1C3
330
A
100
AcDbSymbolTableRecord
100
AcDbDimStyleTableRecord
  2
BSI - Metodo 2
 70
     0
 41
2.5
 42
0.5
 43
5.999999999999999
 44
2.999999999999999
 45
0.00000001
 46
10.0
 73
     0
 77
     1
 78
     8
 79
     2
140
3.5
143
0.03937
147
0.75
171
     3
172
     1
176
   250
177
   250
178
   250
179
     2
271
     2
272
     2
274
     3
278
    44
285
     8
340
1A2
371
    25
372
    25
  0
DIMSTYLE
105
1C4
330
A
100
AcDbSymbolTableRecord
100
AcDbDimStyleTableRecord
  2
BSI - Metodo 2$7
 70
     0
 41
2.5
 42
0.5
 43
5.999999999999999
 44
2.999999999999999
 45
0.00000001
 46
10.0
 73
     0
 77
     1
 78
     8
 79
     2
140
3.5
143
0.03937
147
0.75
171
     3
172
     1
176
   179
177
   250
178
   250
179
     2
271
     2
272
     2
274
     3
278
    44
285
     8
340
1A2
371
    25
372
    25
  0
DIMSTYLE
105
1C5
330
A
100
AcDbSymbolTableRecord
100
AcDbDimStyleTableRecord
  2
BSI - Metodo 2Testo caratteri grandi
 70
     0
 41
5.0
 42
0.5
 43
5.999999999999999
 44
2.999999999999999
 45
0.00000001
 46
10.0
 73
     0
 77
     1
 78
     8
 79
     2
140
5.25
143
0.03937
146
0.6666666666666666
147
0.75
171
     3
172
     1
176
   250
177
   250
178
   179
179
     2
271
     2
272
     2
274
     3
278
    44
285
     8
340
19A
371
    25
372
    25
  0
DIMSTYLE
105
1C6
330
A
100
AcDbSymbolTableRecord
100
AcDbDimStyleTableRecord
  2
BSI - Metodo 2Testo caratteri grandi$7
 70
     0
 41
5.0
 42
0.5
 43
5.999999999999999
 44
2.999999999999999
 45
0.00000001
 46
10.0
 73
     0
 77
     1
 78
     8
 79
     2
140
5.25
143
0.03937
146
0.6666666666666666
147
0.75
171
     3
172
     1
176
   179
177
   250
178
   179
179
     2
271
     2
272
     2
274
     3
278
    44
285
     8
340
19A
371
    25
372
    25
  0
DIMSTYLE
105
1D5
330
A
100
AcDbSymbolTableRecord
100
AcDbDimStyleTableRecord
  2
DEFAULT-GB
 70
     0
 41
4.0
 42
0.0
 43
5.999999999999999
 44
5.0
 45
0.00000001
 46
10.0
 73
     0
 74
     0
 77
     1
 78
     8
 79
     2
140
3.5
143
0.03937
147
0.75
171
     3
172
     1
176
   250
177
   250
178
   250
179
     3
271
     2
272
     2
274
     3
275
     1
285
     8
340
1A2
341
1C7
342
1C7
371
    25
372
    25
  0
DIMSTYLE
105
1D6
330
A
100
AcDbSymbolTableRecord
100
AcDbDimStyleTableRecord
  2
DEFAULT-GB$7
 70
     0
 41
4.0
 42
0.0
 43
5.999999999999999
 44
5.0
 45
0.00000001
 46
10.0
 73
     0
 74
     0
 77
     1
 78
     8
 79
     2
140
3.5
143
0.03937
147
0.75
171
     3
172
     1
176
   179
177
   250
178
   250
179
     3
271
     2
272
     2
274
     3
275
     1
285
     8
340
1A2
341
1C7
342
1C7
371
    25
372
    25
  0
DIMSTYLE
105
1D7
330
A
100
AcDbSymbolTableRecord
100
AcDbDimStyleTableRecord
  2
DEFAULT-GBTesto caratteri grandi
 70
     0
 41
8.0
 42
0.0
 43
5.999999999999999
 44
5.0
 45
0.00000001
 46
10.0
 73
     0
 74
     0
 77
     1
 78
     8
 79
     2
140
5.25
143
0.03937
146
0.6666666666666666
147
0.75
171
     3
172
     1
176
   250
177
   250
178
   179
179
     3
271
     2
272
     2
274
     3
275
     1
285
     8
340
1A0
341
1C7
342
1C7
371
    25
372
    25
  0
DIMSTYLE
105
1D8
330
A
100
AcDbSymbolTableRecord
100
AcDbDimStyleTableRecord
  2
DEFAULT-GBTesto caratteri grandi$7
 70
     0
 41
8.0
 42
0.0
 43
5.999999999999999
 44
5.0
 45
0.00000001
 46
10.0
 73
     0
 74
     0
 77
     1
 78
     8
 79
     2
140
5.25
143
0.03937
146
0.6666666666666666
147
0.75
171
     3
172
     1
176
   179
177
   250
178
   179
179
     3
271
     2
272
     2
274
     3
275
     1
285
     8
340
1A0
341
1C7
342
1C7
371
    25
372
    25
  0
DIMSTYLE
105
1D9
330
A
100
AcDbSymbolTableRecord
100
AcDbDimStyleTableRecord
  2
DEFAULT-JIS - Metodo 2
 70
     0
 41
2.5
 42
0.0
 43
5.999999999999999
 44
3.174999999999999
 45
0.00000001
 46
10.0
 77
     1
140
4.5
143
0.03937
147
0.8
171
     3
172
     1
176
   250
177
   250
178
   250
271
     2
272
     2
274
     3
340
1A6
341
1DA
342
1DA
371
    25
372
    25
  0
DIMSTYLE
105
1E0
330
A
100
AcDbSymbolTableRecord
100
AcDbDimStyleTableRecord
  2
DEFAULT-JIS - Metodo 2$7
 70
     0
 41
2.5
 42
0.0
 43
5.999999999999999
 44
3.174999999999999
 45
0.00000001
 46
10.0
 77
     1
140
4.5
143
0.03937
147
0.8
171
     3
172
     1
176
   179
177
   250
178
   250
271
     2
272
     2
274
     3
340
1A6
341
1DA
342
1DA
371
    25
372
    25
  0
DIMSTYLE
105
1E1
330
A
100
AcDbSymbolTableRecord
100
AcDbDimStyleTableRecord
  2
DEFAULT-JIS - Metodo 2Testo caratteri grandi
 70
     0
 41
5.0
 42
0.0
 43
5.999999999999999
 44
3.174999999999999
 45
0.00000001
 46
10.0
 77
     1
140
6.749999523162841
143
0.03937
146
0.666666713761698
147
0.8
171
     3
172
     1
176
   250
177
   250
178
   179
271
     2
272
     2
274
     3
340
1A8
341
1DA
342
1DA
371
    25
372
    25
  0
DIMSTYLE
105
1E2
330
A
100
AcDbSymbolTableRecord
100
AcDbDimStyleTableRecord
  2
DEFAULT-JIS - Metodo 2Testo caratteri grandi$7
 70
     0
 41
5.0
 42
0.0
 43
5.999999999999999
 44
3.174999999999999
 45
0.00000001
 46
10.0
 77
     1
140
6.749999523162841
143
0.03937
146
0.666666713761698
147
0.8
171
     3
172
     1
176
   179
177
   250
178
   179
271
     2
272
     2
274
     3
340
1A8
341
1DA
342
1DA
371
    25
372
    25
  0
DIMSTYLE
105
1E3
330
A
100
AcDbSymbolTableRecord
100
AcDbDimStyleTableRecord
  2
DIN - Altro
 70
     0
 41
2.5
 42
0.0
 43
5.999999999999999
 44
3.174999999999999
 45
0.00000001
 46
10.0
 77
     1
140
3.5
143
0.03937
147
0.8
171
     3
172
     1
176
   250
177
   250
178
   250
271
     2
272
     2
274
     3
278
    44
340
1A2
371
    25
372
    25
  0
DIMSTYLE
105
1E4
330
A
100
AcDbSymbolTableRecord
100
AcDbDimStyleTableRecord
  2
DIN - Altro$7
 70
     0
 41
2.5
 42
0.0
 43
5.999999999999999
 44
3.174999999999999
 45
0.00000001
 46
10.0
 77
     1
140
3.5
143
0.03937
147
0.8
171
     3
172
     1
176
   179
177
   250
178
   250
271
     2
272
     2
274
     3
278
    44
340
1A2
371
    25
372
    25
  0
DIMSTYLE
105
1E5
330
A
100
AcDbSymbolTableRecord
100
AcDbDimStyleTableRecord
  2
DIN - AltroTesto caratteri grandi
 70
     0
 41
5.0
 42
0.0
 43
5.999999999999999
 44
3.174999999999999
 45
0.00000001
 46
10.0
 77
     1
140
5.25
143
0.03937
146
0.6666666666666666
147
0.8
171
     3
172
     1
176
   250
177
   250
178
   179
271
     2
272
     2
274
     3
278
    44
340
19D
371
    25
372
    25
  0
DIMSTYLE
105
1E6
330
A
100
AcDbSymbolTableRecord
100
AcDbDimStyleTableRecord
  2
DIN - AltroTesto caratteri grandi$7
 70
     0
 41
5.0
 42
0.0
 43
5.999999999999999
 44
3.174999999999999
 45
0.00000001
 46
10.0
 77
     1
140
5.25
143
0.03937
146
0.6666666666666666
147
0.8
171
     3
172
     1
176
   179
177
   250
178
   179
271
     2
272
     2
274
     3
278
    44
340
19D
371
    25
372
    25
  0
DIMSTYLE
105
1E7
102
{ACAD_REACTORS
330
436
330
50D
330
5E3
330
71D
330
82F
330
905
330
9E7
330
ADA
330
BC2
330
E56
330
F2C
330
100A
330
10F2
330
1191
330
1279
330
135B
102
}
330
A
100
AcDbSymbolTableRecord
100
AcDbDimStyleTableRecord
  2
MAURO
 70
     0
 41
2.5
 42
1.0
 43
10.0
 44
1.0
 45
0.00000001
 46
10.0
 73
     0
 77
     1
 78
     8
 79
     2
140
3.5
143
0.03937
146
0.7142857142857144
147
0.762
171
     3
172
     1
176
    96
177
    96
178
     7
179
     3
271
     3
272
     3
274
     3
284
     8
286
     8
340
192
371
    25
372
    25
  0
DIMSTYLE
105
1E8
330
A
100
AcDbSymbolTableRecord
100
AcDbDimStyleTableRecord
  2
MAURO$7
 70
     0
 41
2.5
 42
1.0
 43
10.0
 44
1.0
 45
0.00000001
 46
10.0
 73
     0
 77
     1
 78
     8
 79
     2
140
3.5
143
0.03937
146
0.7142857142857144
147
0.762
171
     3
172
     1
176
   179
177
    96
178
     7
179
     3
271
     3
272
     3
274
     3
284
     8
286
     8
340
192
371
    15
372
    25
  0
DIMSTYLE
105
1E9
330
A
100
AcDbSymbolTableRecord
100
AcDbDimStyleTableRecord
  2
MAUROTesto caratteri grandi
 70
     0
 41
5.0
 42
1.0
 43
10.0
 44
1.0
 45
0.00000001
 46
10.0
 73
     0
 77
     1
 78
     8
 79
     2
140
5.25
143
0.03937
146
0.4761904761904762
147
0.762
171
     3
172
     1
176
    96
177
    96
178
   179
179
     3
271
     3
272
     3
274
     3
284
     8
286
     8
340
1A4
371
    25
372
    25
  0
DIMSTYLE
105
1EA
330
A
100
AcDbSymbolTableRecord
100
AcDbDimStyleTableRecord
  2
MAUROTesto caratteri grandi$7
 70
     0
 41
5.0
 42
1.0
 43
10.0
 44
1.0
 45
0.00000001
 46
10.0
 73
     0
 77
     1
 78
     8
 79
     2
140
5.25
143
0.03937
146
0.4761904761904762
147
0.762
171
     3
172
     1
176
   179
177
    96
178
   179
179
     3
271
     3
272
     3
274
     3
284
     8
286
     8
340
1A4
371
    15
372
    25
  0
DIMSTYLE
105
1EB
330
A
100
AcDbSymbolTableRecord
100
AcDbDimStyleTableRecord
  2
X.XX pollici [mm]
 70
     0
  4
 mm
 41
2.5
 42
2.387599999999999
 43
6.349999999999999
 44
3.174999999999999
 45
0.00000001
 46
10.0
 73
     0
140
3.04800009727478
144
0.0393700787401575
147
1.600199999999999
170
     1
176
     7
177
     7
178
     7
179
     1
271
     3
272
     2
340
1C1
371
    25
372
    25
  0
DIMSTYLE
105
1EC
330
A
100
AcDbSymbolTableRecord
100
AcDbDimStyleTableRecord
  2
X.XX pollici [mm]$7
 70
     0
  4
 mm
 41
2.5
 42
2.387599999999999
 43
6.349999999999999
 44
3.174999999999999
 45
0.00000001
 46
10.0
 73
     0
140
3.04800009727478
144
0.0393700787401575
147
1.600199999999999
170
     1
176
   179
177
     7
178
     7
179
     1
271
     3
272
     2
340
1C1
371
    25
372
    25
  0
DIMSTYLE
105
1ED
330
A
100
AcDbSymbolTableRecord
100
AcDbDimStyleTableRecord
  2
X.XX pollici [mm]Testo caratteri grandi
 70
     0
  4
 mm
 41
5.0
 42
2.387599999999999
 43
6.349999999999999
 44
3.174999999999999
 45
0.00000001
 46
10.0
 73
     0
140
4.57200002670288
144
0.0393700787401575
146
0.6666666840491819
147
1.600199999999999
170
     1
176
     7
177
     7
178
   179
179
     1
271
     3
272
     2
340
197
371
    25
372
    25
  0
DIMSTYLE
105
1EE
330
A
100
AcDbSymbolTableRecord
100
AcDbDimStyleTableRecord
  2
X.XX pollici [mm]Testo caratteri grandi$7
 70
     0
  4
 mm
 41
5.0
 42
2.387599999999999
 43
6.349999999999999
 44
3.174999999999999
 45
0.00000001
 46
10.0
 73
     0
140
4.57200002670288
144
0.0393700787401575
146
0.6666666840491819
147
1.600199999999999
170
     1
176
   179
177
     7
178
   179
179
     1
271
     3
272
     2
340
197
371
    25
372
    25
  0
DIMSTYLE
105
1EF
330
A
100
AcDbSymbolTableRecord
100
AcDbDimStyleTableRecord
  2
1_32 FRAZIONE
 70
     0
 41
2.5
340
60
342
1F0
  0
DIMSTYLE
105
1F7
330
A
100
AcDbSymbolTableRecord
100
AcDbDimStyleTableRecord
  2
1_64 FRAZIONE
 70
     0
 41
2.5
340
60
342
1F0
  0
DIMSTYLE
105
1F8
102
{ACAD_REACTORS
330
15AC
102
}
330
A
100
AcDbSymbolTableRecord
100
AcDbDimStyleTableRecord
  2
AM_ISO
 70
     0
 41
2.5
340
60
342
1F0
  0
DIMSTYLE
105
1F9
330
A
100
AcDbSymbolTableRecord
100
AcDbDimStyleTableRecord
  2
AM_ISO$3
 70
     0
 41
2.5
340
60
342
1F0
  0
DIMSTYLE
105
1FA
330
A
100
AcDbSymbolTableRecord
100
AcDbDimStyleTableRecord
  2
AM_ISO$4
 70
     0
 41
2.5
340
60
342
1F0
  0
DIMSTYLE
105
1FB
330
A
100
AcDbSymbolTableRecord
100
AcDbDimStyleTableRecord
  2
AM_ISO$6
 70
     0
 41
2.5
340
60
342
1F0
  0
DIMSTYLE
105
1FC
330
A
100
AcDbSymbolTableRecord
100
AcDbDimStyleTableRecord
  2
AM_ISO$7
 70
     0
 41
2.5
340
60
342
1F0
  0
DIMSTYLE
105
1FD
330
A
100
AcDbSymbolTableRecord
100
AcDbDimStyleTableRecord
  2
AM_ISO$SF
 70
     0
 41
2.5
340
60
342
1F0
  0
DIMSTYLE
105
1FE
330
A
100
AcDbSymbolTableRecord
100
AcDbDimStyleTableRecord
  2
AM_ISO$SH
 70
     0
 41
2.5
340
60
342
1F0
  0
DIMSTYLE
105
1FF
330
A
100
AcDbSymbolTableRecord
100
AcDbDimStyleTableRecord
  2
ANSI ALLINEATI
 70
     0
 41
2.5
340
60
342
1F0
  0
DIMSTYLE
105
200
330
A
100
AcDbSymbolTableRecord
100
AcDbDimStyleTableRecord
  2
ANSI FRAZIONE - ALLINEATI
 70
     0
 41
2.5
340
60
342
1F0
  0
DIMSTYLE
105
201
330
A
100
AcDbSymbolTableRecord
100
AcDbDimStyleTableRecord
  2
CADMEC_1-1
 70
     0
 41
2.5
340
60
342
1F0
  0
DIMSTYLE
105
202
330
A
100
AcDbSymbolTableRecord
100
AcDbDimStyleTableRecord
  2
DEFAULT-ANSI
 70
     0
 41
2.5
340
60
342
1F0
  0
DIMSTYLE
105
203
330
A
100
AcDbSymbolTableRecord
100
AcDbDimStyleTableRecord
  2
DEFAULT-ANSI FRAZIONE
 70
     0
 41
2.5
340
60
342
1F0
  0
DIMSTYLE
105
204
330
A
100
AcDbSymbolTableRecord
100
AcDbDimStyleTableRecord
  2
DEFAULT-BSI
 70
     0
 41
2.5
340
60
342
1F0
  0
DIMSTYLE
105
205
330
A
100
AcDbSymbolTableRecord
100
AcDbDimStyleTableRecord
  2
DEFAULT-DIN
 70
     0
 41
2.5
340
60
342
1F0
  0
DIMSTYLE
105
206
330
A
100
AcDbSymbolTableRecord
100
AcDbDimStyleTableRecord
  2
DEFAULT-DIN - Metodo 2a
 70
     0
 41
2.5
340
60
342
1F0
  0
DIMSTYLE
105
207
330
A
100
AcDbSymbolTableRecord
100
AcDbDimStyleTableRecord
  2
DEFAULT-DIN - Metodo 2b
 70
     0
 41
2.5
340
60
342
1F0
  0
DIMSTYLE
105
208
330
A
100
AcDbSymbolTableRecord
100
AcDbDimStyleTableRecord
  2
DEFAULT-ISO
 70
     0
 41
2.5
340
60
342
1F0
  0
DIMSTYLE
105
209
330
A
100
AcDbSymbolTableRecord
100
AcDbDimStyleTableRecord
  2
DEFAULT-ISO-Metodo 1b
 70
     0
 41
2.5
340
60
342
1F0
  0
DIMSTYLE
105
20A
330
A
100
AcDbSymbolTableRecord
100
AcDbDimStyleTableRecord
  2
DEFAULT-ISO-Metodo 2a
 70
     0
 41
2.5
340
60
342
1F0
  0
DIMSTYLE
105
20B
330
A
100
AcDbSymbolTableRecord
100
AcDbDimStyleTableRecord
  2
DEFAULT-ISO-Metodo 2b
 70
     0
 41
2.5
340
60
342
1F0
  0
DIMSTYLE
105
20C
330
A
100
AcDbSymbolTableRecord
100
AcDbDimStyleTableRecord
  2
DEFAULT-JIS
 70
     0
 41
2.5
340
60
342
1F0
  0
DIMSTYLE
105
20D
330
A
100
AcDbSymbolTableRecord
100
AcDbDimStyleTableRecord
  2
DEFAULT-JIS - Metodo 1b
 70
     0
 41
2.5
340
60
342
1F0
  0
DIMSTYLE
105
20E
330
A
100
AcDbSymbolTableRecord
100
AcDbDimStyleTableRecord
  2
Direttrice-Indicatore origine(ANSI)
 70
     0
 41
2.5
340
60
342
1F0
  0
DIMSTYLE
105
20F
330
A
100
AcDbSymbolTableRecord
100
AcDbDimStyleTableRecord
  2
Direttrice-Indicatore origine(BSI)
 70
     0
 41
2.5
340
60
342
1F0
  0
DIMSTYLE
105
210
330
A
100
AcDbSymbolTableRecord
100
AcDbDimStyleTableRecord
  2
Direttrice-Indicatore origine(DIN)
 70
     0
 41
2.5
340
60
342
1F0
  0
DIMSTYLE
105
211
330
A
100
AcDbSymbolTableRecord
100
AcDbDimStyleTableRecord
  2
Direttrice-Indicatore origine(GB)
 70
     0
 41
4.0
340
60
342
1F0
  0
DIMSTYLE
105
212
330
A
100
AcDbSymbolTableRecord
100
AcDbDimStyleTableRecord
  2
Direttrice-Indicatore origine(ISO)
 70
     0
 41
2.5
340
60
342
1F0
  0
DIMSTYLE
105
213
330
A
100
AcDbSymbolTableRecord
100
AcDbDimStyleTableRecord
  2
Direttrice-Indicatore origine(JIS)
 70
     0
 41
2.5
340
60
342
1F0
  0
DIMSTYLE
105
214
330
A
100
AcDbSymbolTableRecord
100
AcDbDimStyleTableRecord
  2
Direttrice-punto(ANSI)
 70
     0
 41
2.5
340
60
342
1F0
  0
DIMSTYLE
105
215
330
A
100
AcDbSymbolTableRecord
100
AcDbDimStyleTableRecord
  2
Direttrice-punto(BSI)
 70
     0
 41
2.5
340
60
342
1F0
  0
DIMSTYLE
105
216
330
A
100
AcDbSymbolTableRecord
100
AcDbDimStyleTableRecord
  2
Direttrice-punto(DIN)
 70
     0
 41
2.5
340
60
342
1F0
  0
DIMSTYLE
105
217
330
A
100
AcDbSymbolTableRecord
100
AcDbDimStyleTableRecord
  2
Direttrice-punto(GB)
 70
     0
 41
4.0
340
60
342
1F0
  0
DIMSTYLE
105
218
330
A
100
AcDbSymbolTableRecord
100
AcDbDimStyleTableRecord
  2
Direttrice-punto(ISO)
 70
     0
 41
2.5
340
60
342
1F0
  0
DIMSTYLE
105
219
330
A
100
AcDbSymbolTableRecord
100
AcDbDimStyleTableRecord
  2
Direttrice-punto(JIS)
 70
     0
 41
2.5
340
60
342
1F0
  0
DIMSTYLE
105
224
330
A
100
AcDbSymbolTableRecord
100
AcDbDimStyleTableRecord
  2
Direttrice-riferimento(ANSI)
 70
     0
 41
2.5
340
60
342
1F0
  0
DIMSTYLE
105
225
330
A
100
AcDbSymbolTableRecord
100
AcDbDimStyleTableRecord
  2
Direttrice-riferimento(BSI)
 70
     0
 41
2.5
340
60
342
1F0
  0
DIMSTYLE
105
226
330
A
100
AcDbSymbolTableRecord
100
AcDbDimStyleTableRecord
  2
Direttrice-riferimento(DIN)
 70
     0
 41
2.5
340
60
342
1F0
  0
DIMSTYLE
105
248
330
A
100
AcDbSymbolTableRecord
100
AcDbDimStyleTableRecord
  2
Direttrice-riferimento(GB)
 70
     0
 41
4.0
340
60
342
1F0
  0
DIMSTYLE
105
249
330
A
100
AcDbSymbolTableRecord
100
AcDbDimStyleTableRecord
  2
Direttrice-riferimento(ISO)
 70
     0
 41
2.5
340
60
342
1F0
  0
DIMSTYLE
105
24A
330
A
100
AcDbSymbolTableRecord
100
AcDbDimStyleTableRecord
  2
Direttrice-riferimento(JIS)
 70
     0
 41
2.5
340
60
342
1F0
  0
DIMSTYLE
105
24B
330
A
100
AcDbSymbolTableRecord
100
AcDbDimStyleTableRecord
  2
Direttrice(ANSI)
 70
     0
 41
2.5
340
60
342
1F0
  0
DIMSTYLE
105
24C
330
A
100
AcDbSymbolTableRecord
100
AcDbDimStyleTableRecord
  2
Direttrice(BSI)
 70
     0
 41
2.5
340
60
342
1F0
  0
DIMSTYLE
105
24D
330
A
100
AcDbSymbolTableRecord
100
AcDbDimStyleTableRecord
  2
Direttrice(DIN)
 70
     0
 41
2.5
340
60
342
1F0
  0
DIMSTYLE
105
24E
330
A
100
AcDbSymbolTableRecord
100
AcDbDimStyleTableRecord
  2
Direttrice(GB)
 70
     0
 41
4.0
340
60
342
1F0
  0
DIMSTYLE
105
24F
330
A
100
AcDbSymbolTableRecord
100
AcDbDimStyleTableRecord
  2
Direttrice(ISO)
 70
     0
 41
2.5
340
60
342
1F0
  0
DIMSTYLE
105
250
330
A
100
AcDbSymbolTableRecord
100
AcDbDimStyleTableRecord
  2
Direttrice(JIS)
 70
     0
 41
2.5
340
60
342
1F0
  0
DIMSTYLE
105
251
330
A
100
AcDbSymbolTableRecord
100
AcDbDimStyleTableRecord
  2
GEN-ISO
 70
     0
 41
2.5
340
60
342
1F0
  0
DIMSTYLE
105
252
330
A
100
AcDbSymbolTableRecord
100
AcDbDimStyleTableRecord
  2
GEN-ISO-AXE-F
 70
     0
 41
2.5
340
60
342
1F0
  0
DIMSTYLE
105
253
330
A
100
AcDbSymbolTableRecord
100
AcDbDimStyleTableRecord
  2
GEN-ISO-AXE-H
 70
     0
 41
2.5
340
60
342
1F0
  0
DIMSTYLE
105
254
330
A
100
AcDbSymbolTableRecord
100
AcDbDimStyleTableRecord
  2
GEN-ISO-POS
 70
     0
 41
2.5
340
60
342
1F0
  0
DIMSTYLE
105
255
330
A
100
AcDbSymbolTableRecord
100
AcDbDimStyleTableRecord
  2
GEN-ISO$3
 70
     0
 41
2.5
340
60
342
1F0
  0
DIMSTYLE
105
256
330
A
100
AcDbSymbolTableRecord
100
AcDbDimStyleTableRecord
  2
GEN-ISO$4
 70
     0
 41
2.5
340
60
342
1F0
  0
DIMSTYLE
105
257
330
A
100
AcDbSymbolTableRecord
100
AcDbDimStyleTableRecord
  2
GEN-ISO$6
 70
     0
 41
2.5
340
60
342
1F0
  0
DIMSTYLE
105
258
330
A
100
AcDbSymbolTableRecord
100
AcDbDimStyleTableRecord
  2
ISO-25
 70
     0
 41
2.5
340
60
342
1F0
  0
DIMSTYLE
105
259
330
A
100
AcDbSymbolTableRecord
100
AcDbDimStyleTableRecord
  2
ISO-35
 70
     0
 41
2.5
340
60
342
1F0
  0
DIMSTYLE
105
25A
330
A
100
AcDbSymbolTableRecord
100
AcDbDimStyleTableRecord
  2
ISO-5
 70
     0
 41
2.5
340
60
342
1F0
  0
DIMSTYLE
105
25B
330
A
100
AcDbSymbolTableRecord
100
AcDbDimStyleTableRecord
  2
ISO-7
 70
     0
 41
2.5
340
60
342
1F0
  0
DIMSTYLE
105
25C
330
A
100
AcDbSymbolTableRecord
100
AcDbDimStyleTableRecord
  2
ISO1
 70
     0
 41
2.5
340
60
342
1F0
  0
DIMSTYLE
105
25D
330
A
100
AcDbSymbolTableRecord
100
AcDbDimStyleTableRecord
  2
ISO1-4
 70
     0
 41
2.5
340
60
342
1F0
  0
DIMSTYLE
105
25E
330
A
100
AcDbSymbolTableRecord
100
AcDbDimStyleTableRecord
  2
ISO2
 70
     0
 41
2.5
340
60
342
1F0
  0
DIMSTYLE
105
25F
330
A
100
AcDbSymbolTableRecord
100
AcDbDimStyleTableRecord
  2
MM-ANSI
 70
     0
 41
2.5
340
60
342
1F0
  0
DIMSTYLE
105
260
330
A
100
AcDbSymbolTableRecord
100
AcDbDimStyleTableRecord
  2
X . XXX
 70
     0
 41
2.5
340
60
342
1F0
  0
DIMSTYLE
105
261
330
A
100
AcDbSymbolTableRecord
100
AcDbDimStyleTableRecord
  2
X.X spazio grande e testo
 70
     0
 41
2.5
340
60
342
1F0
  0
DIMSTYLE
105
262
330
A
100
AcDbSymbolTableRecord
100
AcDbDimStyleTableRecord
  2
X.XX mm [pollici]
 70
     0
 41
2.5
340
60
342
1F0
  0
DIMSTYLE
105
263
330
A
100
AcDbSymbolTableRecord
100
AcDbDimStyleTableRecord
  2
X.XX Tol. di scostamento
 70
     0
 41
2.5
340
60
342
1F0
  0
DIMSTYLE
105
264
330
A
100
AcDbSymbolTableRecord
100
AcDbDimStyleTableRecord
  2
X.XXX
 70
     0
 41
2.5
340
60
342
1F0
  0
DIMSTYLE
105
265
330
A
100
AcDbSymbolTableRecord
100
AcDbDimStyleTableRecord
  2
X.XXX +_- tolleranza
 70
     0
 41
2.5
340
60
342
1F0
  0
DIMSTYLE
105
266
330
A
100
AcDbSymbolTableRecord
100
AcDbDimStyleTableRecord
  2
X.XXX +tolleranza_-tolleranza
 70
     0
 41
2.5
340
60
342
1F0
  0
DIMSTYLE
105
267
330
A
100
AcDbSymbolTableRecord
100
AcDbDimStyleTableRecord
  2
X.XXX Limiti - Impilati
 70
     0
 41
2.5
340
60
342
1F0
  0
DIMSTYLE
105
268
330
A
100
AcDbSymbolTableRecord
100
AcDbDimStyleTableRecord
  2
X.XXX mm [pollici]
 70
     0
 41
2.5
340
60
342
1F0
  0
DIMSTYLE
105
269
330
A
100
AcDbSymbolTableRecord
100
AcDbDimStyleTableRecord
  2
X.XXX piccola tolleranza
 70
     0
 41
2.5
340
60
342
1F0
  0
DIMSTYLE
105
26A
330
A
100
AcDbSymbolTableRecord
100
AcDbDimStyleTableRecord
  2
X.XXX radiale
 70
     0
 41
2.5
340
60
342
1F0
  0
ENDTAB
  0
TABLE
  2
BLOCK_RECORD
  5
1
330
0
100
AcDbSymbolTable
 70
    29
  0
BLOCK_RECORD
  5
77
330
1
100
AcDbSymbolTableRecord
100
AcDbBlockTableRecord
  2
*Model_Space
340
7A
  0
BLOCK_RECORD
  5
73
330
1
100
AcDbSymbolTableRecord
100
AcDbBlockTableRecord
  2
*Paper_Space
340
76
  0
BLOCK_RECORD
  5
7B
330
1
100
AcDbSymbolTableRecord
100
AcDbBlockTableRecord
  2
*Paper_Space0
340
7E
  0
BLOCK_RECORD
  5
1C7
330
1
100
AcDbSymbolTableRecord
100
AcDbBlockTableRecord
  2
Filled-1
340
0
  0
BLOCK_RECORD
  5
1DA
330
1
100
AcDbSymbolTableRecord
100
AcDbBlockTableRecord
  2
_Open
340
0
  0
BLOCK_RECORD
  5
1F0
330
1
100
AcDbSymbolTableRecord
100
AcDbBlockTableRecord
  2
_Closed
340
0
  0
BLOCK_RECORD
  5
21A
330
1
100
AcDbSymbolTableRecord
100
AcDbBlockTableRecord
  2
DatumFilled45
340
0
  0
BLOCK_RECORD
  5
227
330
1
100
AcDbSymbolTableRecord
100
AcDbBlockTableRecord
  2
DatumThickLine
340
0
  0
BLOCK_RECORD
  5
26B
330
1
100
AcDbSymbolTableRecord
100
AcDbBlockTableRecord
  2
REVISIONE
340
0
  0
BLOCK_RECORD
  5
28A
330
1
100
AcDbSymbolTableRecord
100
AcDbBlockTableRecord
  2
TIMBRO PER APPROVAZIONE
340
0
  0
BLOCK_RECORD
  5
299
330
1
100
AcDbSymbolTableRecord
100
AcDbBlockTableRecord
  2
Bordi Default Border
340
0
  0
BLOCK_RECORD
  5
2E0
330
1
100
AcDbSymbolTableRecord
100
AcDbBlockTableRecord
  2
Cartigli COMUNELLO
340
0
  0
BLOCK_RECORD
  5
438
330
1
100
AcDbSymbolTableRecord
100
AcDbBlockTableRecord
  2
*D10
340
0
  0
BLOCK_RECORD
  5
50E
330
1
100
AcDbSymbolTableRecord
100
AcDbBlockTableRecord
  2
*D11
340
0
  0
BLOCK_RECORD
  5
5E4
330
1
100
AcDbSymbolTableRecord
100
AcDbBlockTableRecord
  2
*D12
340
0
  0
BLOCK_RECORD
  5
71E
330
1
100
AcDbSymbolTableRecord
100
AcDbBlockTableRecord
  2
*D13
340
0
  0
BLOCK_RECORD
  5
830
330
1
100
AcDbSymbolTableRecord
100
AcDbBlockTableRecord
  2
*D14
340
0
  0
BLOCK_RECORD
  5
906
330
1
100
AcDbSymbolTableRecord
100
AcDbBlockTableRecord
  2
*D15
340
0
  0
BLOCK_RECORD
  5
9E8
330
1
100
AcDbSymbolTableRecord
100
AcDbBlockTableRecord
  2
*D16
340
0
  0
BLOCK_RECORD
  5
ADB
330
1
100
AcDbSymbolTableRecord
100
AcDbBlockTableRecord
  2
*D17
340
0
  0
BLOCK_RECORD
  5
BC3
330
1
100
AcDbSymbolTableRecord
100
AcDbBlockTableRecord
  2
*D18
340
0
  0
BLOCK_RECORD
  5
C99
330
1
100
AcDbSymbolTableRecord
100
AcDbBlockTableRecord
  2
*D19
340
0
  0
BLOCK_RECORD
  5
D75
330
1
100
AcDbSymbolTableRecord
100
AcDbBlockTableRecord
  2
*D20
340
0
  0
BLOCK_RECORD
  5
E57
330
1
100
AcDbSymbolTableRecord
100
AcDbBlockTableRecord
  2
*D21
340
0
  0
BLOCK_RECORD
  5
F2D
330
1
100
AcDbSymbolTableRecord
100
AcDbBlockTableRecord
  2
*D22
340
0
  0
BLOCK_RECORD
  5
100B
330
1
100
AcDbSymbolTableRecord
100
AcDbBlockTableRecord
  2
*D23
340
0
  0
BLOCK_RECORD
  5
10F3
330
1
100
AcDbSymbolTableRecord
100
AcDbBlockTableRecord
  2
*D24
340
0
  0
BLOCK_RECORD
  5
1192
330
1
100
AcDbSymbolTableRecord
100
AcDbBlockTableRecord
  2
*D25
340
0
  0
BLOCK_RECORD
  5
127A
330
1
100
AcDbSymbolTableRecord
100
AcDbBlockTableRecord
  2
*D26
340
0
  0
BLOCK_RECORD
  5
135C
330
1
100
AcDbSymbolTableRecord
100
AcDbBlockTableRecord
  2
*D27
340
0
  0
ENDTAB
  0
ENDSEC
  0
SECTION
  2
BLOCKS
  0
BLOCK
  5
78
330
77
100
AcDbEntity
  8
0
100
AcDbBlockBegin
  2
*Model_Space
 70
     0
 10
0.0
 20
0.0
 30
0.0
  3
*Model_Space
  1

  0
ENDBLK
  5
79
330
77
100
AcDbEntity
  8
0
100
AcDbBlockEnd
  0
BLOCK
  5
74
330
73
100
AcDbEntity
 67
     1
  8
0
100
AcDbBlockBegin
  2
*Paper_Space
 70
     0
 10
0.0
 20
0.0
 30
0.0
  3
*Paper_Space
  1

  0
ENDBLK
  5
75
330
73
100
AcDbEntity
 67
     1
  8
0
100
AcDbBlockEnd
  0
BLOCK
  5
7C
330
7B
100
AcDbEntity
 67
     1
  8
0
100
AcDbBlockBegin
  2
*Paper_Space0
 70
     0
 10
0.0
 20
0.0
 30
0.0
  3
*Paper_Space0
  1

  0
ENDBLK
  5
7D
330
7B
100
AcDbEntity
 67
     1
  8
0
100
AcDbBlockEnd
  0
BLOCK
  5
1C8
330
1C7
100
AcDbEntity
  8
0
100
AcDbBlockBegin
  2
Filled-1
 70
     0
 10
0.0
 20
0.0
 30
0.0
  3
Filled-1
  1

  0
LINE
  5
1CA
330
1C7
100
AcDbEntity
  8
0
 62
     0
100
AcDbLine
 10
-1.0
 20
0.0
 30
0.0
 11
0.0
 21
0.0
 31
0.0
  0
POLYLINE
  5
1CB
330
1C7
100
AcDbEntity
  8
0
 62
     0
100
AcDb2dPolyline
 66
     1
 10
0.0
 20
0.0
 30
0.0
 70
   128
  0
VERTEX
  5
1CC
330
1CB
100
AcDbEntity
  8
0
 62
     0
100
AcDbVertex
100
AcDb2dVertex
 10
-1.0
 20
-0.125
 30
0.0
  0
VERTEX
  5
1CD
330
1CB
100
AcDbEntity
  8
0
 62
     0
100
AcDbVertex
100
AcDb2dVertex
 10
0.0
 20
0.0
 30
0.0
  0
VERTEX
  5
1CF
330
1CB
100
AcDbEntity
  8
0
 62
     0
100
AcDbVertex
100
AcDb2dVertex
 10
-1.0
 20
0.125
 30
0.0
  0
VERTEX
  5
1D0
330
1CB
100
AcDbEntity
  8
0
 62
     0
100
AcDbVertex
100
AcDb2dVertex
 10
-1.0
 20
-0.125
 30
0.0
  0
SEQEND
  5
1CE
330
1CB
100
AcDbEntity
  8
0
 62
     0
  0
SOLID
  5
1D1
330
1C7
100
AcDbEntity
  8
0
 62
     0
100
AcDbTrace
 10
-1.0
 20
-0.125
 30
0.0
 11
0.0
 21
0.0
 31
0.0
 12
-1.0
 22
0.125
 32
0.0
 13
-1.0
 23
-0.125
 33
0.0
  0
LINE
  5
1D2
330
1C7
100
AcDbEntity
  8
0
 62
     0
100
AcDbLine
 10
-1.0
 20
-0.125
 30
0.0
 11
0.0
 21
0.0
 31
0.0
  0
LINE
  5
1D3
330
1C7
100
AcDbEntity
  8
0
 62
     0
100
AcDbLine
 10
0.0
 20
0.0
 30
0.0
 11
-1.0
 21
0.125
 31
0.0
  0
LINE
  5
1D4
330
1C7
100
AcDbEntity
  8
0
 62
     0
100
AcDbLine
 10
-1.0
 20
0.125
 30
0.0
 11
-1.0
 21
-0.125
 31
0.0
  0
ENDBLK
  5
1C9
330
1C7
100
AcDbEntity
  8
0
100
AcDbBlockEnd
  0
BLOCK
  5
1DE
330
1DA
100
AcDbEntity
  8
0
100
AcDbBlockBegin
  2
_Open
 70
     0
 10
0.0
 20
0.0
 30
0.0
  3
_Open
  1

  0
LINE
  5
1DB
330
1DA
100
AcDbEntity
  8
0
  6
ByBlock
 62
     0
370
    -2
100
AcDbLine
 10
-1.0
 20
0.1666666666666666
 30
0.0
 11
0.0
 21
0.0
 31
0.0
  0
LINE
  5
1DC
330
1DA
100
AcDbEntity
  8
0
  6
ByBlock
 62
     0
370
    -2
100
AcDbLine
 10
-1.0
 20
-0.1666666666666666
 30
0.0
 11
0.0
 21
0.0
 31
0.0
  0
LINE
  5
1DD
330
1DA
100
AcDbEntity
  8
0
  6
ByBlock
 62
     0
370
    -2
100
AcDbLine
 10
0.0
 20
0.0
 30
0.0
 11
-1.0
 21
0.0
 31
0.0
  0
ENDBLK
  5
1DF
330
1DA
100
AcDbEntity
  8
0
100
AcDbBlockEnd
  0
BLOCK
  5
1F5
330
1F0
100
AcDbEntity
  8
0
100
AcDbBlockBegin
  2
_Closed
 70
     0
 10
0.0
 20
0.0
 30
0.0
  3
_Closed
  1

  0
LINE
  5
1F1
330
1F0
100
AcDbEntity
  8
0
  6
ByBlock
 62
     0
370
    -2
100
AcDbLine
 10
-1.0
 20
0.1666666666666666
 30
0.0
 11
0.0
 21
0.0
 31
0.0
  0
LINE
  5
1F2
330
1F0
100
AcDbEntity
  8
0
  6
ByBlock
 62
     0
370
    -2
100
AcDbLine
 10
0.0
 20
0.0
 30
0.0
 11
-1.0
 21
-0.1666666666666666
 31
0.0
  0
LINE
  5
1F3
330
1F0
100
AcDbEntity
  8
0
  6
ByBlock
 62
     0
370
    -2
100
AcDbLine
 10
-1.0
 20
0.1666666666666666
 30
0.0
 11
-1.0
 21
-0.1666666666666666
 31
0.0
  0
LINE
  5
1F4
330
1F0
100
AcDbEntity
  8
0
  6
ByBlock
 62
     0
370
    -2
100
AcDbLine
 10
0.0
 20
0.0
 30
0.0
 11
-1.0
 21
0.0
 31
0.0
  0
ENDBLK
  5
1F6
330
1F0
100
AcDbEntity
  8
0
100
AcDbBlockEnd
  0
BLOCK
  5
21B
330
21A
100
AcDbEntity
  8
0
100
AcDbBlockBegin
  2
DatumFilled45
 70
     0
 10
0.0
 20
0.0
 30
0.0
  3
DatumFilled45
  1

  0
POLYLINE
  5
21D
330
21A
100
AcDbEntity
  8
0
 62
     0
100
AcDb2dPolyline
 66
     1
 10
0.0
 20
0.0
 30
0.0
 70
   128
  0
VERTEX
  5
21E
330
21D
100
AcDbEntity
  8
0
 62
     0
100
AcDbVertex
100
AcDb2dVertex
 10
0.0
 20
1.0
 30
0.0
  0
VERTEX
  5
21F
330
21D
100
AcDbEntity
  8
0
 62
     0
100
AcDbVertex
100
AcDb2dVertex
 10
0.0
 20
-1.0
 30
0.0
  0
VERTEX
  5
221
330
21D
100
AcDbEntity
  8
0
 62
     0
100
AcDbVertex
100
AcDb2dVertex
 10
-1.0
 20
0.0
 30
0.0
  0
VERTEX
  5
222
330
21D
100
AcDbEntity
  8
0
 62
     0
100
AcDbVertex
100
AcDb2dVertex
 10
0.0
 20
1.0
 30
0.0
  0
SEQEND
  5
220
330
21D
100
AcDbEntity
  8
0
 62
     0
  0
SOLID
  5
223
330
21A
100
AcDbEntity
  8
0
 62
     0
100
AcDbTrace
 10
0.0
 20
1.0
 30
0.0
 11
0.0
 21
-1.0
 31
0.0
 12
-1.0
 22
0.0
 32
0.0
 13
0.0
 23
1.0
 33
0.0
  0
ENDBLK
  5
21C
330
21A
100
AcDbEntity
  8
0
100
AcDbBlockEnd
  0
BLOCK
  5
228
330
227
100
AcDbEntity
  8
0
100
AcDbBlockBegin
  2
DatumThickLine
 70
     0
 10
0.0
 20
0.0
 30
0.0
  3
DatumThickLine
  1

  0
POLYLINE
  5
22A
330
227
100
AcDbEntity
  8
0
 62
     0
100
AcDb2dPolyline
 66
     1
 10
0.0
 20
0.0
 30
0.0
 70
   128
  0
VERTEX
  5
22B
330
22A
100
AcDbEntity
  8
0
 62
     0
100
AcDbVertex
100
AcDb2dVertex
 10
-0.25
 20
1.0
 30
0.0
  0
VERTEX
  5
22C
330
22A
100
AcDbEntity
  8
0
 62
     0
100
AcDbVertex
100
AcDb2dVertex
 10
-0.25
 20
-1.0
 30
0.0
  0
VERTEX
  5
22E
330
22A
100
AcDbEntity
  8
0
 62
     0
100
AcDbVertex
100
AcDb2dVertex
 10
-0.5
 20
-1.0
 30
0.0
  0
VERTEX
  5
22F
330
22A
100
AcDbEntity
  8
0
 62
     0
100
AcDbVertex
100
AcDb2dVertex
 10
-0.25
 20
1.0
 30
0.0
  0
SEQEND
  5
22D
330
22A
100
AcDbEntity
  8
0
 62
     0
  0
SOLID
  5
230
330
227
100
AcDbEntity
  8
0
 62
     0
100
AcDbTrace
 10
-0.25
 20
1.0
 30
0.0
 11
-0.25
 21
-1.0
 31
0.0
 12
-0.5
 22
-1.0
 32
0.0
 13
-0.25
 23
1.0
 33
0.0
  0
POLYLINE
  5
231
330
227
100
AcDbEntity
  8
0
 62
     0
100
AcDb2dPolyline
 66
     1
 10
0.0
 20
0.0
 30
0.0
 70
   128
  0
VERTEX
  5
232
330
231
100
AcDbEntity
  8
0
 62
     0
100
AcDbVertex
100
AcDb2dVertex
 10
-0.25
 20
1.0
 30
0.0
  0
VERTEX
  5
233
330
231
100
AcDbEntity
  8
0
 62
     0
100
AcDbVertex
100
AcDb2dVertex
 10
-0.5
 20
-1.0
 30
0.0
  0
VERTEX
  5
235
330
231
100
AcDbEntity
  8
0
 62
     0
100
AcDbVertex
100
AcDb2dVertex
 10
-0.5
 20
-1.0
 30
0.0
  0
VERTEX
  5
236
330
231
100
AcDbEntity
  8
0
 62
     0
100
AcDbVertex
100
AcDb2dVertex
 10
-0.25
 20
1.0
 30
0.0
  0
SEQEND
  5
234
330
231
100
AcDbEntity
  8
0
 62
     0
  0
SOLID
  5
237
330
227
100
AcDbEntity
  8
0
 62
     0
100
AcDbTrace
 10
-0.25
 20
1.0
 30
0.0
 11
-0.5
 21
-1.0
 31
0.0
 12
-0.5
 22
-1.0
 32
0.0
 13
-0.25
 23
1.0
 33
0.0
  0
POLYLINE
  5
238
330
227
100
AcDbEntity
  8
0
 62
     0
100
AcDb2dPolyline
 66
     1
 10
0.0
 20
0.0
 30
0.0
 70
   128
  0
VERTEX
  5
239
330
238
100
AcDbEntity
  8
0
 62
     0
100
AcDbVertex
100
AcDb2dVertex
 10
-0.25
 20
1.0
 30
0.0
  0
VERTEX
  5
23A
330
238
100
AcDbEntity
  8
0
 62
     0
100
AcDbVertex
100
AcDb2dVertex
 10
-0.5
 20
-1.0
 30
0.0
  0
VERTEX
  5
23C
330
238
100
AcDbEntity
  8
0
 62
     0
100
AcDbVertex
100
AcDb2dVertex
 10
-0.5
 20
1.0
 30
0.0
  0
VERTEX
  5
23D
330
238
100
AcDbEntity
  8
0
 62
     0
100
AcDbVertex
100
AcDb2dVertex
 10
-0.25
 20
1.0
 30
0.0
  0
SEQEND
  5
23B
330
238
100
AcDbEntity
  8
0
 62
     0
  0
SOLID
  5
23E
330
227
100
AcDbEntity
  8
0
 62
     0
100
AcDbTrace
 10
-0.25
 20
1.0
 30
0.0
 11
-0.5
 21
-1.0
 31
0.0
 12
-0.5
 22
1.0
 32
0.0
 13
-0.25
 23
1.0
 33
0.0
  0
POLYLINE
  5
23F
330
227
100
AcDbEntity
  8
0
 62
     0
100
AcDb2dPolyline
 66
     1
 10
0.0
 20
0.0
 30
0.0
 70
   128
  0
VERTEX
  5
240
330
23F
100
AcDbEntity
  8
0
 62
     0
100
AcDbVertex
100
AcDb2dVertex
 10
-0.25
 20
1.0
 30
0.0
  0
VERTEX
  5
241
330
23F
100
AcDbEntity
  8
0
 62
     0
100
AcDbVertex
100
AcDb2dVertex
 10
-0.5
 20
1.0
 30
0.0
  0
VERTEX
  5
243
330
23F
100
AcDbEntity
  8
0
 62
     0
100
AcDbVertex
100
AcDb2dVertex
 10
-0.25
 20
1.0
 30
0.0
  0
VERTEX
  5
244
330
23F
100
AcDbEntity
  8
0
 62
     0
100
AcDbVertex
100
AcDb2dVertex
 10
-0.25
 20
1.0
 30
0.0
  0
SEQEND
  5
242
330
23F
100
AcDbEntity
  8
0
 62
     0
  0
SOLID
  5
245
330
227
100
AcDbEntity
  8
0
 62
     0
100
AcDbTrace
 10
-0.25
 20
1.0
 30
0.0
 11
-0.5
 21
1.0
 31
0.0
 12
-0.25
 22
1.0
 32
0.0
 13
-0.25
 23
1.0
 33
0.0
  0
LINE
  5
246
330
227
100
AcDbEntity
  8
0
 62
     0
100
AcDbLine
 10
-1.0
 20
0.0
 30
0.0
 11
-0.5
 21
0.0
 31
0.0
  0
LINE
  5
247
330
227
100
AcDbEntity
  8
0
 62
     0
100
AcDbLine
 10
-0.5
 20
0.0
 30
0.0
 11
-1.0
 21
0.0
 31
0.0
  0
ENDBLK
  5
229
330
227
100
AcDbEntity
  8
0
100
AcDbBlockEnd
  0
BLOCK
  5
26C
330
26B
100
AcDbEntity
  8
0
100
AcDbBlockBegin
  2
REVISIONE
 70
     2
 10
0.0
 20
0.0
 30
0.0
  3
REVISIONE
  1

  0
LINE
  5
26E
330
26B
100
AcDbEntity
  8
Geometria schizzo(ISO)
100
AcDbLine
 10
-95.0
 20
-6.499999999999994
 30
0.0
 11
-95.0
 21
6.49999999999995
 31
0.0
  0
LINE
  5
26F
330
26B
100
AcDbEntity
  8
Geometria schizzo(ISO)
100
AcDbLine
 10
-95.00000000000001
 20
6.49999999999995
 30
0.0
 11
94.99999999999998
 21
6.500000000000003
 31
0.0
  0
LINE
  5
270
330
26B
100
AcDbEntity
  8
Geometria schizzo(ISO)
100
AcDbLine
 10
95.0
 20
6.500000000000003
 30
0.0
 11
95.0
 21
-6.499999999999985
 31
0.0
  0
LINE
  5
271
330
26B
100
AcDbEntity
  8
Geometria schizzo(ISO)
100
AcDbLine
 10
95.0
 20
-6.499999999999985
 30
0.0
 11
-95.0
 21
-6.499999999999994
 31
0.0
  0
LINE
  5
272
330
26B
100
AcDbEntity
  8
Geometria schizzo(ISO)
100
AcDbLine
 10
14.28199999999996
 20
6.500000000000003
 30
0.0
 11
14.28199999999996
 21
-6.499999999999994
 31
0.0
  0
LINE
  5
273
330
26B
100
AcDbEntity
  8
Geometria schizzo(ISO)
100
AcDbLine
 10
20.14999999999997
 20
6.500000000000003
 30
0.0
 11
20.14999999999997
 21
-6.499999999999994
 31
0.0
  0
LINE
  5
274
330
26B
100
AcDbEntity
  8
Geometria schizzo(ISO)
100
AcDbLine
 10
45.09999999999998
 20
6.500000000000003
 30
0.0
 11
45.09999999999998
 21
-6.499999999999985
 31
0.0
  0
LINE
  5
275
330
26B
100
AcDbEntity
  8
Geometria schizzo(ISO)
100
AcDbLine
 10
70.04999999999999
 20
6.500000000000003
 30
0.0
 11
70.04999999999999
 21
-6.499999999999985
 31
0.0
  0
LINE
  5
276
330
26B
100
AcDbEntity
  8
Geometria schizzo(ISO)
100
AcDbLine
 10
-95.0
 20
-1.500000000000021
 30
0.0
 11
95.0
 21
-1.499999999999976
 31
0.0
  0
LINE
  5
277
330
26B
100
AcDbEntity
  8
Geometria schizzo(ISO)
100
AcDbLine
 10
20.14999999999997
 20
2.499999999999982
 30
0.0
 11
95.0
 21
2.500000000000017
 31
0.0
  0
MTEXT
  5
278
330
26B
100
AcDbEntity
  8
Simboli(ISO)
 62
    96
100
AcDbMText
 10
-40.24999999999997
 20
-4.249999999999989
 30
0.0
 40
2.489199936389923
 41
109.5
 71
     5
 72
     1
  1
\fArial|b0|i0;\H2.4892;Descrizione Revisione
  7
Corrente-ISO
 73
     1
 44
1.0
1001
ACAD
1000
MTEXTBEGIN
1070
    73
1070
     1
1070
    44
1040
1.0
1070
    74
1070
     0
1000
MTEXTEND
  0
MTEXT
  5
27A
330
26B
100
AcDbEntity
  8
Simboli(ISO)
 62
    96
100
AcDbMText
 10
17.20910565308934
 20
-4.010830382627901
 30
0.0
 40
2.489199936389923
 41
5.876843529209256
 71
     5
 72
     1
  1
\fArial|b0|i0;\W0.90;\H2.4892;Rev
  7
Corrente-ISO
 73
     1
 44
1.0
1001
ACAD
1000
MTEXTBEGIN
1070
    73
1070
     1
1070
    44
1040
1.0
1070
    74
1070
     0
1000
MTEXTEND
  0
MTEXT
  5
27B
330
26B
100
AcDbEntity
  8
Simboli(ISO)
 62
    96
100
AcDbMText
 10
32.68356521178614
 20
-4.036669839269944
 30
0.0
 40
2.489199936389923
 41
24.96635793550775
 71
     5
 72
     1
  1
\fArial|b0|i0;\H2.4892;Disegnato
  7
Corrente-ISO
 73
     1
 44
1.0
1001
ACAD
1000
MTEXTBEGIN
1070
    73
1070
     1
1070
    44
1040
1.0
1070
    74
1070
     0
1000
MTEXTEND
  0
MTEXT
  5
27C
330
26B
100
AcDbEntity
  8
Simboli(ISO)
 62
    96
100
AcDbMText
 10
57.57373402865312
 20
-4.00232928281115
 30
0.0
 40
2.489199936389923
 41
24.92816610583702
 71
     5
 72
     1
  1
\fArial|b0|i0;\H2.4892;Verificato
  7
Corrente-ISO
 73
     1
 44
1.0
1001
ACAD
1000
MTEXTBEGIN
1070
    73
1070
     1
1070
    44
1040
1.0
1070
    74
1070
     0
1000
MTEXTEND
  0
MTEXT
  5
27D
330
26B
100
AcDbEntity
  8
Simboli(ISO)
 62
    96
100
AcDbMText
 10
82.5334947683379
 20
-4.033923917081256
 30
0.0
 40
2.489199936389923
 41
24.9913553735324
 71
     5
 72
     1
  1
\fArial|b0|i0;\H2.4892;Approvato
  7
Corrente-ISO
 73
     1
 44
1.0
1001
ACAD
1000
MTEXTBEGIN
1070
    73
1070
     1
1070
    44
1040
1.0
1070
    74
1070
     0
1000
MTEXTEND
  0
ATTDEF
  5
27F
102
{ACAD_XDICTIONARY
360
143F
102
}
330
26B
100
AcDbEntity
  8
Simboli(ISO)
 62
     7
100
AcDbText
 10
-93.74928292882428
 20
2.972124334461173
 30
0.0
 40
2.489199936389923
  1
MODIFICATO QUOTA DA 20 A 25
  7
Stile testo15
100
AcDbAttributeDefinition
  3
DESCRIZIONE 1
  2
DESCRIZIONE_1_001
 70
     0
  0
ATTDEF
  5
282
102
{ACAD_XDICTIONARY
360
1442
102
}
330
26B
100
AcDbEntity
  8
Simboli(ISO)
 62
     7
100
AcDbText
 10
-93.82699530276289
 20
-0.595967676708459
 30
0.0
 40
2.489199936389923
  1
MODIFICATO INTERASSE DA 80 A 90
  7
Stile testo15
100
AcDbAttributeDefinition
  3
DESCRIZIONE 2
  2
DESCRIZIONE_2_001
 70
     0
  0
ATTDEF
  5
284
102
{ACAD_XDICTIONARY
360
1445
102
}
330
26B
100
AcDbEntity
  8
Simboli(ISO)
 62
     7
100
AcDbText
 10
15.07942979937668
 20
0.7317788596934767
 30
0.0
 40
3.499999940395355
  1
01
 41
0.9
  7
Stile testo116
100
AcDbAttributeDefinition
  3
NR.REV
  2
NR.REV_001
 70
     0
  0
ATTDEF
  5
286
102
{ACAD_XDICTIONARY
360
144A
102
}
330
26B
100
AcDbEntity
  8
Simboli(ISO)
 62
     7
100
AcDbText
 10
24.69266896187769
 20
5.319801944745019
 30
0.0
 40
2.489199936389923
  1
FRIGETTO
 41
0.9
  7
Stile testo115
100
AcDbAttributeDefinition
  3
DISEGNATO
  2
DISEGNATO_001
 70
     0
  0
ATTDEF
  5
287
102
{ACAD_XDICTIONARY
360
144D
102
}
330
26B
100
AcDbEntity
  8
Simboli(ISO)
 62
     7
100
AcDbText
 10
25.77243061391258
 20
-0.7581010970848934
 30
0.0
 40
2.489199936389923
  1
12-12-01
  7
Stile testo15
100
AcDbAttributeDefinition
  3
DATA
  2
DATA_001
 70
     0
  0
ATTDEF
  5
288
102
{ACAD_XDICTIONARY
360
1450
102
}
330
26B
100
AcDbEntity
  8
Simboli(ISO)
 62
     7
100
AcDbText
 10
50.77760502093152
 20
-0.743400818037856
 30
0.0
 40
2.489199936389923
  1
12-12-01
  7
Stile testo15
100
AcDbAttributeDefinition
  3
DATA
  2
DATA_001
 70
     0
  0
ATTDEF
  5
289
102
{ACAD_XDICTIONARY
360
1453
102
}
330
26B
100
AcDbEntity
  8
Simboli(ISO)
 62
     7
100
AcDbText
 10
75.72397831235503
 20
-0.7581010970848579
 30
0.0
 40
2.489199936389923
  1
12-12-01
  7
Stile testo15
100
AcDbAttributeDefinition
  3
DATA
  2
DATA_001
 70
     0
  0
ATTDEF
  5
165B
102
{ACAD_XDICTIONARY
360
165C
102
}
330
26B
100
AcDbEntity
  8
Simboli(ISO)
 62
     7
100
AcDbText
 10
26.79083019066148
 20
1.126988591226022
 30
0.0
 40
2.489199936389923
  1
MAURO
 41
0.9
  7
Stile testo115
100
AcDbAttributeDefinition
  3
DISEGNATO
  2
DISEGNATO_002
 70
     0
  0
ENDBLK
  5
26D
330
26B
100
AcDbEntity
  8
0
100
AcDbBlockEnd
  0
BLOCK
  5
28B
330
28A
100
AcDbEntity
  8
0
100
AcDbBlockBegin
  2
TIMBRO PER APPROVAZIONE
 70
     0
 10
0.0
 20
0.0
 30
0.0
  3
TIMBRO PER APPROVAZIONE
  1

  0
LINE
  5
28D
330
28A
100
AcDbEntity
  8
Geometria schizzo(ISO)
 62
     7
100
AcDbLine
 10
34.85000000000001
 20
-9.100000000000004
 30
0.0
 11
-34.84999999999999
 21
-9.099999999999997
 31
0.0
  0
LINE
  5
28E
330
28A
100
AcDbEntity
  8
Geometria schizzo(ISO)
 62
     7
100
AcDbLine
 10
35.25
 20
-16.5
 30
0.0
 11
-35.24999999999999
 21
-16.5
 31
0.0
  0
LINE
  5
28F
330
28A
100
AcDbEntity
  8
Geometria schizzo(ISO)
 62
     7
100
AcDbLine
 10
-35.24999999999999
 20
-16.5
 30
0.0
 11
-35.25
 21
16.5
 31
0.0
  0
LINE
  5
290
330
28A
100
AcDbEntity
  8
Geometria schizzo(ISO)
 62
     7
100
AcDbLine
 10
-35.25
 20
16.5
 30
0.0
 11
35.25000000000001
 21
16.5
 31
0.0
  0
LINE
  5
291
330
28A
100
AcDbEntity
  8
Geometria schizzo(ISO)
 62
     7
100
AcDbLine
 10
35.25
 20
16.5
 30
0.0
 11
35.25
 21
-16.5
 31
0.0
  0
MTEXT
  5
292
330
28A
100
AcDbEntity
  8
Simboli(ISO)
 62
     7
100
AcDbMText
 10
-33.7105069207141
 20
-14.19215346071146
 30
0.0
 40
2.5
 41
0.0
 71
     7
 72
     1
  1
\fSwis721 BT|b0|i0;\H2.5000;DATA.........................FIRMA..........................
  7
Corrente-ISO
 73
     1
 44
1.25
1001
ACAD
1000
MTEXTBEGIN
1070
    73
1070
     1
1070
    44
1040
1.25
1070
    74
1070
     0
1000
MTEXTEND
  0
MTEXT
  5
293
330
28A
100
AcDbEntity
  8
Simboli(ISO)
 62
     7
100
AcDbMText
 10
-25.72449588474212
 20
11.13847904581678
 30
0.0
 40
3.499999940395355
 41
0.0
 71
     7
 72
     1
  1
\fSwis721 BT|b0|i0;\H3.5000;RESTITUIRE FIRMATO
  7
Corrente-ISO
 73
     1
 44
1.25
1001
ACAD
1000
MTEXTBEGIN
1070
    73
1070
     1
1070
    44
1040
1.25
1070
    74
1070
     0
1000
MTEXTEND
  0
MTEXT
  5
294
330
28A
100
AcDbEntity
  8
Simboli(ISO)
 62
     7
100
AcDbMText
 10
-28.95171691808511
 20
7.316396977395109
 30
0.0
 40
2.000000029802322
 41
0.0
 71
     7
 72
     1
  1
\fSwis721 BT|b0|i0;\H2.0000;L'APPROVAZIONE DEL DISEGNO DEFINISCE
  7
Corrente-ISO
 73
     1
 44
1.25
1001
ACAD
1000
MTEXTBEGIN
1070
    73
1070
     1
1070
    44
1040
1.25
1070
    74
1070
     0
1000
MTEXTEND
  0
MTEXT
  5
295
330
28A
100
AcDbEntity
  8
Simboli(ISO)
 62
     7
100
AcDbMText
 10
-25.76940871751251
 20
4.544968949952115
 30
0.0
 40
2.000000029802322
 41
0.0
 71
     7
 72
     1
  1
\fSwis721 BT|b0|i0;\H2.0000;L'ORDINE ED IL SUO PROSEGUIMENTO
  7
Corrente-ISO
 73
     1
 44
1.25
1001
ACAD
1000
MTEXTBEGIN
1070
    73
1070
     1
1070
    44
1040
1.25
1070
    74
1070
     0
1000
MTEXTEND
  0
MTEXT
  5
296
330
28A
100
AcDbEntity
  8
Simboli(ISO)
 62
     7
100
AcDbMText
 10
-31.13563506443334
 20
-5.098775396401857
 30
0.0
 40
2.000000029802322
 41
0.0
 71
     7
 72
     1
  1
\fSwis721 BT|b0|i0;\H2.0000;THE APPROVAL OF THE DRAWING DETERMINES
  7
Corrente-ISO
 73
     1
 44
1.25
1001
ACAD
1000
MTEXTBEGIN
1070
    73
1070
     1
1070
    44
1040
1.25
1070
    74
1070
     0
1000
MTEXTEND
  0
MTEXT
  5
297
330
28A
100
AcDbEntity
  8
Simboli(ISO)
 62
     7
100
AcDbMText
 10
-24.30740641391715
 20
-7.870204115351859
 30
0.0
 40
2.000000029802322
 41
0.0
 71
     7
 72
     1
  1
\fSwis721 BT|b0|i0;\H2.0000;THE ORDER AND ITS PROSECUTION
  7
Corrente-ISO
 73
     1
 44
1.25
1001
ACAD
1000
MTEXTBEGIN
1070
    73
1070
     1
1070
    44
1040
1.25
1070
    74
1070
     0
1000
MTEXTEND
  0
MTEXT
  5
298
330
28A
100
AcDbEntity
  8
Simboli(ISO)
 62
     7
100
AcDbMText
 10
-19.82985272453558
 20
-2.084089723680357
 30
0.0
 40
3.499999940395355
 41
0.0
 71
     7
 72
     1
  1
\fSwis721 BT|b0|i0;\H3.5000;RETURN SIGNED
  7
Corrente-ISO
 73
     1
 44
1.25
1001
ACAD
1000
MTEXTBEGIN
1070
    73
1070
     1
1070
    44
1040
1.25
1070
    74
1070
     0
1000
MTEXTEND
  0
ENDBLK
  5
28C
330
28A
100
AcDbEntity
  8
0
100
AcDbBlockEnd
  0
BLOCK
  5
29A
330
299
100
AcDbEntity
  8
0
100
AcDbBlockBegin
  2
Bordi Default Border
 70
     0
 10
0.0
 20
0.0
 30
0.0
  3
Bordi Default Border
  1

  0
POLYLINE
  5
29C
330
299
100
AcDbEntity
  8
Bordo_0
 62
   179
100
AcDb2dPolyline
 66
     1
 10
0.0
 20
0.0
 30
0.0
 70
   128
  0
VERTEX
  5
29D
330
29C
100
AcDbEntity
  8
Bordo_0
 62
   179
100
AcDbVertex
100
AcDb2dVertex
 10
10.0
 20
10.0
 30
0.0
  0
VERTEX
  5
29E
330
29C
100
AcDbEntity
  8
Bordo_0
 62
   179
100
AcDbVertex
100
AcDb2dVertex
 10
10.0
 20
287.0000076293946
 30
0.0
  0
VERTEX
  5
2A0
330
29C
100
AcDbEntity
  8
Bordo_0
 62
   179
100
AcDbVertex
100
AcDb2dVertex
 10
410.0
 20
287.0000076293946
 30
0.0
  0
VERTEX
  5
2A1
330
29C
100
AcDbEntity
  8
Bordo_0
 62
   179
100
AcDbVertex
100
AcDb2dVertex
 10
410.0
 20
10.0
 30
0.0
  0
VERTEX
  5
2A2
330
29C
100
AcDbEntity
  8
Bordo_0
 62
   179
100
AcDbVertex
100
AcDb2dVertex
 10
10.0
 20
10.0
 30
0.0
  0
SEQEND
  5
29F
330
29C
100
AcDbEntity
  8
Bordo_0
 62
   179
  0
POLYLINE
  5
2A3
330
299
100
AcDbEntity
  8
Bordo_0
 62
   179
100
AcDb2dPolyline
 66
     1
 10
0.0
 20
0.0
 30
0.0
 70
   128
  0
VERTEX
  5
2A4
330
2A3
100
AcDbEntity
  8
Bordo_0
 62
   179
100
AcDbVertex
100
AcDb2dVertex
 10
210.0
 20
0.0
 30
0.0
  0
VERTEX
  5
2A5
330
2A3
100
AcDbEntity
  8
Bordo_0
 62
   179
100
AcDbVertex
100
AcDb2dVertex
 10
210.0
 20
10.0
 30
0.0
  0
VERTEX
  5
2A7
330
2A3
100
AcDbEntity
  8
Bordo_0
 62
   179
100
AcDbVertex
100
AcDb2dVertex
 10
207.1132469177246
 20
5.0
 30
0.0
  0
VERTEX
  5
2A8
330
2A3
100
AcDbEntity
  8
Bordo_0
 62
   179
100
AcDbVertex
100
AcDb2dVertex
 10
212.8867530822754
 20
5.0
 30
0.0
  0
VERTEX
  5
2A9
330
2A3
100
AcDbEntity
  8
Bordo_0
 62
   179
100
AcDbVertex
100
AcDb2dVertex
 10
210.0
 20
10.0
 30
0.0
  0
SEQEND
  5
2A6
330
2A3
100
AcDbEntity
  8
Bordo_0
 62
   179
  0
POLYLINE
  5
2AA
330
299
100
AcDbEntity
  8
Bordo_0
 62
   179
100
AcDb2dPolyline
 66
     1
 10
0.0
 20
0.0
 30
0.0
 70
   128
  0
VERTEX
  5
2AB
330
2AA
100
AcDbEntity
  8
Bordo_0
 62
   179
100
AcDbVertex
100
AcDb2dVertex
 10
210.0
 20
297.0000076293946
 30
0.0
  0
VERTEX
  5
2AC
330
2AA
100
AcDbEntity
  8
Bordo_0
 62
   179
100
AcDbVertex
100
AcDb2dVertex
 10
210.0
 20
287.0000076293946
 30
0.0
  0
VERTEX
  5
2AE
330
2AA
100
AcDbEntity
  8
Bordo_0
 62
   179
100
AcDbVertex
100
AcDb2dVertex
 10
207.1132469177246
 20
292.0000076293945
 30
0.0
  0
VERTEX
  5
2AF
330
2AA
100
AcDbEntity
  8
Bordo_0
 62
   179
100
AcDbVertex
100
AcDb2dVertex
 10
212.8867530822754
 20
292.0000076293945
 30
0.0
  0
VERTEX
  5
2B0
330
2AA
100
AcDbEntity
  8
Bordo_0
 62
   179
100
AcDbVertex
100
AcDb2dVertex
 10
210.0
 20
287.0000076293946
 30
0.0
  0
SEQEND
  5
2AD
330
2AA
100
AcDbEntity
  8
Bordo_0
 62
   179
  0
POLYLINE
  5
2B1
330
299
100
AcDbEntity
  8
Bordo_0
 62
   179
100
AcDb2dPolyline
 66
     1
 10
0.0
 20
0.0
 30
0.0
 70
   128
  0
VERTEX
  5
2B2
330
2B1
100
AcDbEntity
  8
Bordo_0
 62
   179
100
AcDbVertex
100
AcDb2dVertex
 10
0.0
 20
148.5000038146973
 30
0.0
  0
VERTEX
  5
2B3
330
2B1
100
AcDbEntity
  8
Bordo_0
 62
   179
100
AcDbVertex
100
AcDb2dVertex
 10
10.0
 20
148.5000038146973
 30
0.0
  0
VERTEX
  5
2B5
330
2B1
100
AcDbEntity
  8
Bordo_0
 62
   179
100
AcDbVertex
100
AcDb2dVertex
 10
5.0
 20
151.3867473602295
 30
0.0
  0
VERTEX
  5
2B6
330
2B1
100
AcDbEntity
  8
Bordo_0
 62
   179
100
AcDbVertex
100
AcDb2dVertex
 10
5.0
 20
145.6132507324219
 30
0.0
  0
VERTEX
  5
2B7
330
2B1
100
AcDbEntity
  8
Bordo_0
 62
   179
100
AcDbVertex
100
AcDb2dVertex
 10
10.0
 20
148.5000038146973
 30
0.0
  0
SEQEND
  5
2B4
330
2B1
100
AcDbEntity
  8
Bordo_0
 62
   179
  0
POLYLINE
  5
2B8
330
299
100
AcDbEntity
  8
Bordo_0
 62
   179
100
AcDb2dPolyline
 66
     1
 10
0.0
 20
0.0
 30
0.0
 70
   128
  0
VERTEX
  5
2B9
330
2B8
100
AcDbEntity
  8
Bordo_0
 62
   179
100
AcDbVertex
100
AcDb2dVertex
 10
420.0
 20
148.5000038146973
 30
0.0
  0
VERTEX
  5
2BA
330
2B8
100
AcDbEntity
  8
Bordo_0
 62
   179
100
AcDbVertex
100
AcDb2dVertex
 10
410.0
 20
148.5000038146973
 30
0.0
  0
VERTEX
  5
2BC
330
2B8
100
AcDbEntity
  8
Bordo_0
 62
   179
100
AcDbVertex
100
AcDb2dVertex
 10
415.0
 20
151.3867473602295
 30
0.0
  0
VERTEX
  5
2BD
330
2B8
100
AcDbEntity
  8
Bordo_0
 62
   179
100
AcDbVertex
100
AcDb2dVertex
 10
415.0
 20
145.6132507324219
 30
0.0
  0
VERTEX
  5
2BE
330
2B8
100
AcDbEntity
  8
Bordo_0
 62
   179
100
AcDbVertex
100
AcDb2dVertex
 10
410.0
 20
148.5000038146973
 30
0.0
  0
SEQEND
  5
2BB
330
2B8
100
AcDbEntity
  8
Bordo_0
 62
   179
  0
LINE
  5
2BF
330
299
100
AcDbEntity
  8
Bordo_0
 62
   179
100
AcDbLine
 10
70.0
 20
10.0
 30
0.0
 11
70.0
 21
6.100000143051147
 31
0.0
  0
LINE
  5
2C0
330
299
100
AcDbEntity
  8
Bordo_0
 62
   179
100
AcDbLine
 10
70.0
 20
287.0000076293946
 30
0.0
 11
70.0
 21
290.9000015258789
 31
0.0
  0
LINE
  5
2C1
330
299
100
AcDbEntity
  8
Bordo_0
 62
   179
100
AcDbLine
 10
140.0
 20
10.0
 30
0.0
 11
140.0
 21
6.100000143051147
 31
0.0
  0
LINE
  5
2C2
330
299
100
AcDbEntity
  8
Bordo_0
 62
   179
100
AcDbLine
 10
140.0
 20
287.0000076293946
 30
0.0
 11
140.0
 21
290.9000015258789
 31
0.0
  0
LINE
  5
2C3
330
299
100
AcDbEntity
  8
Bordo_0
 62
   179
100
AcDbLine
 10
280.0
 20
10.0
 30
0.0
 11
280.0
 21
6.100000143051147
 31
0.0
  0
LINE
  5
2C4
330
299
100
AcDbEntity
  8
Bordo_0
 62
   179
100
AcDbLine
 10
280.0
 20
287.0000076293946
 30
0.0
 11
280.0
 21
290.9000015258789
 31
0.0
  0
LINE
  5
2C5
330
299
100
AcDbEntity
  8
Bordo_0
 62
   179
100
AcDbLine
 10
350.0
 20
10.0
 30
0.0
 11
350.0
 21
6.100000143051147
 31
0.0
  0
LINE
  5
2C6
330
299
100
AcDbEntity
  8
Bordo_0
 62
   179
100
AcDbLine
 10
350.0
 20
287.0000076293946
 30
0.0
 11
350.0
 21
290.9000015258789
 31
0.0
  0
MTEXT
  5
2C7
330
299
100
AcDbEntity
  8
Bordo_2
100
AcDbMText
 10
384.1980168835889
 20
287.4
 30
0.0
 40
3.499999940395355
 41
0.0
 71
     7
 72
     1
  1
1
  7
Bordo_1
 73
     1
 44
1.0
1001
ACAD
1000
MTEXTBEGIN
1070
    73
1070
     1
1070
    44
1040
1.0
1070
    74
1070
     0
1000
MTEXTEND
  0
MTEXT
  5
2C8
330
299
100
AcDbEntity
  8
Bordo_2
100
AcDbMText
 10
384.1980168835889
 20
6.100000059604644
 30
0.0
 40
3.499999940395355
 41
0.0
 71
     7
 72
     1
  1
1
  7
Bordo_1
 73
     1
 44
1.0
1001
ACAD
1000
MTEXTBEGIN
1070
    73
1070
     1
1070
    44
1040
1.0
1070
    74
1070
     0
1000
MTEXTEND
  0
MTEXT
  5
2C9
330
299
100
AcDbEntity
  8
Bordo_2
100
AcDbMText
 10
313.7892158440201
 20
287.4
 30
0.0
 40
3.499999940395355
 41
0.0
 71
     7
 72
     1
  1
2
  7
Bordo_1
 73
     1
 44
1.0
1001
ACAD
1000
MTEXTBEGIN
1070
    73
1070
     1
1070
    44
1040
1.0
1070
    74
1070
     0
1000
MTEXTEND
  0
MTEXT
  5
2CA
330
299
100
AcDbEntity
  8
Bordo_2
100
AcDbMText
 10
313.7892158440201
 20
6.100000059604644
 30
0.0
 40
3.499999940395355
 41
0.0
 71
     7
 72
     1
  1
2
  7
Bordo_1
 73
     1
 44
1.0
1001
ACAD
1000
MTEXTBEGIN
1070
    73
1070
     1
1070
    44
1040
1.0
1070
    74
1070
     0
1000
MTEXTEND
  0
MTEXT
  5
2CB
330
299
100
AcDbEntity
  8
Bordo_2
100
AcDbMText
 10
243.8564160149081
 20
287.3413109757006
 30
0.0
 40
3.499999940395355
 41
0.0
 71
     7
 72
     1
  1
3
  7
Bordo_1
 73
     1
 44
1.0
1001
ACAD
1000
MTEXTBEGIN
1070
    73
1070
     1
1070
    44
1040
1.0
1070
    74
1070
     0
1000
MTEXTEND
  0
MTEXT
  5
2CC
330
299
100
AcDbEntity
  8
Bordo_2
100
AcDbMText
 10
243.8564160149081
 20
6.041311035305261
 30
0.0
 40
3.499999940395355
 41
0.0
 71
     7
 72
     1
  1
3
  7
Bordo_1
 73
     1
 44
1.0
1001
ACAD
1000
MTEXTBEGIN
1070
    73
1070
     1
1070
    44
1040
1.0
1070
    74
1070
     0
1000
MTEXTEND
  0
MTEXT
  5
2CD
330
299
100
AcDbEntity
  8
Bordo_2
100
AcDbMText
 10
173.70521563041
 20
287.4
 30
0.0
 40
3.499999940395355
 41
0.0
 71
     7
 72
     1
  1
4
  7
Bordo_1
 73
     1
 44
1.0
1001
ACAD
1000
MTEXTBEGIN
1070
    73
1070
     1
1070
    44
1040
1.0
1070
    74
1070
     0
1000
MTEXTEND
  0
MTEXT
  5
2CE
330
299
100
AcDbEntity
  8
Bordo_2
100
AcDbMText
 10
173.70521563041
 20
6.100000059604644
 30
0.0
 40
3.499999940395355
 41
0.0
 71
     7
 72
     1
  1
4
  7
Bordo_1
 73
     1
 44
1.0
1001
ACAD
1000
MTEXTBEGIN
1070
    73
1070
     1
1070
    44
1040
1.0
1070
    74
1070
     0
1000
MTEXTEND
  0
MTEXT
  5
2CF
330
299
100
AcDbEntity
  8
Bordo_2
100
AcDbMText
 10
103.8536160077878
 20
287.3413109757006
 30
0.0
 40
3.499999940395355
 41
0.0
 71
     7
 72
     1
  1
5
  7
Bordo_1
 73
     1
 44
1.0
1001
ACAD
1000
MTEXTBEGIN
1070
    73
1070
     1
1070
    44
1040
1.0
1070
    74
1070
     0
1000
MTEXTEND
  0
MTEXT
  5
2D0
330
299
100
AcDbEntity
  8
Bordo_2
100
AcDbMText
 10
103.8536160077878
 20
6.041311035305261
 30
0.0
 40
3.499999940395355
 41
0.0
 71
     7
 72
     1
  1
5
  7
Bordo_1
 73
     1
 44
1.0
1001
ACAD
1000
MTEXTBEGIN
1070
    73
1070
     1
1070
    44
1040
1.0
1070
    74
1070
     0
1000
MTEXTEND
  0
MTEXT
  5
2D1
330
299
100
AcDbEntity
  8
Bordo_2
100
AcDbMText
 10
33.83401595794546
 20
287.3413109757006
 30
0.0
 40
3.499999940395355
 41
0.0
 71
     7
 72
     1
  1
6
  7
Bordo_1
 73
     1
 44
1.0
1001
ACAD
1000
MTEXTBEGIN
1070
    73
1070
     1
1070
    44
1040
1.0
1070
    74
1070
     0
1000
MTEXTEND
  0
MTEXT
  5
2D2
330
299
100
AcDbEntity
  8
Bordo_2
100
AcDbMText
 10
33.83401595794546
 20
6.041311035305261
 30
0.0
 40
3.499999940395355
 41
0.0
 71
     7
 72
     1
  1
6
  7
Bordo_1
 73
     1
 44
1.0
1001
ACAD
1000
MTEXTBEGIN
1070
    73
1070
     1
1070
    44
1040
1.0
1070
    74
1070
     0
1000
MTEXTEND
  0
LINE
  5
2D3
330
299
100
AcDbEntity
  8
Bordo_0
 62
   179
100
AcDbLine
 10
10.0
 20
74.25000190734863
 30
0.0
 11
6.100000143051147
 21
74.25000190734863
 31
0.0
  0
LINE
  5
2D4
330
299
100
AcDbEntity
  8
Bordo_0
 62
   179
100
AcDbLine
 10
410.0
 20
74.25000190734863
 30
0.0
 11
413.8999938964843
 21
74.25000190734863
 31
0.0
  0
LINE
  5
2D5
330
299
100
AcDbEntity
  8
Bordo_0
 62
   179
100
AcDbLine
 10
10.0
 20
222.7499961853027
 30
0.0
 11
6.100000143051147
 21
222.7499961853027
 31
0.0
  0
LINE
  5
2D6
330
299
100
AcDbEntity
  8
Bordo_0
 62
   179
100
AcDbLine
 10
410.0
 20
222.7499961853027
 30
0.0
 11
413.8999938964843
 21
222.7499961853027
 31
0.0
  0
MTEXT
  5
2D7
330
299
100
AcDbEntity
  8
Bordo_2
100
AcDbMText
 10
6.206442621438576
 20
35.37500002980233
 30
0.0
 40
3.499999940395355
 41
0.0
 71
     7
 72
     1
  1
A
  7
Bordo_1
 73
     1
 44
1.0
1001
ACAD
1000
MTEXTBEGIN
1070
    73
1070
     1
1070
    44
1040
1.0
1070
    74
1070
     0
1000
MTEXTEND
  0
MTEXT
  5
2D8
330
299
100
AcDbEntity
  8
Bordo_2
100
AcDbMText
 10
410.5064425618338
 20
35.37500002980233
 30
0.0
 40
3.499999940395355
 41
0.0
 71
     7
 72
     1
  1
A
  7
Bordo_1
 73
     1
 44
1.0
1001
ACAD
1000
MTEXTBEGIN
1070
    73
1070
     1
1070
    44
1040
1.0
1070
    74
1070
     0
1000
MTEXTEND
  0
MTEXT
  5
2D9
330
299
100
AcDbEntity
  8
Bordo_2
100
AcDbMText
 10
6.593912902519599
 20
109.6250000298023
 30
0.0
 40
3.499999940395355
 41
0.0
 71
     7
 72
     1
  1
B
  7
Bordo_1
 73
     1
 44
1.0
1001
ACAD
1000
MTEXTBEGIN
1070
    73
1070
     1
1070
    44
1040
1.0
1070
    74
1070
     0
1000
MTEXTEND
  0
MTEXT
  5
2DA
330
299
100
AcDbEntity
  8
Bordo_2
100
AcDbMText
 10
410.8939128429149
 20
109.6250000298023
 30
0.0
 40
3.499999940395355
 41
0.0
 71
     7
 72
     1
  1
B
  7
Bordo_1
 73
     1
 44
1.0
1001
ACAD
1000
MTEXTBEGIN
1070
    73
1070
     1
1070
    44
1040
1.0
1070
    74
1070
     0
1000
MTEXTEND
  0
MTEXT
  5
2DB
330
299
100
AcDbEntity
  8
Bordo_2
100
AcDbMText
 10
6.338794476247101
 20
183.8163110055029
 30
0.0
 40
3.499999940395355
 41
0.0
 71
     7
 72
     1
  1
C
  7
Bordo_1
 73
     1
 44
1.0
1001
ACAD
1000
MTEXTBEGIN
1070
    73
1070
     1
1070
    44
1040
1.0
1070
    74
1070
     0
1000
MTEXTEND
  0
MTEXT
  5
2DC
330
299
100
AcDbEntity
  8
Bordo_2
100
AcDbMText
 10
410.6387944166424
 20
183.8163110055029
 30
0.0
 40
3.499999940395355
 41
0.0
 71
     7
 72
     1
  1
C
  7
Bordo_1
 73
     1
 44
1.0
1001
ACAD
1000
MTEXTBEGIN
1070
    73
1070
     1
1070
    44
1040
1.0
1070
    74
1070
     0
1000
MTEXTEND
  0
MTEXT
  5
2DD
330
299
100
AcDbEntity
  8
Bordo_2
100
AcDbMText
 10
6.478794832263828
 20
258.1250000298023
 30
0.0
 40
3.499999940395355
 41
0.0
 71
     7
 72
     1
  1
D
  7
Bordo_1
 73
     1
 44
1.0
1001
ACAD
1000
MTEXTBEGIN
1070
    73
1070
     1
1070
    44
1040
1.0
1070
    74
1070
     0
1000
MTEXTEND
  0
MTEXT
  5
2DE
330
299
100
AcDbEntity
  8
Bordo_2
100
AcDbMText
 10
410.7787947726591
 20
258.1250000298023
 30
0.0
 40
3.499999940395355
 41
0.0
 71
     7
 72
     1
  1
D
  7
Bordo_1
 73
     1
 44
1.0
1001
ACAD
1000
MTEXTBEGIN
1070
    73
1070
     1
1070
    44
1040
1.0
1070
    74
1070
     0
1000
MTEXTEND
  0
ENDBLK
  5
29B
330
299
100
AcDbEntity
  8
0
100
AcDbBlockEnd
  0
BLOCK
  5
2E1
330
2E0
100
AcDbEntity
  8
0
100
AcDbBlockBegin
  2
Cartigli COMUNELLO
 70
     2
 10
0.0
 20
0.0
 30
0.0
  3
Cartigli COMUNELLO
  1

  0
HATCH
  5
2EF
330
2E0
100
AcDbEntity
  8
Tratteggio
 62
     7
100
AcDbHatch
 10
0.0
 20
0.0
 30
0.0
210
0.0
220
0.0
230
1.0
  2
SOLID
 70
     1
 71
     0
 91
        2
 92
        0
 93
        6
 72
     1
 10
13.50007588364672
 20
19.89302050081428
 11
30.89993084866332
 21
19.89302050081416
 72
     1
 10
30.89993084866332
 20
19.89302050081416
 11
30.89993084866332
 21
23.04299424448097
 72
     1
 10
30.89993084866332
 20
23.04299424448097
 11
27.77220960581477
 21
23.04299424448103
 72
     2
 10
22.20000336615506
 20
37.30358966223789
 40
15.31058666564578
 50
68.65735037136855
 51
111.3426496286315
 73
     0
 72
     1
 10
16.62779712649531
 20
23.04299424448104
 11
13.50007588364672
 21
23.04299424448097
 72
     1
 10
13.50007588364672
 20
23.04299424448097
 11
13.50007588364672
 21
19.89302050081428
 97
        0
 92
        1
 93
        6
 72
     1
 10
32.69991584504435
 20
18.09303550443317
 11
32.69991584504435
 21
24.84297924086209
 72
     1
 10
32.69991584504435
 20
24.84297924086208
 11
27.42202839407664
 21
24.84297924086206
 72
     2
 10
22.20000336615506
 20
37.30358966223789
 40
13.51060166926475
 50
67.26229019813374
 51
112.7377098018664
 73
     0
 72
     1
 10
16.97797833823344
 20
24.84297924086206
 11
11.70009088726569
 21
24.84297924086208
 72
     1
 10
11.70009088726569
 20
24.84297924086208
 11
11.70009088726569
 21
18.09303550443317
 72
     1
 10
11.70009088726569
 20
18.09303550443317
 11
32.69991584504435
 21
18.09303550443317
 97
        0
 75
     0
 76
     1
 98
        1
 10
0.0
 20
0.0
  0
HATCH
  5
2F8
330
2E0
100
AcDbEntity
  8
Tratteggio
 62
     7
100
AcDbHatch
 10
0.0
 20
0.0
 30
0.0
210
0.0
220
0.0
230
1.0
  2
SOLID
 70
     1
 71
     0
 91
        1
 92
        1
 93
        8
 72
     1
 10
95.05771295395282
 20
26.74999998775002
 11
27.77386600155343
 21
26.74999998775007
 72
     2
 10
22.20000336615506
 20
39.84359466344421
 40
14.23060667047108
 50
66.94084417726135
 51
113.0591558227387
 73
     0
 72
     1
 10
16.62614073075666
 20
26.74999998775004
 11
10.0
 21
26.74999998775003
 72
     1
 10
10.0
 20
26.74999998775003
 11
10.00000000000025
 21
26.24999998775003
 72
     1
 10
10.00000000000025
 20
26.24999998775003
 11
16.52506224989093
 21
26.24999998775001
 72
     2
 10
22.20000336615506
 20
39.84359466344421
 40
14.73060667047108
 50
247.3408443660875
 51
292.6591556339125
 73
     1
 72
     1
 10
27.87494448241919
 20
26.24999998775003
 11
95.05771295395282
 21
26.24999998775003
 72
     1
 10
95.05771295395282
 20
26.24999998775003
 11
95.05771295395282
 21
26.74999998775002
 97
        0
 75
     0
 76
     1
 98
        1
 10
0.0
 20
0.0
  0
HATCH
  5
305
330
2E0
100
AcDbEntity
  8
Tratteggio
 62
     7
100
AcDbHatch
 10
0.0
 20
0.0
 30
0.0
210
0.0
220
0.0
230
1.0
  2
SOLID
 70
     1
 71
     0
 91
        2
 92
        0
 93
        6
 72
     1
 10
30.90009088726564
 20
32.93297924086207
 11
30.90009088726564
 21
29.78297924086208
 72
     1
 10
30.90009088726564
 20
29.78297924086208
 11
26.91257430898715
 21
29.78297924086208
 72
     2
 10
22.20009088726563
 20
39.83297924086207
 40
11.1
 50
64.87793981336809
 51
115.1220601866318
 73
     0
 72
     1
 10
17.48760746554413
 20
29.78297924086206
 11
13.50009088726564
 21
29.78297924086206
 72
     1
 10
13.50009088726564
 20
29.78297924086206
 11
13.50009088726564
 21
32.93297924086207
 72
     1
 10
13.50009088726564
 20
32.93297924086207
 11
30.90009088726564
 21
32.93297924086207
 97
        0
 92
        1
 93
        6
 72
     1
 10
11.70009088726567
 20
34.7329792408621
 11
32.70009088726567
 21
34.73297924086214
 72
     1
 10
32.70009088726567
 20
34.73297924086214
 11
32.70009088726565
 21
27.98297924086213
 72
     1
 10
32.70009088726565
 20
27.98297924086213
 11
27.30247474189664
 21
27.98297924086202
 72
     2
 10
22.20009088726567
 20
39.84297924086207
 40
12.911
 50
66.72176127080208
 51
113.2782387291978
 73
     0
 72
     1
 10
17.09770703263471
 20
27.98297924086201
 11
11.70009088726569
 21
27.98297924086199
 72
     1
 10
11.70009088726569
 20
27.98297924086199
 11
11.70009088726567
 21
34.7329792408621
 97
        0
 75
     0
 76
     1
 98
        1
 10
0.0
 20
0.0
  0
LINE
  5
306
330
2E0
100
AcDbEntity
  8
Geometria schizzo(ISO)
  6
Continuous
 62
     7
370
    50
100
AcDbLine
 10
200.0
 20
67.5
 30
0.0
 11
10.0
 21
67.5
 31
0.0
  0
LINE
  5
307
330
2E0
100
AcDbEntity
  8
Geometria schizzo(ISO)
  6
Continuous
 62
     7
370
    50
100
AcDbLine
 10
10.0
 20
59.5
 30
0.0
 11
200.0
 21
59.5
 31
0.0
  0
LINE
  5
308
330
2E0
100
AcDbEntity
  8
Geometria schizzo(ISO)
  6
Continuous
 62
     7
370
    50
100
AcDbLine
 10
10.0
 20
54.5
 30
0.0
 11
200.0000000000002
 21
54.5
 31
0.0
  0
LINE
  5
309
330
2E0
100
AcDbEntity
  8
Geometria schizzo(ISO)
  6
Continuous
 62
     7
370
    50
100
AcDbLine
 10
10.0
 20
46.49999997550015
 30
0.0
 11
200.0000000000002
 21
46.49999997550015
 31
0.0
  0
LINE
  5
30A
330
2E0
100
AcDbEntity
  8
Geometria schizzo(ISO)
  6
Continuous
 62
     7
370
    50
100
AcDbLine
 10
10.0
 20
38.49999997550006
 30
0.0
 11
200.0000000000002
 21
38.49999997550006
 31
0.0
  0
LINE
  5
30B
330
2E0
100
AcDbEntity
  8
Geometria schizzo(ISO)
  6
Continuous
 62
     7
370
    50
100
AcDbLine
 10
10.0
 20
14.5
 30
0.0
 11
200.0
 21
14.5
 31
0.0
  0
LINE
  5
30C
330
2E0
100
AcDbEntity
  8
Geometria schizzo(ISO)
  6
Continuous
 62
     7
370
    50
100
AcDbLine
 10
10.0
 20
10.0
 30
0.0
 11
200.0
 21
10.0
 31
0.0
  0
LINE
  5
30D
330
2E0
100
AcDbEntity
  8
Geometria schizzo(ISO)
  6
Continuous
 62
     7
370
    50
100
AcDbLine
 10
126.5003211145929
 20
30.50000000000001
 30
0.0
 11
200.0
 21
30.50000000000001
 31
0.0
  0
LINE
  5
30E
330
2E0
100
AcDbEntity
  8
Geometria schizzo(ISO)
  6
Continuous
 62
     7
370
    50
100
AcDbLine
 10
126.5003211145929
 20
22.5
 30
0.0
 11
200.0
 21
22.5
 31
0.0
  0
LINE
  5
30F
330
2E0
100
AcDbEntity
  8
Geometria schizzo(ISO)
  6
Continuous
 62
     7
370
    50
100
AcDbLine
 10
10.0
 20
10.0
 30
0.0
 11
10.0
 21
67.5
 31
0.0
  0
LINE
  5
310
330
2E0
100
AcDbEntity
  8
Geometria schizzo(ISO)
  6
Continuous
 62
     7
370
    50
100
AcDbLine
 10
82.71476190476196
 20
67.5
 30
0.0
 11
82.71476190476199
 21
38.49999997550006
 31
0.0
  0
LINE
  5
311
330
2E0
100
AcDbEntity
  8
Geometria schizzo(ISO)
  6
Continuous
 62
     7
370
    50
100
AcDbLine
 10
34.23825396825403
 20
46.49999997550015
 30
0.0
 11
34.23825396825403
 21
38.49999997550006
 31
0.0
  0
LINE
  5
312
330
2E0
100
AcDbEntity
  8
Geometria schizzo(ISO)
  6
Continuous
 62
     7
370
    50
100
AcDbLine
 10
58.47650793650799
 20
46.49999997550015
 30
0.0
 11
58.47650793650799
 21
38.49999997550003
 31
0.0
  0
LINE
  5
313
330
2E0
100
AcDbEntity
  8
Geometria schizzo(ISO)
  6
Continuous
 62
     7
370
    50
100
AcDbLine
 10
111.6495238095238
 20
67.5
 30
0.0
 11
111.6495238095238
 21
38.4999999755002
 31
0.0
  0
LINE
  5
314
330
2E0
100
AcDbEntity
  8
Geometria schizzo(ISO)
  6
Continuous
 62
     7
370
    50
100
AcDbLine
 10
126.5003211145929
 20
46.49999997550015
 30
0.0
 11
126.5003211145929
 21
14.5
 31
0.0
  0
LINE
  5
315
330
2E0
100
AcDbEntity
  8
Geometria schizzo(ISO)
  6
Continuous
 62
     7
370
    50
100
AcDbLine
 10
159.8068536898258
 20
46.49999997550015
 30
0.0
 11
159.8068536898258
 21
22.5
 31
0.0
  0
LINE
  5
316
330
2E0
100
AcDbEntity
  8
Geometria schizzo(ISO)
  6
Continuous
 62
     7
370
    50
100
AcDbLine
 10
176.9329761904763
 20
67.5
 30
0.0
 11
176.9329761904763
 21
22.5
 31
0.0
  0
LINE
  5
317
330
2E0
100
AcDbEntity
  8
Geometria schizzo(ISO)
  6
Continuous
 62
     7
370
    50
100
AcDbLine
 10
200.0
 20
67.5
 30
0.0
 11
200.0
 21
10.0
 31
0.0
  0
LINE
  5
318
330
2E0
100
AcDbEntity
  8
Geometria schizzo(ISO)
  6
Continuous
 62
     7
370
    50
100
AcDbLine
 10
32.69991584504435
 20
18.09303550443317
 30
0.0
 11
32.69991584504435
 21
24.84297924086208
 31
0.0
  0
LINE
  5
319
330
2E0
100
AcDbEntity
  8
Geometria schizzo(ISO)
  6
Continuous
 62
     7
370
    50
100
AcDbLine
 10
30.89993084866332
 20
19.89302050081416
 30
0.0
 11
30.89993084866332
 21
23.04299424448097
 31
0.0
  0
LINE
  5
31A
330
2E0
100
AcDbEntity
  8
Geometria schizzo(ISO)
  6
Continuous
 62
     7
370
    50
100
AcDbLine
 10
11.70009088726569
 20
18.09303550443317
 30
0.0
 11
11.70009088726569
 21
24.84297924086208
 31
0.0
  0
LINE
  5
31B
330
2E0
100
AcDbEntity
  8
Geometria schizzo(ISO)
  6
Continuous
 62
     7
370
    50
100
AcDbLine
 10
13.50007588364672
 20
19.89302050081428
 30
0.0
 11
13.50007588364672
 21
23.04299424448097
 31
0.0
  0
LINE
  5
31C
330
2E0
100
AcDbEntity
  8
Geometria schizzo(ISO)
  6
Continuous
 62
     7
370
    50
100
AcDbLine
 10
32.69991584504435
 20
18.09303550443317
 30
0.0
 11
11.70009088726569
 21
18.09303550443317
 31
0.0
  0
LINE
  5
31D
330
2E0
100
AcDbEntity
  8
Geometria schizzo(ISO)
  6
Continuous
 62
     7
370
    50
100
AcDbLine
 10
30.89993084866332
 20
19.89302050081416
 30
0.0
 11
13.50007588364672
 21
19.89302050081428
 31
0.0
  0
ARC
  5
31E
330
2E0
100
AcDbEntity
  8
Geometria schizzo(ISO)
  6
Continuous
 62
     7
370
    50
100
AcDbCircle
 10
22.20000336615506
 20
37.30358966223789
 30
0.0
 40
15.31058666564578
100
AcDbArc
 50
248.6573503713684
 51
291.3426496286315
  0
ARC
  5
31F
330
2E0
100
AcDbEntity
  8
Geometria schizzo(ISO)
  6
Continuous
 62
     7
370
    50
100
AcDbCircle
 10
22.20000336615506
 20
37.30358966223789
 30
0.0
 40
13.51060166926475
100
AcDbArc
 50
247.2622901981336
 51
292.7377098018663
  0
LINE
  5
320
330
2E0
100
AcDbEntity
  8
Geometria schizzo(ISO)
  6
Continuous
 62
     7
370
    50
100
AcDbLine
 10
11.70009088726569
 20
24.84297924086208
 30
0.0
 11
16.97797833823344
 21
24.84297924086206
 31
0.0
  0
LINE
  5
321
330
2E0
100
AcDbEntity
  8
Geometria schizzo(ISO)
  6
Continuous
 62
     7
370
    50
100
AcDbLine
 10
13.50007588364672
 20
23.04299424448097
 30
0.0
 11
16.62779712649531
 21
23.04299424448104
 31
0.0
  0
LINE
  5
322
330
2E0
100
AcDbEntity
  8
Geometria schizzo(ISO)
  6
Continuous
 62
     7
370
    50
100
AcDbLine
 10
27.42202839407664
 20
24.84297924086206
 30
0.0
 11
32.69991584504435
 21
24.84297924086208
 31
0.0
  0
LINE
  5
323
330
2E0
100
AcDbEntity
  8
Geometria schizzo(ISO)
  6
Continuous
 62
     7
370
    50
100
AcDbLine
 10
27.77220960581477
 20
23.04299424448103
 30
0.0
 11
30.89993084866332
 21
23.04299424448097
 31
0.0
  0
LINE
  5
324
330
2E0
100
AcDbEntity
  8
Geometria schizzo(ISO)
  6
Continuous
 62
     7
370
    50
100
AcDbLine
 10
95.05771295395282
 20
26.74999998775002
 30
0.0
 11
95.05771295395282
 21
26.24999998775003
 31
0.0
  0
LINE
  5
325
330
2E0
100
AcDbEntity
  8
Geometria schizzo(ISO)
  6
Continuous
 62
     7
370
    50
100
AcDbLine
 10
16.62614073075666
 20
26.74999998775004
 30
0.0
 11
10.0
 21
26.74999998775003
 31
0.0
  0
ARC
  5
326
330
2E0
100
AcDbEntity
  8
Geometria schizzo(ISO)
  6
Continuous
 62
     7
370
    50
100
AcDbCircle
 10
22.20000336615506
 20
39.84359466344421
 30
0.0
 40
14.23060667047107
100
AcDbArc
 50
246.9408441772613
 51
293.0591558227387
  0
LINE
  5
327
330
2E0
100
AcDbEntity
  8
Geometria schizzo(ISO)
  6
Continuous
 62
     7
370
    50
100
AcDbLine
 10
27.77386600155342
 20
26.74999998775007
 30
0.0
 11
95.05771295395282
 21
26.74999998775002
 31
0.0
  0
LINE
  5
328
330
2E0
100
AcDbEntity
  8
Geometria schizzo(ISO)
  6
Continuous
 62
     7
370
    50
100
AcDbLine
 10
27.87494448241919
 20
26.24999998775003
 30
0.0
 11
95.05771295395282
 21
26.24999998775003
 31
0.0
  0
ARC
  5
329
330
2E0
100
AcDbEntity
  8
Geometria schizzo(ISO)
  6
Continuous
 62
     7
370
    50
100
AcDbCircle
 10
22.20000336615506
 20
39.84359466344421
 30
0.0
 40
14.73060667047108
100
AcDbArc
 50
247.3408443660875
 51
292.6591556339125
  0
LINE
  5
32A
330
2E0
100
AcDbEntity
  8
Geometria schizzo(ISO)
  6
Continuous
 62
     7
370
    50
100
AcDbLine
 10
16.52506224989093
 20
26.24999998775001
 30
0.0
 11
10.00000000000025
 21
26.24999998775003
 31
0.0
  0
LINE
  5
32B
330
2E0
100
AcDbEntity
  8
Geometria schizzo(ISO)
  6
Continuous
 62
     7
370
    50
100
AcDbLine
 10
10.0
 20
26.74999998775003
 30
0.0
 11
10.00000000000025
 21
26.24999998775003
 31
0.0
  0
LINE
  5
32C
330
2E0
100
AcDbEntity
  8
Geometria schizzo(ISO)
  6
Continuous
 62
     7
370
    50
100
AcDbLine
 10
70.09301344488737
 20
40.10977632401654
 30
0.0
 11
70.06166132979082
 21
45.19999997550015
 31
0.0
  0
LINE
  5
32D
330
2E0
100
AcDbEntity
  8
Geometria schizzo(ISO)
  6
Continuous
 62
     7
370
    50
100
AcDbLine
 10
62.715217801343
 20
44.2999999755001
 30
0.0
 11
70.06166132979082
 21
45.19999997550015
 31
0.0
  0
LINE
  5
32E
330
2E0
100
AcDbEntity
  8
Geometria schizzo(ISO)
  6
Continuous
 62
     7
370
    50
100
AcDbLine
 10
62.715217801343
 20
40.69999997550009
 30
0.0
 11
70.09301344488737
 21
40.10977632401654
 31
0.0
  0
LINE
  5
32F
330
2E0
100
AcDbEntity
  8
Geometria schizzo(ISO)
  6
Continuous
 62
     7
370
    50
100
AcDbLine
 10
62.715217801343
 20
40.69999997550009
 30
0.0
 11
62.715217801343
 21
44.2999999755001
 31
0.0
  0
LINE
  5
330
330
2E0
100
AcDbEntity
  8
Geometria schizzo(ISO)
  6
LONG_DASH_DOTTED
 62
     7
 48
25.40819931030274
370
    25
100
AcDbLine
 10
61.89509347490513
 20
42.4999999755001
 30
0.0
 11
79.03957443821731
 21
42.4999999755001
 31
0.0
  0
CIRCLE
  5
331
330
2E0
100
AcDbEntity
  8
Geometria schizzo(ISO)
  6
Continuous
 62
     7
370
    50
100
AcDbCircle
 10
75.61970665301604
 20
42.4999999755001
 30
0.0
 40
2.835161292266829
  0
CIRCLE
  5
332
330
2E0
100
AcDbEntity
  8
Geometria schizzo(ISO)
  6
Continuous
 62
     7
370
    50
100
AcDbCircle
 10
75.61970665301604
 20
42.4999999755001
 30
0.0
 40
1.8
  0
LINE
  5
333
330
2E0
100
AcDbEntity
  8
Geometria schizzo(ISO)
  6
DASH_DOT
 62
     7
 48
25.41209030151367
370
    25
100
AcDbLine
 10
75.61970665301604
 20
45.98912961192912
 30
0.0
 11
75.61970665301604
 21
39.01126421122319
 31
0.0
  0
LINE
  5
334
330
2E0
100
AcDbEntity
  8
Geometria schizzo(ISO)
100
AcDbLine
 10
13.50009088726564
 20
32.93297924086207
 30
0.0
 11
30.90009088726564
 21
32.93297924086207
 31
0.0
  0
LINE
  5
335
330
2E0
100
AcDbEntity
  8
Geometria schizzo(ISO)
100
AcDbLine
 10
30.90009088726564
 20
32.93297924086207
 30
0.0
 11
30.90009088726564
 21
29.78297924086208
 31
0.0
  0
LINE
  5
336
330
2E0
100
AcDbEntity
  8
Geometria schizzo(ISO)
100
AcDbLine
 10
30.90009088726564
 20
29.78297924086208
 30
0.0
 11
26.91257430898715
 21
29.78297924086208
 31
0.0
  0
LINE
  5
337
330
2E0
100
AcDbEntity
  8
Geometria schizzo(ISO)
100
AcDbLine
 10
13.50009088726564
 20
32.93297924086207
 30
0.0
 11
13.50009088726564
 21
29.78297924086206
 31
0.0
  0
LINE
  5
338
330
2E0
100
AcDbEntity
  8
Geometria schizzo(ISO)
100
AcDbLine
 10
13.50009088726564
 20
29.78297924086206
 30
0.0
 11
17.48760746554413
 21
29.78297924086206
 31
0.0
  0
ARC
  5
339
330
2E0
100
AcDbEntity
  8
Geometria schizzo(ISO)
100
AcDbCircle
 10
22.20009088726563
 20
39.83297924086207
 30
0.0
 40
11.1
100
AcDbArc
 50
244.8779398133681
 51
295.122060186632
  0
LINE
  5
33A
330
2E0
100
AcDbEntity
  8
Geometria schizzo(ISO)
100
AcDbLine
 10
11.70009088726567
 20
34.7329792408621
 30
0.0
 11
32.70009088726567
 21
34.73297924086214
 31
0.0
  0
LINE
  5
33B
330
2E0
100
AcDbEntity
  8
Geometria schizzo(ISO)
100
AcDbLine
 10
32.70009088726567
 20
34.73297924086214
 30
0.0
 11
32.70009088726565
 21
27.98297924086213
 31
0.0
  0
LINE
  5
33C
330
2E0
100
AcDbEntity
  8
Geometria schizzo(ISO)
100
AcDbLine
 10
32.70009088726565
 20
27.98297924086213
 30
0.0
 11
27.30247474189664
 21
27.98297924086202
 31
0.0
  0
LINE
  5
33D
330
2E0
100
AcDbEntity
  8
Geometria schizzo(ISO)
100
AcDbLine
 10
11.70009088726567
 20
34.7329792408621
 30
0.0
 11
11.70009088726569
 21
27.98297924086199
 31
0.0
  0
LINE
  5
33E
330
2E0
100
AcDbEntity
  8
Geometria schizzo(ISO)
100
AcDbLine
 10
11.70009088726569
 20
27.98297924086199
 30
0.0
 11
17.09770703263471
 21
27.98297924086201
 31
0.0
  0
ARC
  5
33F
330
2E0
100
AcDbEntity
  8
Geometria schizzo(ISO)
100
AcDbCircle
 10
22.20009088726567
 20
39.84297924086207
 30
0.0
 40
12.911
100
AcDbArc
 50
246.7217612708022
 51
293.2782387291979
  0
CIRCLE
  5
340
330
2E0
100
AcDbEntity
  8
Geometria schizzo(ISO)
  6
Continuous
370
    25
100
AcDbCircle
 10
94.17107124803315
 20
30.38071944555288
 30
0.0
 40
1.196319387325194
  0
MTEXT
  5
341
330
2E0
100
AcDbEntity
  8
Simboli(ISO)
 62
    96
100
AcDbMText
 10
46.375
 20
57.00000000000001
 30
0.0
 40
2.489199936389923
 41
72.75
 71
     5
 72
     1
  1
\fArial|b0|i0;\H2.4892;Denominazione
  7
Corrente-ISO
 73
     1
 44
1.0
1001
ACAD
1000
MTEXTBEGIN
1070
    73
1070
     1
1070
    44
1040
1.0
1070
    74
1070
     0
1000
MTEXTEND
  0
MTEXT
  5
342
330
2E0
100
AcDbEntity
  8
Simboli(ISO)
 62
    96
100
AcDbMText
 10
97.25000000000001
 20
57.00000000000001
 30
0.0
 40
2.489199936389923
 41
29.0
 71
     5
 72
     1
  1
\fArial|b0|i0;\H2.4892;Codice Disegno
  7
Corrente-ISO
 73
     1
 44
1.0
1001
ACAD
1000
MTEXTBEGIN
1070
    73
1070
     1
1070
    44
1040
1.0
1070
    74
1070
     0
1000
MTEXTEND
  0
MTEXT
  5
343
330
2E0
100
AcDbEntity
  8
Simboli(ISO)
 62
    96
100
AcDbMText
 10
144.375
 20
57.00000000000001
 30
0.0
 40
2.489199936389923
 41
65.24999999999998
 71
     5
 72
     1
  1
\fArial|b0|i0;\H2.4892;Materiale-UNI
  7
Corrente-ISO
 73
     1
 44
1.0
1001
ACAD
1000
MTEXTBEGIN
1070
    73
1070
     1
1070
    44
1040
1.0
1070
    74
1070
     0
1000
MTEXTEND
  0
MTEXT
  5
344
330
2E0
100
AcDbEntity
  8
Simboli(ISO)
 62
    96
100
AcDbMText
 10
188.5
 20
57.00000000000001
 30
0.0
 40
2.489199936389923
 41
23.00000000000001
 71
     5
 72
     1
  1
\fArial|b0|i0;\H2.4892;Codice Mater.
  7
Corrente-ISO
 73
     1
 44
1.0
1001
ACAD
1000
MTEXTBEGIN
1070
    73
1070
     1
1070
    44
1040
1.0
1070
    74
1070
     0
1000
MTEXTEND
  0
MTEXT
  5
345
330
2E0
100
AcDbEntity
  8
Simboli(ISO)
 62
    96
100
AcDbMText
 10
11.03637498653142
 20
53.62542943640336
 30
0.0
 40
2.489199936389923
 41
0.0
 71
     1
 72
     1
  1
\fArial|b0|i0;\H2.4892;Tolleranze Generali
  7
Corrente-ISO
 73
     1
 44
1.0
1001
ACAD
1000
MTEXTBEGIN
1070
    73
1070
     1
1070
    44
1040
1.0
1070
    74
1070
     0
1000
MTEXTEND
  0
MTEXT
  5
346
330
2E0
100
AcDbEntity
  8
Simboli(ISO)
 62
    96
100
AcDbMText
 10
22.0
 20
45.62331331753725
 30
0.0
 40
2.489199936389923
 41
22.0
 71
     2
 72
     1
  1
\fArial|b0|i0;\H2.4892;Sostituisce il
  7
Corrente-ISO
 73
     1
 44
1.0
1001
ACAD
1000
MTEXTBEGIN
1070
    73
1070
     1
1070
    44
1040
1.0
1070
    74
1070
     0
1000
MTEXTEND
  0
MTEXT
  5
347
330
2E0
100
AcDbEntity
  8
Simboli(ISO)
 62
    96
100
AcDbMText
 10
46.5
 20
45.57392268569088
 30
0.0
 40
2.489199936389923
 41
23.0
 71
     2
 72
     1
  1
\fArial|b0|i0;\H2.4892;Sostituito dal
  7
Corrente-ISO
 73
     1
 44
1.0
1001
ACAD
1000
MTEXTBEGIN
1070
    73
1070
     1
1070
    44
1040
1.0
1070
    74
1070
     0
1000
MTEXTEND
  0
MTEXT
  5
348
330
2E0
100
AcDbEntity
  8
Simboli(ISO)
 62
    96
100
AcDbMText
 10
84.0
 20
45.52415962817554
 30
0.0
 40
2.489199936389923
 41
20.0
 71
     1
 72
     1
  1
\fArial|b0|i0;\H2.4892;Scala
  7
Corrente-ISO
 73
     1
 44
1.0
1001
ACAD
1000
MTEXTBEGIN
1070
    73
1070
     1
1070
    44
1040
1.0
1070
    74
1070
     0
1000
MTEXTEND
  0
MTEXT
  5
349
330
2E0
100
AcDbEntity
  8
Simboli(ISO)
 62
    96
100
AcDbMText
 10
119.2198163354513
 20
45.48687767908593
 30
0.0
 40
2.489199936389923
 41
12.5
 71
     2
 72
     1
  1
\fArial|b0|i0;\H2.4892;Foglio\P 
  7
Corrente-ISO
 73
     2
 44
0.9442214369773864
1001
ACAD
1000
MTEXTBEGIN
1070
    73
1070
     2
1070
    44
1040
0.9442214369773864
1070
    74
1070
     0
1000
MTEXTEND
  0
MTEXT
  5
34A
330
2E0
100
AcDbEntity
  8
Simboli(ISO)
 62
    96
100
AcDbMText
 10
97.44767410410688
 20
52.26743745909543
 30
0.0
 40
2.489199936389923
 41
27.00000000000001
 71
     5
 72
     1
  1
\fArial|b0|i0;\H2.4892;Peso Unit.(Kg)
  7
Corrente-ISO
 73
     1
 44
1.0
1001
ACAD
1000
MTEXTBEGIN
1070
    73
1070
     1
1070
    44
1040
1.0
1070
    74
1070
     0
1000
MTEXTEND
  0
MTEXT
  5
34B
330
2E0
100
AcDbEntity
  8
Simboli(ISO)
 62
    96
100
AcDbMText
 10
113.0
 20
53.52906693798992
 30
0.0
 40
2.489199936389923
 41
41.5
 71
     1
 72
     1
  1
\fArial|b0|i0;\H2.4892;Trattamento
  7
Corrente-ISO
 73
     1
 44
1.0
1001
ACAD
1000
MTEXTBEGIN
1070
    73
1070
     1
1070
    44
1040
1.0
1070
    74
1070
     0
1000
MTEXTEND
  0
MTEXT
  5
34C
330
2E0
100
AcDbEntity
  8
Simboli(ISO)
 62
    96
100
AcDbMText
 10
188.6268379764541
 20
52.23897215805649
 30
0.0
 40
2.489199936389923
 41
21.64389610290527
 71
     5
 72
     1
  1
\fArial|b0|i0;\H2.4892;Coeff.Impiego
  7
Corrente-ISO
 73
     1
 44
1.0
1001
ACAD
1000
MTEXTBEGIN
1070
    73
1070
     1
1070
    44
1040
1.0
1070
    74
1070
     0
1000
MTEXTEND
  0
MTEXT
  5
34D
330
2E0
100
AcDbEntity
  8
Simboli(ISO)
 62
    96
100
AcDbMText
 10
127.0
 20
45.54724501095818
 30
0.0
 40
2.489199936389923
 41
32.5
 71
     1
 72
     1
  1
\fArial|b0|i0;\H2.4892;Disegnato
  7
Corrente-ISO
 73
     1
 44
1.0
1001
ACAD
1000
MTEXTBEGIN
1070
    73
1070
     1
1070
    44
1040
1.0
1070
    74
1070
     0
1000
MTEXTEND
  0
MTEXT
  5
34E
330
2E0
100
AcDbEntity
  8
Simboli(ISO)
 62
    96
100
AcDbMText
 10
127.1130530408996
 20
37.43473480983361
 30
0.0
 40
2.489199936389923
 41
31.99999999999999
 71
     1
 72
     1
  1
\fArial|b0|i0;\H2.4892;Verificato
  7
Corrente-ISO
 73
     1
 44
1.0
1001
ACAD
1000
MTEXTBEGIN
1070
    73
1070
     1
1070
    44
1040
1.0
1070
    74
1070
     0
1000
MTEXTEND
  0
MTEXT
  5
34F
330
2E0
100
AcDbEntity
  8
Simboli(ISO)
 62
    96
100
AcDbMText
 10
127.0565265204498
 20
29.43473480983361
 30
0.0
 40
2.489199936389923
 41
31.99999999999999
 71
     1
 72
     1
  1
\fArial|b0|i0;\H2.4892;Approvato
  7
Corrente-ISO
 73
     1
 44
1.0
1001
ACAD
1000
MTEXTBEGIN
1070
    73
1070
     1
1070
    44
1040
1.0
1070
    74
1070
     0
1000
MTEXTEND
  0
MTEXT
  5
350
330
2E0
100
AcDbEntity
  8
Simboli(ISO)
 62
     7
100
AcDbMText
 10
33.90115953460973
 20
31.79652138804769
 30
0.0
 40
3.50519984960556
 41
58.00000000000001
 71
     1
 72
     1
  1
\fArial Black|b1|i0;\H3.5052;Fratelli Comunello 
  7
Corrente-ISO
 73
     1
 44
1.0
1001
ACAD
1000
MTEXTBEGIN
1070
    73
1070
     1
1070
    44
1040
1.0
1070
    74
1070
     0
1000
MTEXTEND
  0
MTEXT
  5
351
330
2E0
100
AcDbEntity
  8
Simboli(ISO)
 62
     7
100
AcDbMText
 10
83.87549784754645
 20
30.17629441918698
 30
0.0
 40
2.006599903106689
 41
8.000000000000007
 71
     1
 72
     1
  1
\fArial Black|b1|i0;\H2.0066;S.p.A
  7
Corrente-ISO
 73
     1
 44
1.0
1001
ACAD
1000
MTEXTBEGIN
1070
    73
1070
     1
1070
    44
1040
1.0
1070
    74
1070
     0
1000
MTEXTEND
  0
MTEXT
  5
352
330
2E0
100
AcDbEntity
  8
Simboli(ISO)
 62
     7
100
AcDbMText
 10
34.0
 20
24.5
 30
0.0
 40
2.489199936389923
 41
61.00000000000001
 71
     1
 72
     1
  1
\fEuroRoman|b0|i0;\W1.75;\H2.4892;Accessories for fittings
  7
Corrente-ISO
 73
     1
 44
1.0
1001
ACAD
1000
MTEXTBEGIN
1070
    73
1070
     1
1070
    44
1040
1.0
1070
    74
1070
     0
1000
MTEXTEND
  0
MTEXT
  5
353
102
{ACAD_XDICTIONARY
360
16C5
102
}
330
2E0
100
AcDbEntity
  8
Simboli(ISO)
 62
     7
100
AcDbMText
 10
99.38145982981417
 20
35.34883259221208
 30
0.0
 40
2.006599903106689
 41
27.99999999999999
 71
     1
 72
     1
  1
\fArial|b0|i0;\H2.0066;Via Cassola , 64\P36027 Ros\U+00E0 (VI)\PITALY\PTel.0424/585111\PFax.0424/533417\Pwww.comunello.com
  7
Corrente-ISO
 73
     2
 44
0.9442214965820312
1001
ACAD
1000
MTEXTBEGIN
1070
    73
1070
     2
1070
    44
1040
0.9442214965820312
1070
    74
1070
     0
1000
MTEXTEND
  0
MTEXT
  5
354
330
2E0
100
AcDbEntity
  8
Simboli(ISO)
 62
     7
100
AcDbMText
 10
105.0
 20
12.1031239376365
 30
0.0
 40
2.006599903106689
 41
190.0
 71
     5
 72
     1
  1
\fArial Black|b1|i0;\W0.75;\H2.0066;La Fratelli Comunello S.p.A. si riserva a termini di legge la proprieta' del presente disegno con divieto di riprodurlo o comunicarlo a terzi senza sua autorizzazione
  7
Corrente-ISO
 73
     1
 44
1.0
1001
ACAD
1000
MTEXTBEGIN
1070
    73
1070
     1
1070
    44
1040
1.0
1070
    74
1070
     0
1000
MTEXTEND
  0
MTEXT
  5
355
330
2E0
100
AcDbEntity
  8
Simboli(ISO)
 62
    96
100
AcDbMText
 10
127.0
 20
21.49126132885024
 30
0.0
 40
2.489199936389923
 41
14.0
 71
     1
 72
     1
  1
\fArial|b0|i0;\H2.4892;Nr.Art.
  7
Corrente-ISO
 73
     1
 44
1.0
1001
ACAD
1000
MTEXTBEGIN
1070
    73
1070
     1
1070
    44
1040
1.0
1070
    74
1070
     0
1000
MTEXTEND
  0
MTEXT
  5
356
330
2E0
100
AcDbEntity
  8
Simboli(ISO)
 62
    96
100
AcDbMText
 10
160.1920425734282
 20
45.54306374702739
 30
0.0
 40
2.489199936389923
 41
13.99999999999998
 71
     1
 72
     1
  1
\fArial|b0|i0;\H2.4892;Data
  7
Corrente-ISO
 73
     1
 44
1.0
1001
ACAD
1000
MTEXTBEGIN
1070
    73
1070
     1
1070
    44
1040
1.0
1070
    74
1070
     0
1000
MTEXTEND
  0
MTEXT
  5
357
330
2E0
100
AcDbEntity
  8
Simboli(ISO)
 62
    96
100
AcDbMText
 10
160.145574392169
 20
37.49970139293061
 30
0.0
 40
2.489199936389923
 41
13.50000000000001
 71
     1
 72
     1
  1
\fArial|b0|i0;\H2.4892;Data
  7
Corrente-ISO
 73
     1
 44
1.0
1001
ACAD
1000
MTEXTBEGIN
1070
    73
1070
     1
1070
    44
1040
1.0
1070
    74
1070
     0
1000
MTEXTEND
  0
MTEXT
  5
358
330
2E0
100
AcDbEntity
  8
Simboli(ISO)
 62
    96
100
AcDbMText
 10
160.1269413643238
 20
29.66759768010355
 30
0.0
 40
2.489199936389923
 41
11.99999999999999
 71
     1
 72
     1
  1
\fArial|b0|i0;\H2.4892;Data
  7
Corrente-ISO
 73
     1
 44
1.0
1001
ACAD
1000
MTEXTBEGIN
1070
    73
1070
     1
1070
    44
1040
1.0
1070
    74
1070
     0
1000
MTEXTEND
  0
MTEXT
  5
359
330
2E0
100
AcDbEntity
  8
Simboli(ISO)
 62
    96
100
AcDbMText
 10
188.433042920287
 20
44.22190362458245
 30
0.0
 40
2.489199936389923
 41
21.64389610290527
 71
     5
 72
     1
  1
\fArial|b0|i0;\H2.4892;Attrezzatura 1
  7
Corrente-ISO
 73
     1
 44
1.0
1001
ACAD
1000
MTEXTBEGIN
1070
    73
1070
     1
1070
    44
1040
1.0
1070
    74
1070
     0
1000
MTEXTEND
  0
MTEXT
  5
35A
330
2E0
100
AcDbEntity
  8
Simboli(ISO)
 62
    96
100
AcDbMText
 10
188.0837249836041
 20
36.34533462143185
 30
0.0
 40
2.489199936389923
 41
20.54728269577026
 71
     5
 72
     1
  1
\fArial|b0|i0;\W0.95;\H2.4892;Attrezzatura 2
  7
Corrente-ISO
 73
     1
 44
1.0
1001
ACAD
1000
MTEXTBEGIN
1070
    73
1070
     1
1070
    44
1040
1.0
1070
    74
1070
     0
1000
MTEXTEND
  0
MTEXT
  5
35B
330
2E0
100
AcDbEntity
  8
Simboli(ISO)
 62
    96
100
AcDbMText
 10
188.3141272195963
 20
28.3675383381331
 30
0.0
 40
2.489199936389923
 41
21.64389610290527
 71
     5
 72
     1
  1
\fArial|b0|i0;\H2.4892;Attrezzatura 3
  7
Corrente-ISO
 73
     1
 44
1.0
1001
ACAD
1000
MTEXTBEGIN
1070
    73
1070
     1
1070
    44
1040
1.0
1070
    74
1070
     0
1000
MTEXTEND
  0
MTEXT
  5
35C
330
2E0
100
AcDbEntity
  8
Simboli(ISO)
 62
     7
100
AcDbMText
 10
11.5
 20
50.09709167610179
 30
0.0
 40
2.489199936389923
 41
43.0
 71
     1
 72
     1
  1
\fArial|b0|i0;\H2.4892;UNI ISO 2768-m
  7
Corrente-ISO
 73
     1
 44
1.0
1001
ACAD
1000
MTEXTBEGIN
1070
    73
1070
     1
1070
    44
1040
1.0
1070
    74
1070
     0
1000
MTEXTEND
  0
MTEXT
  5
35D
330
2E0
100
AcDbEntity
  8
Simboli(ISO)
 62
     7
100
AcDbMText
 10
93.43312134410579
 20
31.15001179156206
 30
0.0
 40
1.49859994649887
 41
0.0
 71
     1
 72
     1
  1
\fArial|b0|i0;\H1.4986;R
  7
Corrente-ISO
 73
     1
 44
1.0
1001
ACAD
1000
MTEXTBEGIN
1070
    73
1070
     1
1070
    44
1040
1.0
1070
    74
1070
     0
1000
MTEXTEND
  0
ATTDEF
  5
35F
102
{ACAD_XDICTIONARY
360
1459
102
}
330
2E0
100
AcDbEntity
  8
Simboli(ISO)
 62
     7
100
AcDbText
 10
10.73856713404271
 20
64.45781237692007
 30
0.0
 40
2.006599903106689
  1
INCONTRO
  7
Stile testo6
100
AcDbAttributeDefinition
  3
Denominazione  1
  2
Denominazione__1_001
 70
     0
  0
ATTDEF
  5
360
102
{ACAD_XDICTIONARY
360
145C
102
}
330
2E0
100
AcDbEntity
  8
Simboli(ISO)
 62
     7
100
AcDbText
 10
11.0
 20
60.99340009689331
 30
0.0
 40
2.006599903106689
  1

  7
Stile testo6
 11
11.0
 21
63.0
 31
0.0
100
AcDbAttributeDefinition
  3
Denominazione 2
  2
Denominazione_2
 70
     0
 74
     3
  0
ATTDEF
  5
362
102
{ACAD_XDICTIONARY
360
145F
102
}
330
2E0
100
AcDbEntity
  8
Simboli(ISO)
 62
     7
100
AcDbText
 10
84.24656931645305
 20
61.74859557309954
 30
0.0
 40
3.50519984960556
  1
CGS-346-M
  7
Stile testo125
100
AcDbAttributeDefinition
  3
CODICE DISEGNO
  2
CODICE_DISEGNO_001
 70
     0
  0
ATTDEF
  5
364
102
{ACAD_XDICTIONARY
360
1462
102
}
330
2E0
100
AcDbEntity
  8
Simboli(ISO)
 62
     7
100
AcDbText
 10
144.75
 20
64.24302410113217
 30
0.0
 40
2.006599903106689
  1

  7
Stile testo6
 72
     1
 11
144.75
 21
65.24632405268551
 31
0.0
100
AcDbAttributeDefinition
  3
Materiale 1
  2
Materiale_1
 70
     0
 74
     2
  0
ATTDEF
  5
365
102
{ACAD_XDICTIONARY
360
1465
102
}
330
2E0
100
AcDbEntity
  8
Simboli(ISO)
 62
     7
100
AcDbText
 10
144.809961390817
 20
60.49670004844665
 30
0.0
 40
2.006599903106689
  1

  7
Stile testo6
 72
     1
 11
144.809961390817
 21
61.5
 31
0.0
100
AcDbAttributeDefinition
  3
Materiale 2
  2
Materiale_2
 70
     0
 74
     2
  0
ATTDEF
  5
366
102
{ACAD_XDICTIONARY
360
1468
102
}
330
2E0
100
AcDbEntity
  8
Simboli(ISO)
 62
     7
100
AcDbText
 10
188.5
 20
62.49670004844666
 30
0.0
 40
2.006599903106689
  1

  7
Stile testo6
 72
     1
 11
188.5
 21
63.5
 31
0.0
100
AcDbAttributeDefinition
  3
CODICE MATERIALE
  2
CODICE_MATERIALE
 70
     0
 74
     2
  0
ATTDEF
  5
367
102
{ACAD_XDICTIONARY
360
146B
102
}
330
2E0
100
AcDbEntity
  8
Simboli(ISO)
 62
     7
100
AcDbText
 10
93.54666976195446
 20
47.26359145536448
 30
0.0
 40
2.489199936389923
  1
1.05
  7
Stile testo15
100
AcDbAttributeDefinition
  3
PESO UNITARIO KG
  2
PESO_UNITARIO_KG_001
 70
     0
  0
ATTDEF
  5
368
102
{ACAD_XDICTIONARY
360
146E
102
}
330
2E0
100
AcDbEntity
  8
Simboli(ISO)
 62
     7
100
AcDbText
 10
132.5077790073107
 20
50.94924388835789
 30
0.0
 40
2.489199936389923
  1
001 ZINCATURA GRIGIA
  7
Stile testo15
100
AcDbAttributeDefinition
  3
TRATTAMENTO 1
  2
TRATTAMENTO_1_001
 70
     0
  0
ATTDEF
  5
369
102
{ACAD_XDICTIONARY
360
1471
102
}
330
2E0
100
AcDbEntity
  8
Simboli(ISO)
 62
     7
100
AcDbText
 10
113.0632687693352
 20
47.49849971798101
 30
0.0
 40
2.489199936389923
  1

  7
Stile testo15
 11
113.0632687693352
 21
49.98769965437094
 31
0.0
100
AcDbAttributeDefinition
  3
TRATTAMENTO 2
  2
TRATTAMENTO_2
 70
     0
 74
     3
  0
ATTDEF
  5
36A
102
{ACAD_XDICTIONARY
360
1474
102
}
330
2E0
100
AcDbEntity
  8
Simboli(ISO)
 62
     7
100
AcDbText
 10
188.5523258958931
 20
47.38184462506182
 30
0.0
 40
2.489199936389923
  1

  7
Stile testo15
 72
     1
 11
188.5523258958931
 21
48.62644459325678
 31
0.0
100
AcDbAttributeDefinition
  3
COEFFICIENTE D'IMPEGO
  2
COEFFICIENTE_D'IMPEGO
 70
     0
 74
     2
  0
ATTDEF
  5
36B
102
{ACAD_XDICTIONARY
360
1477
102
}
330
2E0
100
AcDbEntity
  8
Simboli(ISO)
 62
     7
100
AcDbText
 10
93.99672095625986
 20
39.75115514787532
 30
0.0
 40
2.489199936389923
  1
1 : 1
  7
Stile testo15
100
AcDbAttributeDefinition
  3
SCALA
  2
SCALA_001
 70
     0
  0
ATTDEF
  5
36C
102
{ACAD_XDICTIONARY
360
147A
102
}
330
2E0
100
AcDbEntity
  8
Simboli(ISO)
 62
     7
100
AcDbText
 10
117.1499420964082
 20
39.17532174801521
 30
0.0
 40
2.489199936389923
  1
A3
  7
Stile testo15
100
AcDbAttributeDefinition
  3
FOGLIO
  2
FOGLIO_001
 70
     0
  0
ATTDEF
  5
36D
102
{ACAD_XDICTIONARY
360
147D
102
}
330
2E0
100
AcDbEntity
  8
Simboli(ISO)
 62
     7
100
AcDbText
 10
127.2147437999226
 20
38.96665327074095
 30
0.0
 40
2.489199936389923
  1
FRIGHETTO M
  7
Stile testo15
100
AcDbAttributeDefinition
  3
DISEGNATO
  2
DISEGNATO_001
 70
     0
  0
ATTDEF
  5
36E
102
{ACAD_XDICTIONARY
360
1480
102
}
330
2E0
100
AcDbEntity
  8
Simboli(ISO)
 62
     7
100
AcDbText
 10
161.1924559784415
 20
39.271530590738
 30
0.0
 40
2.489199936389923
  1
10-01-02
  7
Stile testo15
100
AcDbAttributeDefinition
  3
DATA
  2
DATA_001
 70
     0
  0
ATTDEF
  5
36F
102
{ACAD_XDICTIONARY
360
1483
102
}
330
2E0
100
AcDbEntity
  8
Simboli(ISO)
 62
     7
100
AcDbText
 10
161.1924559784415
 20
31.52153059073799
 30
0.0
 40
2.489199936389923
  1
10-01-02
  7
Stile testo15
100
AcDbAttributeDefinition
  3
DATA
  2
DATA_001
 70
     0
  0
ATTDEF
  5
370
102
{ACAD_XDICTIONARY
360
1486
102
}
330
2E0
100
AcDbEntity
  8
Simboli(ISO)
 62
     7
100
AcDbText
 10
161.1924559784415
 20
23.52153059073799
 30
0.0
 40
2.489199936389923
  1
10-01-02
  7
Stile testo15
100
AcDbAttributeDefinition
  3
DATA
  2
DATA_001
 70
     0
  0
ATTDEF
  5
371
102
{ACAD_XDICTIONARY
360
1489
102
}
330
2E0
100
AcDbEntity
  8
Simboli(ISO)
 62
     7
100
AcDbText
 10
137.8158294861797
 20
19.04984984195285
 30
0.0
 40
2.489199936389923
  1

  7
Stile testo15
 11
137.8158294861797
 21
21.53904977834278
 31
0.0
100
AcDbAttributeDefinition
  3
NUMERO ARTICOLO
  2
NUMERO_ARTICOLO
 70
     0
 74
     3
  0
ATTDEF
  5
372
102
{ACAD_XDICTIONARY
360
148C
102
}
330
2E0
100
AcDbEntity
  8
Simboli(ISO)
 62
     7
100
AcDbText
 10
127.1848152468796
 20
15.15058891438324
 30
0.0
 40
2.489199936389923
  1

  7
Stile testo15
 11
127.1848152468796
 21
17.63978885077316
 31
0.0
100
AcDbAttributeDefinition
  3
NUMERO ARTICOLO
  2
NUMERO_ARTICOLO
 70
     0
 74
     3
  0
ATTDEF
  5
373
102
{ACAD_XDICTIONARY
360
148F
102
}
330
2E0
100
AcDbEntity
  8
Simboli(ISO)
 62
     7
100
AcDbText
 10
188.5
 20
39.25540003180504
 30
0.0
 40
2.489199936389923
  1

  7
Stile testo15
 72
     1
 11
188.5
 21
40.5
 31
0.0
100
AcDbAttributeDefinition
  3
ATTREZZAT. 1
  2
ATTREZZAT._1
 70
     0
 74
     2
  0
ATTDEF
  5
374
102
{ACAD_XDICTIONARY
360
1492
102
}
330
2E0
100
AcDbEntity
  8
Simboli(ISO)
 62
     7
100
AcDbText
 10
188.5
 20
31.25540003180504
 30
0.0
 40
2.489199936389923
  1

  7
Stile testo15
 72
     1
 11
188.5
 21
32.5
 31
0.0
100
AcDbAttributeDefinition
  3
ATTREZZAT.2
  2
ATTREZZAT.2
 70
     0
 74
     2
  0
ATTDEF
  5
375
102
{ACAD_XDICTIONARY
360
1495
102
}
330
2E0
100
AcDbEntity
  8
Simboli(ISO)
 62
     7
100
AcDbText
 10
188.5
 20
23.25540003180504
 30
0.0
 40
2.489199936389923
  1

  7
Stile testo15
 72
     1
 11
188.5
 21
24.5
 31
0.0
100
AcDbAttributeDefinition
  3
ATTREZZAT.3
  2
ATTREZZAT.3
 70
     0
 74
     2
  0
ATTDEF
  5
376
102
{ACAD_XDICTIONARY
360
1498
102
}
330
2E0
100
AcDbEntity
  8
Simboli(ISO)
 62
     7
100
AcDbText
 10
22.0
 20
39.75540003180504
 30
0.0
 40
2.489199936389923
  1

  7
Stile testo15
 72
     1
 11
22.0
 21
41.0
 31
0.0
100
AcDbAttributeDefinition
  3
SOSTITUISCE IL
  2
SOSTITUISCE_IL
 70
     0
 74
     2
  0
ATTDEF
  5
377
102
{ACAD_XDICTIONARY
360
149B
102
}
330
2E0
100
AcDbEntity
  8
Simboli(ISO)
 62
     7
100
AcDbText
 10
46.5
 20
39.75540003180504
 30
0.0
 40
2.489199936389923
  1

  7
Stile testo15
 72
     1
 11
46.5
 21
41.0
 31
0.0
100
AcDbAttributeDefinition
  3
SOSTITUITO DAL
  2
SOSTITUITO_DAL
 70
     0
 74
     2
  0
ENDBLK
  5
2E2
330
2E0
100
AcDbEntity
  8
0
100
AcDbBlockEnd
  0
BLOCK
  5
439
330
438
100
AcDbEntity
  8
0
100
AcDbBlockBegin
  2
*D10
 70
     1
 10
0.0
 20
0.0
 30
0.0
  3
*D10
  1

  0
LINE
  5
504
330
438
100
AcDbEntity
  8
Quote(ISO)
  6
Continuous
 62
    96
370
    25
100
AcDbLine
 10
49.12568860711301
 20
256.6807743611237
 30
0.0
 11
29.12568860711307
 21
256.6807743611237
 31
0.0
  0
LINE
  5
505
330
438
100
AcDbEntity
  8
Quote(ISO)
  6
Continuous
 62
    96
370
    25
100
AcDbLine
 10
49.12568860711319
 20
165.6807743611237
 30
0.0
 11
29.12568860711305
 21
165.6807743611237
 31
0.0
  0
LINE
  5
506
330
438
100
AcDbEntity
  8
Quote(ISO)
  6
Continuous
 62
    96
370
    25
100
AcDbLine
 10
30.12568860711307
 20
254.1807743611236
 30
0.0
 11
30.12568860711306
 21
168.1807743611237
 31
0.0
  0
SOLID
  5
507
330
438
100
AcDbEntity
  8
Quote(ISO)
  6
Continuous
 62
    96
100
AcDbTrace
 10
29.7090219404464
 20
254.1807743611236
 30
0.0
 11
30.54235527377974
 21
254.1807743611236
 31
0.0
 12
30.12568860711307
 22
256.6807743611237
 32
0.0
 13
30.12568860711307
 23
256.6807743611237
 33
0.0
  0
SOLID
  5
508
330
438
100
AcDbEntity
  8
Quote(ISO)
  6
Continuous
 62
    96
100
AcDbTrace
 10
29.70902194044639
 20
168.1807743611237
 30
0.0
 11
30.54235527377973
 21
168.1807743611237
 31
0.0
 12
30.12568860711305
 22
165.6807743611237
 32
0.0
 13
30.12568860711305
 23
165.6807743611237
 33
0.0
  0
MTEXT
  5
509
330
438
100
AcDbEntity
  8
Quote(ISO)
  6
Continuous
 62
     7
370
    25
100
AcDbMText
 10
25.78967769306119
 20
209.0117770896366
 30
0.0
 40
3.5
 41
0.0
 71
     1
 72
     1
  1
\A1;91
  7
Corrente-ISO
 11
0.0000000000000001
 21
1.0
 31
0.0
 73
     1
 44
1.0
1001
ACAD
1000
MTEXTBEGIN
1070
    73
1070
     1
1070
    44
1040
1.0
1070
    74
1070
     0
1000
MTEXTEND
  0
POINT
  5
50A
330
438
100
AcDbEntity
  8
Defpoints
  6
Continuous
 62
     0
100
AcDbPoint
 10
50.12568860711301
 20
256.6807743611237
 30
0.0
  0
POINT
  5
50B
330
438
100
AcDbEntity
  8
Defpoints
  6
Continuous
 62
     0
100
AcDbPoint
 10
50.12568860711319
 20
165.6807743611237
 30
0.0
  0
POINT
  5
50C
330
438
100
AcDbEntity
  8
Defpoints
  6
Continuous
 62
     0
100
AcDbPoint
 10
30.12568860711305
 20
165.6807743611237
 30
0.0
  0
ENDBLK
  5
43A
330
438
100
AcDbEntity
  8
0
100
AcDbBlockEnd
  0
BLOCK
  5
50F
330
50E
100
AcDbEntity
  8
0
100
AcDbBlockBegin
  2
*D11
 70
     1
 10
0.0
 20
0.0
 30
0.0
  3
*D11
  1

  0
LINE
  5
5DA
330
50E
100
AcDbEntity
  8
Quote(ISO)
  6
Continuous
 62
    96
370
    25
100
AcDbLine
 10
50.12568860711301
 20
257.6807743611237
 30
0.0
 11
50.12568860711297
 21
275.5203036581029
 31
0.0
  0
LINE
  5
5DB
330
50E
100
AcDbEntity
  8
Quote(ISO)
  6
Continuous
 62
    96
370
    25
100
AcDbLine
 10
154.1256886071188
 20
247.6807743611181
 30
0.0
 11
154.1256886071188
 21
275.520303658103
 31
0.0
  0
LINE
  5
5DC
330
50E
100
AcDbEntity
  8
Quote(ISO)
  6
Continuous
 62
    96
370
    25
100
AcDbLine
 10
52.62568860711297
 20
274.5203036581029
 30
0.0
 11
151.6256886071188
 21
274.5203036581031
 31
0.0
  0
SOLID
  5
5DD
330
50E
100
AcDbEntity
  8
Quote(ISO)
  6
Continuous
 62
    96
100
AcDbTrace
 10
52.62568860711297
 20
274.9369703247696
 30
0.0
 11
52.62568860711297
 21
274.1036369914362
 31
0.0
 12
50.12568860711297
 22
274.5203036581029
 32
0.0
 13
50.12568860711297
 23
274.5203036581029
 33
0.0
  0
SOLID
  5
5DE
330
50E
100
AcDbEntity
  8
Quote(ISO)
  6
Continuous
 62
    96
100
AcDbTrace
 10
151.6256886071188
 20
274.9369703247698
 30
0.0
 11
151.6256886071188
 21
274.1036369914364
 31
0.0
 12
154.1256886071188
 22
274.5203036581031
 32
0.0
 13
154.1256886071188
 23
274.5203036581031
 33
0.0
  0
MTEXT
  5
5DF
330
50E
100
AcDbEntity
  8
Quote(ISO)
  6
Continuous
 62
     7
370
    25
100
AcDbMText
 10
98.43111152662467
 20
278.8563145721548
 30
0.0
 40
3.5
 41
0.0
 71
     1
 72
     1
  1
\A1;104
  7
Corrente-ISO
 73
     1
 44
1.0
1001
ACAD
1000
MTEXTBEGIN
1070
    73
1070
     1
1070
    44
1040
1.0
1070
    74
1070
     0
1000
MTEXTEND
  0
POINT
  5
5E0
330
50E
100
AcDbEntity
  8
Defpoints
  6
Continuous
 62
     0
100
AcDbPoint
 10
50.12568860711301
 20
256.6807743611237
 30
0.0
  0
POINT
  5
5E1
330
50E
100
AcDbEntity
  8
Defpoints
  6
Continuous
 62
     0
100
AcDbPoint
 10
154.1256886071188
 20
246.6807743611182
 30
0.0
  0
POINT
  5
5E2
330
50E
100
AcDbEntity
  8
Defpoints
  6
Continuous
 62
     0
100
AcDbPoint
 10
154.1256886071188
 20
274.5203036581031
 30
0.0
  0
ENDBLK
  5
510
330
50E
100
AcDbEntity
  8
0
100
AcDbBlockEnd
  0
BLOCK
  5
5E5
330
5E4
100
AcDbEntity
  8
0
100
AcDbBlockBegin
  2
*D12
 70
     1
 10
0.0
 20
0.0
 30
0.0
  3
*D12
  1

  0
ARC
  5
715
330
5E4
100
AcDbEntity
  8
Quote(ISO)
  6
Continuous
 62
    96
370
    25
100
AcDbCircle
 10
128.1256886070216
 20
133.4975162525588
 30
0.0
 40
9.54929658551555
100
AcDbArc
 50
45.043170532096
 51
164.9568294679392
  0
SOLID
  5
716
330
5E4
100
AcDbEntity
  8
Quote(ISO)
  6
Continuous
 62
    96
100
AcDbTrace
 10
135.2034396755142
 20
140.5087495146101
 30
0.0
 11
134.542503056438
 21
140.0011992904859
 31
0.0
 12
136.3956220383486
 22
138.2721645453192
 32
0.0
 13
136.3956220383486
 23
138.2721645453192
 33
0.0
  0
SOLID
  5
717
330
5E4
100
AcDbEntity
  8
Quote(ISO)
  6
Continuous
 62
    96
100
AcDbTrace
 10
119.316722763491
 20
135.921463756852
 30
0.0
 11
118.4905597490174
 21
136.0305468351014
 31
0.0
 12
118.5763920215061
 22
133.497516252556
 32
0.0
 13
118.5763920215061
 23
133.497516252556
 33
0.0
  0
MTEXT
  5
718
102
{ACAD_XDICTIONARY
360
16C7
102
}
330
5E4
100
AcDbEntity
  8
Quote(ISO)
  6
Continuous
 62
     7
370
    25
100
AcDbMText
 10
120.0615346486602
 20
145.7118608237457
 30
0.0
 40
3.5
 41
0.0
 71
     1
 72
     1
  1
\A1;150\U+00B0
  7
Corrente-ISO
 11
0.9659258262889883
 21
0.258819045102819
 31
0.0
 73
     1
 44
1.0
1001
ACAD
1000
MTEXTBEGIN
1070
    73
1070
     1
1070
    44
1040
1.0
1070
    74
1070
     0
1000
MTEXTEND
  0
POINT
  5
719
330
5E4
100
AcDbEntity
  8
Defpoints
  6
Continuous
 62
     0
100
AcDbPoint
 10
128.1256886070216
 20
133.4975162525588
 30
0.0
  0
POINT
  5
71A
330
5E4
100
AcDbEntity
  8
Defpoints
  6
Continuous
 62
     0
100
AcDbPoint
 10
129.053891837297
 20
134.0334146374213
 30
0.0
  0
POINT
  5
71B
330
5E4
100
AcDbEntity
  8
Defpoints
  6
Continuous
 62
     0
100
AcDbPoint
 10
58.12568860702164
 20
133.4975162525379
 30
0.0
  0
POINT
  5
71C
330
5E4
100
AcDbEntity
  8
Defpoints
  6
Continuous
 62
     0
100
AcDbPoint
 10
129.7839065570945
 20
142.901737565788
 30
0.0
  0
ENDBLK
  5
5E6
330
5E4
100
AcDbEntity
  8
0
100
AcDbBlockEnd
  0
BLOCK
  5
71F
330
71E
100
AcDbEntity
  8
0
100
AcDbBlockBegin
  2
*D13
 70
     1
 10
0.0
 20
0.0
 30
0.0
  3
*D13
  1

  0
LINE
  5
824
330
71E
100
AcDbEntity
  8
Quote(ISO)
  6
Continuous
 62
    96
370
    25
100
AcDbLine
 10
152.4917140108953
 20
155.592099226531
 30
0.0
 11
172.3654902792462
 21
144.1179691481843
 31
0.0
  0
LINE
  5
825
330
71E
100
AcDbEntity
  8
Quote(ISO)
  6
Continuous
 62
    96
370
    25
100
AcDbLine
 10
153.9917140108953
 20
158.1901754378843
 30
0.0
 11
173.8654902792462
 21
146.7160453595376
 31
0.0
  0
LINE
  5
826
330
71E
100
AcDbEntity
  8
Quote(ISO)
  6
Continuous
 62
    96
370
    25
100
AcDbLine
 10
170.2494648754618
 20
142.4529056387232
 30
0.0
 11
168.9994648754618
 21
140.2878421292621
 31
0.0
  0
LINE
  5
827
330
71E
100
AcDbEntity
  8
Quote(ISO)
  6
Continuous
 62
    96
370
    25
100
AcDbLine
 10
174.2494648754618
 20
149.3811088689987
 30
0.0
 11
177.5140448638323
 21
155.035527274229
 31
0.0
  0
LINE
  5
828
330
71E
100
AcDbEntity
  8
Quote(ISO)
  6
Continuous
 62
    96
370
    25
100
AcDbLine
 10
171.4994648754618
 20
144.6179691481843
 30
0.0
 11
172.9994648754618
 21
147.2160453595376
 31
0.0
  0
SOLID
  5
829
330
71E
100
AcDbEntity
  8
Quote(ISO)
  6
Continuous
 62
    96
100
AcDbTrace
 10
169.8886209572183
 20
142.6612389720565
 30
0.0
 11
170.6103087937053
 21
142.2445723053898
 31
0.0
 12
171.4994648754618
 22
144.6179691481843
 32
0.0
 13
171.4994648754618
 23
144.6179691481843
 33
0.0
  0
SOLID
  5
82A
330
71E
100
AcDbEntity
  8
Quote(ISO)
  6
Continuous
 62
    96
100
AcDbTrace
 10
173.8886209572183
 20
149.589442202332
 30
0.0
 11
174.6103087937053
 21
149.1727755356653
 31
0.0
 12
172.9994648754618
 22
147.2160453595376
 32
0.0
 13
172.9994648754618
 23
147.2160453595376
 33
0.0
  0
MTEXT
  5
82B
330
71E
100
AcDbEntity
  8
Quote(ISO)
  6
Continuous
 62
     7
370
    25
100
AcDbMText
 10
172.2299062264474
 20
154.5599274058251
 30
0.0
 40
3.5
 41
0.0
 71
     1
 72
     1
  1
\A1;3
  7
Corrente-ISO
 11
0.4999999999999988
 21
0.8660254037844394
 31
0.0
 73
     1
 44
1.0
1001
ACAD
1000
MTEXTBEGIN
1070
    73
1070
     1
1070
    44
1040
1.0
1070
    74
1070
     0
1000
MTEXTEND
  0
POINT
  5
82C
330
71E
100
AcDbEntity
  8
Defpoints
  6
Continuous
 62
     0
100
AcDbPoint
 10
151.6256886071109
 20
156.092099226531
 30
0.0
  0
POINT
  5
82D
330
71E
100
AcDbEntity
  8
Defpoints
  6
Continuous
 62
     0
100
AcDbPoint
 10
153.1256886071109
 20
158.6901754378843
 30
0.0
  0
POINT
  5
82E
330
71E
100
AcDbEntity
  8
Defpoints
  6
Continuous
 62
     0
100
AcDbPoint
 10
172.9994648754618
 20
147.2160453595376
 30
0.0
  0
ENDBLK
  5
720
330
71E
100
AcDbEntity
  8
0
100
AcDbBlockEnd
  0
BLOCK
  5
831
330
830
100
AcDbEntity
  8
0
100
AcDbBlockBegin
  2
*D14
 70
     1
 10
0.0
 20
0.0
 30
0.0
  3
*D14
  1

  0
LINE
  5
8FC
330
830
100
AcDbEntity
  8
Quote(ISO)
  6
Continuous
 62
    96
370
    25
100
AcDbLine
 10
145.4654345692014
 20
50.99751625256377
 30
0.0
 11
170.1226259937899
 21
50.99751625256377
 31
0.0
  0
LINE
  5
8FD
330
830
100
AcDbEntity
  8
Quote(ISO)
  6
Continuous
 62
    96
370
    25
100
AcDbLine
 10
145.4654345691779
 20
129.9975162525636
 30
0.0
 11
170.1226259937899
 21
129.9975162525636
 31
0.0
  0
LINE
  5
8FE
330
830
100
AcDbEntity
  8
Quote(ISO)
  6
Continuous
 62
    96
370
    25
100
AcDbLine
 10
169.1226259937899
 20
53.49751625256377
 30
0.0
 11
169.1226259937899
 21
127.4975162525636
 31
0.0
  0
SOLID
  5
8FF
330
830
100
AcDbEntity
  8
Quote(ISO)
  6
Continuous
 62
    96
100
AcDbTrace
 10
168.7059593271232
 20
53.49751625256377
 30
0.0
 11
169.5392926604565
 21
53.49751625256377
 31
0.0
 12
169.1226259937899
 22
50.99751625256377
 32
0.0
 13
169.1226259937899
 23
50.99751625256377
 33
0.0
  0
SOLID
  5
900
330
830
100
AcDbEntity
  8
Quote(ISO)
  6
Continuous
 62
    96
100
AcDbTrace
 10
168.7059593271232
 20
127.4975162525636
 30
0.0
 11
169.5392926604565
 21
127.4975162525636
 31
0.0
 12
169.1226259937899
 22
129.9975162525636
 32
0.0
 13
169.1226259937899
 23
129.9975162525636
 33
0.0
  0
MTEXT
  5
901
330
830
100
AcDbEntity
  8
Quote(ISO)
  6
Continuous
 62
     7
370
    25
100
AcDbMText
 10
164.786615079738
 20
87.00143848995166
 30
0.0
 40
3.5
 41
0.0
 71
     1
 72
     1
  1
\A1;79
  7
Corrente-ISO
 11
0.0000000000000001
 21
1.0
 31
0.0
 73
     1
 44
1.0
1001
ACAD
1000
MTEXTBEGIN
1070
    73
1070
     1
1070
    44
1040
1.0
1070
    74
1070
     0
1000
MTEXTEND
  0
POINT
  5
902
330
830
100
AcDbEntity
  8
Defpoints
  6
Continuous
 62
     0
100
AcDbPoint
 10
144.4654345692014
 20
50.99751625256377
 30
0.0
  0
POINT
  5
903
330
830
100
AcDbEntity
  8
Defpoints
  6
Continuous
 62
     0
100
AcDbPoint
 10
144.4654345691779
 20
129.9975162525636
 30
0.0
  0
POINT
  5
904
330
830
100
AcDbEntity
  8
Defpoints
  6
Continuous
 62
     0
100
AcDbPoint
 10
169.1226259937899
 20
129.9975162525636
 30
0.0
  0
ENDBLK
  5
832
330
830
100
AcDbEntity
  8
0
100
AcDbBlockEnd
  0
BLOCK
  5
907
330
906
100
AcDbEntity
  8
0
100
AcDbBlockBegin
  2
*D15
 70
     1
 10
0.0
 20
0.0
 30
0.0
  3
*D15
  1

  0
LINE
  5
9DE
330
906
100
AcDbEntity
  8
Quote(ISO)
  6
Continuous
 62
    96
370
    25
100
AcDbLine
 10
280.6121559620461
 20
224.6807743611398
 30
0.0
 11
280.6121559620461
 21
270.1770160325743
 31
0.0
  0
LINE
  5
9DF
330
906
100
AcDbEntity
  8
Quote(ISO)
  6
Continuous
 62
    96
370
    25
100
AcDbLine
 10
318.6121559620461
 20
224.6807743611285
 30
0.0
 11
318.6121559620461
 21
270.1770160325743
 31
0.0
  0
LINE
  5
9E0
330
906
100
AcDbEntity
  8
Quote(ISO)
  6
Continuous
 62
    96
370
    25
100
AcDbLine
 10
283.1121559620461
 20
269.1770160325743
 30
0.0
 11
316.1121559620461
 21
269.1770160325743
 31
0.0
  0
SOLID
  5
9E1
330
906
100
AcDbEntity
  8
Quote(ISO)
  6
Continuous
 62
    96
100
AcDbTrace
 10
283.1121559620461
 20
269.593682699241
 30
0.0
 11
283.1121559620461
 21
268.7603493659076
 31
0.0
 12
280.6121559620461
 22
269.1770160325743
 32
0.0
 13
280.6121559620461
 23
269.1770160325743
 33
0.0
  0
SOLID
  5
9E2
330
906
100
AcDbEntity
  8
Quote(ISO)
  6
Continuous
 62
    96
100
AcDbTrace
 10
316.1121559620461
 20
269.593682699241
 30
0.0
 11
316.1121559620461
 21
268.7603493659076
 31
0.0
 12
318.6121559620461
 22
269.1770160325743
 32
0.0
 13
318.6121559620461
 23
269.1770160325743
 33
0.0
  0
MTEXT
  5
9E3
330
906
100
AcDbEntity
  8
Quote(ISO)
  6
Continuous
 62
     7
370
    25
100
AcDbMText
 10
297.1029472308046
 20
273.5154143954665
 30
0.0
 40
3.5
 41
0.0
 71
     1
 72
     1
  1
\A1;38
  7
Corrente-ISO
 73
     1
 44
1.0
1001
ACAD
1000
MTEXTBEGIN
1070
    73
1070
     1
1070
    44
1040
1.0
1070
    74
1070
     0
1000
MTEXTEND
  0
POINT
  5
9E4
330
906
100
AcDbEntity
  8
Defpoints
  6
Continuous
 62
     0
100
AcDbPoint
 10
280.6121559620461
 20
223.6807743611398
 30
0.0
  0
POINT
  5
9E5
330
906
100
AcDbEntity
  8
Defpoints
  6
Continuous
 62
     0
100
AcDbPoint
 10
318.6121559620461
 20
223.6807743611286
 30
0.0
  0
POINT
  5
9E6
330
906
100
AcDbEntity
  8
Defpoints
  6
Continuous
 62
     0
100
AcDbPoint
 10
318.6121559620461
 20
269.1770160325743
 30
0.0
  0
ENDBLK
  5
908
330
906
100
AcDbEntity
  8
0
100
AcDbBlockEnd
  0
BLOCK
  5
9E9
330
9E8
100
AcDbEntity
  8
0
100
AcDbBlockBegin
  2
*D16
 70
     1
 10
0.0
 20
0.0
 30
0.0
  3
*D16
  1

  0
LINE
  5
ACC
330
9E8
100
AcDbEntity
  8
Quote(ISO)
  6
Continuous
 62
    96
370
    25
100
AcDbLine
 10
323.1121559620397
 20
202.1807743611272
 30
0.0
 11
323.1121559620346
 21
184.7775580766905
 31
0.0
  0
LINE
  5
ACD
330
9E8
100
AcDbEntity
  8
Quote(ISO)
  6
Continuous
 62
    96
370
    25
100
AcDbLine
 10
314.1121559620397
 20
202.1807743611299
 30
0.0
 11
314.1121559620346
 21
184.7775580766931
 31
0.0
  0
LINE
  5
ACE
330
9E8
100
AcDbEntity
  8
Quote(ISO)
  6
Continuous
 62
    96
370
    25
100
AcDbLine
 10
316.6121559620349
 20
185.7775580766924
 30
0.0
 11
320.6121559620349
 21
185.7775580766912
 31
0.0
  0
LINE
  5
ACF
330
9E8
100
AcDbEntity
  8
Quote(ISO)
  6
Continuous
 62
    96
370
    25
100
AcDbLine
 10
323.1121559620349
 20
185.7775580766905
 30
0.0
 11
332.1460908364566
 21
185.7775580766878
 31
0.0
  0
SOLID
  5
AD0
330
9E8
100
AcDbEntity
  8
Quote(ISO)
  6
Continuous
 62
    96
100
AcDbTrace
 10
316.612155962035
 20
186.194224743359
 30
0.0
 11
316.6121559620348
 21
185.3608914100257
 31
0.0
 12
314.1121559620349
 22
185.7775580766931
 32
0.0
 13
314.1121559620349
 23
185.7775580766931
 33
0.0
  0
SOLID
  5
AD1
330
9E8
100
AcDbEntity
  8
Quote(ISO)
  6
Continuous
 62
    96
100
AcDbTrace
 10
320.612155962035
 20
186.1942247433579
 30
0.0
 11
320.6121559620348
 21
185.3608914100245
 31
0.0
 12
323.1121559620349
 22
185.7775580766905
 32
0.0
 13
323.1121559620349
 23
185.7775580766905
 33
0.0
  0
MTEXT
  5
AD2
330
9E8
100
AcDbEntity
  8
Quote(ISO)
  6
Continuous
 62
     7
370
    25
100
AcDbMText
 10
329.0825901543296
 20
190.1135689907405
 30
0.0
 40
3.5
 41
0.0
 71
     1
 72
     1
  1
\A1;9
  7
Corrente-ISO
 73
     1
 44
1.0
1001
ACAD
1000
MTEXTBEGIN
1070
    73
1070
     1
1070
    44
1040
1.0
1070
    74
1070
     0
1000
MTEXTEND
  0
POINT
  5
AD3
330
9E8
100
AcDbEntity
  8
Defpoints
  6
Continuous
 62
     0
100
AcDbPoint
 10
323.11215596204
 20
203.1807743611273
 30
0.0
  0
POINT
  5
AD4
330
9E8
100
AcDbEntity
  8
Defpoints
  6
Continuous
 62
     0
100
AcDbPoint
 10
314.11215596204
 20
203.1807743611299
 30
0.0
  0
POINT
  5
AD5
330
9E8
100
AcDbEntity
  8
Defpoints
  6
Continuous
 62
     0
100
AcDbPoint
 10
314.1121559620349
 20
185.7775580766931
 30
0.0
  0
ENDBLK
  5
9EA
330
9E8
100
AcDbEntity
  8
0
100
AcDbBlockEnd
  0
BLOCK
  5
ADC
330
ADB
100
AcDbEntity
  8
0
100
AcDbBlockBegin
  2
*D17
 70
     1
 10
0.0
 20
0.0
 30
0.0
  3
*D17
  1

  0
LINE
  5
BB9
330
ADB
100
AcDbEntity
  8
Quote(ISO)
  6
Continuous
 62
    96
370
    25
100
AcDbLine
 10
47.87568860702916
 20
108.4975162525352
 30
0.0
 11
35.60598595225908
 21
108.4975162525352
 31
0.0
  0
LINE
  5
BBA
330
ADB
100
AcDbEntity
  8
Quote(ISO)
  6
Continuous
 62
    96
370
    25
100
AcDbLine
 10
47.87568860704047
 20
70.49751625253522
 30
0.0
 11
35.60598595225907
 21
70.49751625253522
 31
0.0
  0
LINE
  5
BBB
330
ADB
100
AcDbEntity
  8
Quote(ISO)
  6
Continuous
 62
    96
370
    25
100
AcDbLine
 10
36.60598595225908
 20
105.9975162525352
 30
0.0
 11
36.60598595225907
 21
72.99751625253522
 31
0.0
  0
SOLID
  5
BBC
330
ADB
100
AcDbEntity
  8
Quote(ISO)
  6
Continuous
 62
    96
100
AcDbTrace
 10
36.18931928559241
 20
105.9975162525352
 30
0.0
 11
37.02265261892574
 21
105.9975162525352
 31
0.0
 12
36.60598595225908
 22
108.4975162525352
 32
0.0
 13
36.60598595225908
 23
108.4975162525352
 33
0.0
  0
SOLID
  5
BBD
330
ADB
100
AcDbEntity
  8
Quote(ISO)
  6
Continuous
 62
    96
100
AcDbTrace
 10
36.1893192855924
 20
72.99751625253522
 30
0.0
 11
37.02265261892573
 21
72.99751625253522
 31
0.0
 12
36.60598595225907
 22
70.49751625253522
 32
0.0
 13
36.60598595225907
 23
70.49751625253522
 33
0.0
  0
MTEXT
  5
BBE
330
ADB
100
AcDbEntity
  8
Quote(ISO)
  6
Continuous
 62
     7
370
    25
100
AcDbMText
 10
32.26758758936684
 20
86.98830752129376
 30
0.0
 40
3.5
 41
0.0
 71
     1
 72
     1
  1
\A1;38
  7
Corrente-ISO
 11
0.0000000000000001
 21
1.0
 31
0.0
 73
     1
 44
1.0
1001
ACAD
1000
MTEXTBEGIN
1070
    73
1070
     1
1070
    44
1040
1.0
1070
    74
1070
     0
1000
MTEXTEND
  0
POINT
  5
BBF
330
ADB
100
AcDbEntity
  8
Defpoints
  6
Continuous
 62
     0
100
AcDbPoint
 10
48.87568860702916
 20
108.4975162525352
 30
0.0
  0
POINT
  5
BC0
330
ADB
100
AcDbEntity
  8
Defpoints
  6
Continuous
 62
     0
100
AcDbPoint
 10
48.87568860704047
 20
70.49751625253522
 30
0.0
  0
POINT
  5
BC1
330
ADB
100
AcDbEntity
  8
Defpoints
  6
Continuous
 62
     0
100
AcDbPoint
 10
36.60598595225907
 20
70.49751625253522
 30
0.0
  0
ENDBLK
  5
ADD
330
ADB
100
AcDbEntity
  8
0
100
AcDbBlockEnd
  0
BLOCK
  5
BC4
330
BC3
100
AcDbEntity
  8
0
100
AcDbBlockBegin
  2
*D18
 70
     1
 10
0.0
 20
0.0
 30
0.0
  3
*D18
  1

  0
LINE
  5
C8F
330
BC3
100
AcDbEntity
  8
Quote(ISO)
  6
Continuous
 62
    96
370
    25
100
AcDbLine
 10
57.12568860702164
 20
133.4975162525379
 30
0.0
 11
20.5096422459237
 21
133.4975162525379
 31
0.0
  0
LINE
  5
C90
330
BC3
100
AcDbEntity
  8
Quote(ISO)
  6
Continuous
 62
    96
370
    25
100
AcDbLine
 10
57.1256886070473
 20
47.49751625253797
 30
0.0
 11
20.50964224592368
 21
47.49751625253798
 31
0.0
  0
LINE
  5
C91
330
BC3
100
AcDbEntity
  8
Quote(ISO)
  6
Continuous
 62
    96
370
    25
100
AcDbLine
 10
21.5096422459237
 20
130.9975162525379
 30
0.0
 11
21.50964224592368
 21
49.99751625253798
 31
0.0
  0
SOLID
  5
C92
330
BC3
100
AcDbEntity
  8
Quote(ISO)
  6
Continuous
 62
    96
100
AcDbTrace
 10
21.09297557925703
 20
130.9975162525379
 30
0.0
 11
21.92630891259037
 21
130.9975162525379
 31
0.0
 12
21.5096422459237
 22
133.4975162525379
 32
0.0
 13
21.5096422459237
 23
133.4975162525379
 33
0.0
  0
SOLID
  5
C93
330
BC3
100
AcDbEntity
  8
Quote(ISO)
  6
Continuous
 62
    96
100
AcDbTrace
 10
21.09297557925701
 20
49.99751625253798
 30
0.0
 11
21.92630891259035
 21
49.99751625253798
 31
0.0
 12
21.50964224592368
 22
47.49751625253798
 32
0.0
 13
21.50964224592368
 23
47.49751625253798
 33
0.0
  0
MTEXT
  5
C94
330
BC3
100
AcDbEntity
  8
Quote(ISO)
  6
Continuous
 62
     7
370
    25
100
AcDbMText
 10
17.17363133187184
 20
87.98950124570579
 30
0.0
 40
3.5
 41
0.0
 71
     1
 72
     1
  1
\A1;86
  7
Corrente-ISO
 11
0.0000000000000001
 21
1.0
 31
0.0
 73
     1
 44
1.0
1001
ACAD
1000
MTEXTBEGIN
1070
    73
1070
     1
1070
    44
1040
1.0
1070
    74
1070
     0
1000
MTEXTEND
  0
POINT
  5
C95
330
BC3
100
AcDbEntity
  8
Defpoints
  6
Continuous
 62
     0
100
AcDbPoint
 10
58.12568860702164
 20
133.4975162525379
 30
0.0
  0
POINT
  5
C96
330
BC3
100
AcDbEntity
  8
Defpoints
  6
Continuous
 62
     0
100
AcDbPoint
 10
58.1256886070473
 20
47.49751625253797
 30
0.0
  0
POINT
  5
C97
330
BC3
100
AcDbEntity
  8
Defpoints
  6
Continuous
 62
     0
100
AcDbPoint
 10
21.50964224592368
 20
47.49751625253798
 30
0.0
  0
ENDBLK
  5
BC5
330
BC3
100
AcDbEntity
  8
0
100
AcDbBlockEnd
  0
BLOCK
  5
C9A
330
C99
100
AcDbEntity
  8
0
100
AcDbBlockBegin
  2
*D19
 70
     1
 10
0.0
 20
0.0
 30
0.0
  3
*D19
  1

  0
LINE
  5
D6B
330
C99
100
AcDbEntity
  8
Quote(ISO)
  6
Continuous
 62
    96
370
    25
100
AcDbLine
 10
241.4670743668859
 20
174.6807743611517
 30
0.0
 11
241.4670743668859
 21
118.6909886751555
 31
0.0
  0
LINE
  5
D6C
330
C99
100
AcDbEntity
  8
Quote(ISO)
  6
Continuous
 62
    96
370
    25
100
AcDbLine
 10
355.7572375571776
 20
174.6807743611179
 30
0.0
 11
355.7572375571776
 21
118.6909886751555
 31
0.0
  0
LINE
  5
D6D
330
C99
100
AcDbEntity
  8
Quote(ISO)
  6
Continuous
 62
    96
370
    25
100
AcDbLine
 10
243.9670743668859
 20
119.6909886751555
 30
0.0
 11
353.2572375571776
 21
119.6909886751555
 31
0.0
  0
SOLID
  5
D6E
330
C99
100
AcDbEntity
  8
Quote(ISO)
  6
Continuous
 62
    96
100
AcDbTrace
 10
243.9670743668859
 20
120.1076553418222
 30
0.0
 11
243.9670743668859
 21
119.2743220084888
 31
0.0
 12
241.4670743668859
 22
119.6909886751555
 32
0.0
 13
241.4670743668859
 23
119.6909886751555
 33
0.0
  0
SOLID
  5
D6F
330
C99
100
AcDbEntity
  8
Quote(ISO)
  6
Continuous
 62
    96
100
AcDbTrace
 10
353.2572375571776
 20
120.1076553418222
 30
0.0
 11
353.2572375571776
 21
119.2743220084888
 31
0.0
 12
355.7572375571776
 22
119.6909886751555
 32
0.0
 13
355.7572375571776
 23
119.6909886751555
 33
0.0
  0
MTEXT
  5
D70
330
C99
100
AcDbEntity
  8
Quote(ISO)
  6
Continuous
 62
     7
370
    25
100
AcDbMText
 10
291.2196268028637
 20
124.0269995892073
 30
0.0
 40
3.5
 41
0.0
 71
     1
 72
     1
  1
\A1;114.29
  7
Corrente-ISO
 73
     1
 44
1.0
1001
ACAD
1000
MTEXTBEGIN
1070
    73
1070
     1
1070
    44
1040
1.0
1070
    74
1070
     0
1000
MTEXTEND
  0
POINT
  5
D71
330
C99
100
AcDbEntity
  8
Defpoints
  6
Continuous
 62
     0
100
AcDbPoint
 10
241.4670743668859
 20
175.6807743611517
 30
0.0
  0
POINT
  5
D72
330
C99
100
AcDbEntity
  8
Defpoints
  6
Continuous
 62
     0
100
AcDbPoint
 10
355.7572375571776
 20
175.6807743611179
 30
0.0
  0
POINT
  5
D73
330
C99
100
AcDbEntity
  8
Defpoints
  6
Continuous
 62
     0
100
AcDbPoint
 10
355.7572375571776
 20
119.6909886751555
 30
0.0
  0
ENDBLK
  5
C9B
330
C99
100
AcDbEntity
  8
0
100
AcDbBlockEnd
  0
BLOCK
  5
D76
330
D75
100
AcDbEntity
  8
0
100
AcDbBlockBegin
  2
*D20
 70
     1
 10
0.0
 20
0.0
 30
0.0
  3
*D20
  1

  0
LINE
  5
E4D
330
D75
100
AcDbEntity
  8
Quote(ISO)
  6
Continuous
 62
    96
370
    25
100
AcDbLine
 10
268.1121559620261
 20
156.0920992265489
 30
0.0
 11
216.3173924991271
 21
156.0920992265489
 31
0.0
  0
LINE
  5
E4E
330
D75
100
AcDbEntity
  8
Quote(ISO)
  6
Continuous
 62
    96
370
    25
100
AcDbLine
 10
262.6121559620559
 20
256.6807743611449
 30
0.0
 11
216.3173924991271
 21
256.6807743611449
 31
0.0
  0
LINE
  5
E4F
330
D75
100
AcDbEntity
  8
Quote(ISO)
  6
Continuous
 62
    96
370
    25
100
AcDbLine
 10
217.3173924991271
 20
158.5920992265489
 30
0.0
 11
217.3173924991271
 21
254.1807743611449
 31
0.0
  0
SOLID
  5
E50
330
D75
100
AcDbEntity
  8
Quote(ISO)
  6
Continuous
 62
    96
100
AcDbTrace
 10
216.9007258324604
 20
158.5920992265489
 30
0.0
 11
217.7340591657937
 21
158.5920992265489
 31
0.0
 12
217.3173924991271
 22
156.0920992265489
 32
0.0
 13
217.3173924991271
 23
156.0920992265489
 33
0.0
  0
SOLID
  5
E51
330
D75
100
AcDbEntity
  8
Quote(ISO)
  6
Continuous
 62
    96
100
AcDbTrace
 10
216.9007258324604
 20
254.1807743611449
 30
0.0
 11
217.7340591657937
 21
254.1807743611449
 31
0.0
 12
217.3173924991271
 22
256.6807743611449
 32
0.0
 13
217.3173924991271
 23
256.6807743611449
 33
0.0
  0
MTEXT
  5
E52
330
D75
100
AcDbEntity
  8
Quote(ISO)
  6
Continuous
 62
     7
370
    25
100
AcDbMText
 10
212.9813815850752
 20
197.7785930874097
 30
0.0
 40
3.5
 41
0.0
 71
     1
 72
     1
  1
\A1;100.589
  7
Corrente-ISO
 11
0.0000000000000001
 21
1.0
 31
0.0
 73
     1
 44
1.0
1001
ACAD
1000
MTEXTBEGIN
1070
    73
1070
     1
1070
    44
1040
1.0
1070
    74
1070
     0
1000
MTEXTEND
  0
POINT
  5
E53
330
D75
100
AcDbEntity
  8
Defpoints
  6
Continuous
 62
     0
100
AcDbPoint
 10
269.1121559620261
 20
156.0920992265489
 30
0.0
  0
POINT
  5
E54
330
D75
100
AcDbEntity
  8
Defpoints
  6
Continuous
 62
     0
100
AcDbPoint
 10
263.6121559620558
 20
256.6807743611449
 30
0.0
  0
POINT
  5
E55
330
D75
100
AcDbEntity
  8
Defpoints
  6
Continuous
 62
     0
100
AcDbPoint
 10
217.3173924991271
 20
256.6807743611449
 30
0.0
  0
ENDBLK
  5
D77
330
D75
100
AcDbEntity
  8
0
100
AcDbBlockEnd
  0
BLOCK
  5
E58
330
E57
100
AcDbEntity
  8
0
100
AcDbBlockBegin
  2
*D21
 70
     1
 10
0.0
 20
0.0
 30
0.0
  3
*D21
  1

  0
LINE
  5
F23
330
E57
100
AcDbEntity
  8
Quote(ISO)
  6
Continuous
 62
    96
370
    25
100
AcDbLine
 10
127.7496669042923
 20
172.6807743611227
 30
0.0
 11
182.7666236066611
 21
172.6807743611227
 31
0.0
  0
LINE
  5
F24
330
E57
100
AcDbEntity
  8
Quote(ISO)
  6
Continuous
 62
    96
370
    25
100
AcDbLine
 10
128.0538918373909
 20
256.6807743611215
 30
0.0
 11
182.7666236066611
 21
256.6807743611215
 31
0.0
  0
LINE
  5
F25
330
E57
100
AcDbEntity
  8
Quote(ISO)
  6
Continuous
 62
    96
370
    25
100
AcDbLine
 10
181.7666236066611
 20
175.1807743611227
 30
0.0
 11
181.7666236066611
 21
254.1807743611215
 31
0.0
  0
SOLID
  5
F26
330
E57
100
AcDbEntity
  8
Quote(ISO)
  6
Continuous
 62
    96
100
AcDbTrace
 10
181.3499569399944
 20
175.1807743611227
 30
0.0
 11
182.1832902733278
 21
175.1807743611227
 31
0.0
 12
181.7666236066611
 22
172.6807743611227
 32
0.0
 13
181.7666236066611
 23
172.6807743611227
 33
0.0
  0
SOLID
  5
F27
330
E57
100
AcDbEntity
  8
Quote(ISO)
  6
Continuous
 62
    96
100
AcDbTrace
 10
181.3499569399945
 20
254.1807743611215
 30
0.0
 11
182.1832902733278
 21
254.1807743611215
 31
0.0
 12
181.7666236066611
 22
256.6807743611215
 32
0.0
 13
181.7666236066611
 23
256.6807743611215
 33
0.0
  0
MTEXT
  5
F28
330
E57
100
AcDbEntity
  8
Quote(ISO)
  6
Continuous
 62
     7
370
    25
100
AcDbMText
 10
177.4306126926092
 20
211.6787279764018
 30
0.0
 40
3.5
 41
0.0
 71
     1
 72
     1
  1
\A1;84
  7
Corrente-ISO
 11
0.0000000000000001
 21
1.0
 31
0.0
 73
     1
 44
1.0
1001
ACAD
1000
MTEXTBEGIN
1070
    73
1070
     1
1070
    44
1040
1.0
1070
    74
1070
     0
1000
MTEXTEND
  0
POINT
  5
F29
330
E57
100
AcDbEntity
  8
Defpoints
  6
Continuous
 62
     0
100
AcDbPoint
 10
126.7496669042923
 20
172.6807743611227
 30
0.0
  0
POINT
  5
F2A
330
E57
100
AcDbEntity
  8
Defpoints
  6
Continuous
 62
     0
100
AcDbPoint
 10
127.0538918373909
 20
256.6807743611215
 30
0.0
  0
POINT
  5
F2B
330
E57
100
AcDbEntity
  8
Defpoints
  6
Continuous
 62
     0
100
AcDbPoint
 10
181.7666236066611
 20
256.6807743611215
 30
0.0
  0
ENDBLK
  5
E59
330
E57
100
AcDbEntity
  8
0
100
AcDbBlockEnd
  0
BLOCK
  5
F2E
330
F2D
100
AcDbEntity
  8
0
100
AcDbBlockBegin
  2
*D22
 70
     1
 10
0.0
 20
0.0
 30
0.0
  3
*D22
  1

  0
LINE
  5
FF9
330
F2D
100
AcDbEntity
  8
Quote(ISO)
  6
Continuous
 62
    96
370
    25
100
AcDbLine
 10
53.12568860711332
 20
257.6807743611234
 30
0.0
 11
53.12568860711332
 21
265.0901412781751
 31
0.0
  0
LINE
  5
FFA
330
F2D
100
AcDbEntity
  8
Quote(ISO)
  6
Continuous
 62
    96
370
    25
100
AcDbLine
 10
154.1256886071188
 20
247.6807743611181
 30
0.0
 11
154.1256886071188
 21
265.0901412781751
 31
0.0
  0
LINE
  5
FFB
330
F2D
100
AcDbEntity
  8
Quote(ISO)
  6
Continuous
 62
    96
370
    25
100
AcDbLine
 10
55.62568860711332
 20
264.0901412781751
 30
0.0
 11
151.6256886071188
 21
264.0901412781751
 31
0.0
  0
SOLID
  5
FFC
330
F2D
100
AcDbEntity
  8
Quote(ISO)
  6
Continuous
 62
    96
100
AcDbTrace
 10
55.62568860711332
 20
264.5068079448418
 30
0.0
 11
55.62568860711332
 21
263.6734746115084
 31
0.0
 12
53.12568860711332
 22
264.0901412781751
 32
0.0
 13
53.12568860711332
 23
264.0901412781751
 33
0.0
  0
SOLID
  5
FFD
330
F2D
100
AcDbEntity
  8
Quote(ISO)
  6
Continuous
 62
    96
100
AcDbTrace
 10
151.6256886071188
 20
264.5068079448418
 30
0.0
 11
151.6256886071188
 21
263.6734746115084
 31
0.0
 12
154.1256886071188
 22
264.0901412781751
 32
0.0
 13
154.1256886071188
 23
264.0901412781751
 33
0.0
  0
MTEXT
  5
FFE
330
F2D
100
AcDbEntity
  8
Quote(ISO)
  6
Continuous
 62
     7
370
    25
100
AcDbMText
 10
99.76177319101791
 20
268.426152192227
 30
0.0
 40
3.5
 41
0.0
 71
     1
 72
     1
  1
\A1;101
  7
Corrente-ISO
 73
     1
 44
1.0
1001
ACAD
1000
MTEXTBEGIN
1070
    73
1070
     1
1070
    44
1040
1.0
1070
    74
1070
     0
1000
MTEXTEND
  0
POINT
  5
FFF
330
F2D
100
AcDbEntity
  8
Defpoints
  6
Continuous
 62
     0
100
AcDbPoint
 10
53.12568860711332
 20
256.6807743611235
 30
0.0
  0
POINT
  5
1000
330
F2D
100
AcDbEntity
  8
Defpoints
  6
Continuous
 62
     0
100
AcDbPoint
 10
154.1256886071188
 20
246.6807743611182
 30
0.0
  0
POINT
  5
1001
330
F2D
100
AcDbEntity
  8
Defpoints
  6
Continuous
 62
     0
100
AcDbPoint
 10
154.1256886071188
 20
264.0901412781751
 30
0.0
  0
ENDBLK
  5
F2F
330
F2D
100
AcDbEntity
  8
0
100
AcDbBlockEnd
  0
BLOCK
  5
100C
330
100B
100
AcDbEntity
  8
0
100
AcDbBlockBegin
  2
*D23
 70
     1
 10
0.0
 20
0.0
 30
0.0
  3
*D23
  1

  0
LINE
  5
10E9
330
100B
100
AcDbEntity
  8
Quote(ISO)
  6
Continuous
 62
    96
370
    25
100
AcDbLine
 10
272.6121559620401
 20
203.1807743611398
 30
0.0
 11
231.9685519290507
 21
203.1807743611398
 31
0.0
  0
LINE
  5
10EA
330
100B
100
AcDbEntity
  8
Quote(ISO)
  6
Continuous
 62
    96
370
    25
100
AcDbLine
 10
272.6121559620448
 20
219.1807743611398
 30
0.0
 11
231.9685519290507
 21
219.1807743611398
 31
0.0
  0
LINE
  5
10EB
330
100B
100
AcDbEntity
  8
Quote(ISO)
  6
Continuous
 62
    96
370
    25
100
AcDbLine
 10
232.9685519290507
 20
205.6807743611398
 30
0.0
 11
232.9685519290507
 21
216.6807743611398
 31
0.0
  0
SOLID
  5
10EC
330
100B
100
AcDbEntity
  8
Quote(ISO)
  6
Continuous
 62
    96
100
AcDbTrace
 10
232.5518852623841
 20
205.6807743611398
 30
0.0
 11
233.3852185957174
 21
205.6807743611398
 31
0.0
 12
232.9685519290507
 22
203.1807743611398
 32
0.0
 13
232.9685519290507
 23
203.1807743611398
 33
0.0
  0
SOLID
  5
10ED
330
100B
100
AcDbEntity
  8
Quote(ISO)
  6
Continuous
 62
    96
100
AcDbTrace
 10
232.5518852623841
 20
216.6807743611398
 30
0.0
 11
233.3852185957174
 21
216.6807743611398
 31
0.0
 12
232.9685519290507
 22
219.1807743611398
 32
0.0
 13
232.9685519290507
 23
219.1807743611398
 33
0.0
  0
MTEXT
  5
10EE
330
100B
100
AcDbEntity
  8
Quote(ISO)
  6
Continuous
 62
     7
370
    25
100
AcDbMText
 10
228.6325410149988
 20
208.8398807731453
 30
0.0
 40
3.5
 41
0.0
 71
     1
 72
     1
  1
\A1;16
  7
Corrente-ISO
 11
0.0000000000000001
 21
1.0
 31
0.0
 73
     1
 44
1.0
1001
ACAD
1000
MTEXTBEGIN
1070
    73
1070
     1
1070
    44
1040
1.0
1070
    74
1070
     0
1000
MTEXTEND
  0
POINT
  5
10EF
330
100B
100
AcDbEntity
  8
Defpoints
  6
Continuous
 62
     0
100
AcDbPoint
 10
273.61215596204
 20
203.1807743611398
 30
0.0
  0
POINT
  5
10F0
330
100B
100
AcDbEntity
  8
Defpoints
  6
Continuous
 62
     0
100
AcDbPoint
 10
273.6121559620448
 20
219.1807743611398
 30
0.0
  0
POINT
  5
10F1
330
100B
100
AcDbEntity
  8
Defpoints
  6
Continuous
 62
     0
100
AcDbPoint
 10
232.9685519290507
 20
219.1807743611398
 30
0.0
  0
ENDBLK
  5
100D
330
100B
100
AcDbEntity
  8
0
100
AcDbBlockEnd
  0
BLOCK
  5
10F4
330
10F3
100
AcDbEntity
  8
0
100
AcDbBlockBegin
  2
*D24
 70
     1
 10
0.0
 20
0.0
 30
0.0
  3
*D24
  1

  0
LINE
  5
118A
330
10F3
100
AcDbEntity
  8
Quote(ISO)
  6
Continuous
 62
    96
370
    25
100
AcDbLine
 10
304.6894844691337
 20
240.286225899718
 30
0.0
 11
292.7973940892157
 21
240.286225899718
 31
0.0
  0
LINE
  5
118B
330
10F3
100
AcDbEntity
  8
Quote(ISO)
  6
Continuous
 62
    96
370
    25
100
AcDbLine
 10
292.7973940892157
 20
240.286225899718
 30
0.0
 11
284.1121559620455
 21
225.2429521876301
 31
0.0
  0
MTEXT
  5
118C
330
10F3
100
AcDbEntity
  8
Quote(ISO)
  6
Continuous
 62
     7
370
    25
100
AcDbMText
 10
294.941530853854
 20
244.6079121207276
 30
0.0
 40
3.5
 41
0.0
 71
     1
 72
     1
  1
\A1;R4.5
  7
Corrente-ISO
 73
     1
 44
1.0
1001
ACAD
1000
MTEXTBEGIN
1070
    73
1070
     1
1070
    44
1040
1.0
1070
    74
1070
     0
1000
MTEXTEND
  0
LINE
  5
118D
330
10F3
100
AcDbEntity
  8
Quote(ISO)
  6
Continuous
 62
    96
370
    25
100
AcDbLine
 10
280.6121559620448
 20
219.1807743611397
 30
0.0
 11
282.8621559620452
 21
223.0778886781692
 31
0.0
  0
SOLID
  5
118E
330
10F3
100
AcDbEntity
  8
Quote(ISO)
  6
Continuous
 62
    96
100
AcDbTrace
 10
283.751312043802
 20
225.4512855209635
 30
0.0
 11
284.472999880289
 21
225.0346188542967
 31
0.0
 12
282.8621559620452
 22
223.0778886781692
 32
0.0
 13
282.8621559620452
 23
223.0778886781692
 33
0.0
  0
POINT
  5
118F
330
10F3
100
AcDbEntity
  8
Defpoints
  6
Continuous
 62
     0
100
AcDbPoint
 10
282.8621559620452
 20
223.0778886781692
 30
0.0
  0
POINT
  5
1190
330
10F3
100
AcDbEntity
  8
Defpoints
  6
Continuous
 62
     0
100
AcDbPoint
 10
280.6121559620448
 20
219.1807743611397
 30
0.0
  0
ENDBLK
  5
10F5
330
10F3
100
AcDbEntity
  8
0
100
AcDbBlockEnd
  0
BLOCK
  5
1193
330
1192
100
AcDbEntity
  8
0
100
AcDbBlockBegin
  2
*D25
 70
     1
 10
0.0
 20
0.0
 30
0.0
  3
*D25
  1

  0
LINE
  5
1270
330
1192
100
AcDbEntity
  8
Quote(ISO)
  6
Continuous
 62
    96
370
    25
100
AcDbLine
 10
272.6121559620401
 20
203.1807743611398
 30
0.0
 11
231.9685519290507
 21
203.1807743611398
 31
0.0
  0
LINE
  5
1271
330
1192
100
AcDbEntity
  8
Quote(ISO)
  6
Continuous
 62
    96
370
    25
100
AcDbLine
 10
245.467074366883
 20
165.6807743611503
 30
0.0
 11
231.9685519290507
 21
165.6807743611503
 31
0.0
  0
LINE
  5
1272
330
1192
100
AcDbEntity
  8
Quote(ISO)
  6
Continuous
 62
    96
370
    25
100
AcDbLine
 10
232.9685519290507
 20
200.6807743611398
 30
0.0
 11
232.9685519290507
 21
168.1807743611503
 31
0.0
  0
SOLID
  5
1273
330
1192
100
AcDbEntity
  8
Quote(ISO)
  6
Continuous
 62
    96
100
AcDbTrace
 10
232.5518852623841
 20
200.6807743611398
 30
0.0
 11
233.3852185957174
 21
200.6807743611398
 31
0.0
 12
232.9685519290507
 22
203.1807743611398
 32
0.0
 13
232.9685519290507
 23
203.1807743611398
 33
0.0
  0
SOLID
  5
1274
330
1192
100
AcDbEntity
  8
Quote(ISO)
  6
Continuous
 62
    96
100
AcDbTrace
 10
232.5518852623841
 20
168.1807743611503
 30
0.0
 11
233.3852185957173
 21
168.1807743611503
 31
0.0
 12
232.9685519290507
 22
165.6807743611503
 32
0.0
 13
232.9685519290507
 23
165.6807743611503
 33
0.0
  0
MTEXT
  5
1275
330
1192
100
AcDbEntity
  8
Quote(ISO)
  6
Continuous
 62
     7
370
    25
100
AcDbMText
 10
228.6301535661584
 20
179.8731345248557
 30
0.0
 40
3.5
 41
0.0
 71
     1
 72
     1
  1
\A1;37.5
  7
Corrente-ISO
 11
0.0000000000000001
 21
1.0
 31
0.0
 73
     1
 44
1.0
1001
ACAD
1000
MTEXTBEGIN
1070
    73
1070
     1
1070
    44
1040
1.0
1070
    74
1070
     0
1000
MTEXTEND
  0
POINT
  5
1276
330
1192
100
AcDbEntity
  8
Defpoints
  6
Continuous
 62
     0
100
AcDbPoint
 10
273.61215596204
 20
203.1807743611398
 30
0.0
  0
POINT
  5
1277
330
1192
100
AcDbEntity
  8
Defpoints
  6
Continuous
 62
     0
100
AcDbPoint
 10
246.467074366883
 20
165.6807743611503
 30
0.0
  0
POINT
  5
1278
330
1192
100
AcDbEntity
  8
Defpoints
  6
Continuous
 62
     0
100
AcDbPoint
 10
232.9685519290507
 20
165.6807743611503
 30
0.0
  0
ENDBLK
  5
1194
330
1192
100
AcDbEntity
  8
0
100
AcDbBlockEnd
  0
BLOCK
  5
127B
330
127A
100
AcDbEntity
  8
0
100
AcDbBlockBegin
  2
*D26
 70
     1
 10
0.0
 20
0.0
 30
0.0
  3
*D26
  1

  0
LINE
  5
1352
330
127A
100
AcDbEntity
  8
Quote(ISO)
  6
Continuous
 62
    96
370
    25
100
AcDbLine
 10
280.6121559620454
 20
221.4307743611398
 30
0.0
 11
280.6121559620597
 21
270.2053166570104
 31
0.0
  0
LINE
  5
1353
330
127A
100
AcDbEntity
  8
Quote(ISO)
  6
Continuous
 62
    96
370
    25
100
AcDbLine
 10
258.6121559620562
 20
257.6807743611464
 30
0.0
 11
258.6121559620598
 21
270.2053166570169
 31
0.0
  0
LINE
  5
1354
330
127A
100
AcDbEntity
  8
Quote(ISO)
  6
Continuous
 62
    96
370
    25
100
AcDbLine
 10
278.1121559620594
 20
269.2053166570111
 30
0.0
 11
261.1121559620595
 21
269.2053166570162
 31
0.0
  0
SOLID
  5
1355
330
127A
100
AcDbEntity
  8
Quote(ISO)
  6
Continuous
 62
    96
100
AcDbTrace
 10
278.1121559620595
 20
269.6219833236778
 30
0.0
 11
278.1121559620593
 21
268.7886499903445
 31
0.0
 12
280.6121559620594
 22
269.2053166570104
 32
0.0
 13
280.6121559620594
 23
269.2053166570104
 33
0.0
  0
SOLID
  5
1356
330
127A
100
AcDbEntity
  8
Quote(ISO)
  6
Continuous
 62
    96
100
AcDbTrace
 10
261.1121559620597
 20
269.6219833236829
 30
0.0
 11
261.1121559620595
 21
268.7886499903495
 31
0.0
 12
258.6121559620595
 22
269.2053166570169
 32
0.0
 13
258.6121559620595
 23
269.2053166570169
 33
0.0
  0
MTEXT
  5
1357
330
127A
100
AcDbEntity
  8
Quote(ISO)
  6
Continuous
 62
     7
370
    25
100
AcDbMText
 10
268.0933974354577
 20
273.4816413500565
 30
0.0
 40
3.5
 41
0.0
 71
     1
 72
     1
  1
\A1;22
  7
Corrente-ISO
 73
     1
 44
1.0
1001
ACAD
1000
MTEXTBEGIN
1070
    73
1070
     1
1070
    44
1040
1.0
1070
    74
1070
     0
1000
MTEXTEND
  0
POINT
  5
1358
330
127A
100
AcDbEntity
  8
Defpoints
  6
Continuous
 62
     0
100
AcDbPoint
 10
280.6121559620451
 20
220.4307743611398
 30
0.0
  0
POINT
  5
1359
330
127A
100
AcDbEntity
  8
Defpoints
  6
Continuous
 62
     0
100
AcDbPoint
 10
258.6121559620559
 20
256.6807743611463
 30
0.0
  0
POINT
  5
135A
330
127A
100
AcDbEntity
  8
Defpoints
  6
Continuous
 62
     0
100
AcDbPoint
 10
258.6121559620595
 20
269.2053166570169
 30
0.0
  0
ENDBLK
  5
127C
330
127A
100
AcDbEntity
  8
0
100
AcDbBlockEnd
  0
BLOCK
  5
135D
330
135C
100
AcDbEntity
  8
0
100
AcDbBlockBegin
  2
*D27
 70
     1
 10
0.0
 20
0.0
 30
0.0
  3
*D27
  1

  0
LINE
  5
1434
330
135C
100
AcDbEntity
  8
Quote(ISO)
  6
Continuous
 62
    96
370
    25
100
AcDbLine
 10
318.6121559620451
 20
221.4307743611286
 30
0.0
 11
318.6121559620451
 21
270.1770160325732
 31
0.0
  0
LINE
  5
1435
330
135C
100
AcDbEntity
  8
Quote(ISO)
  6
Continuous
 62
    96
370
    25
100
AcDbLine
 10
338.6121559620558
 20
257.6807743611226
 30
0.0
 11
338.6121559620558
 21
270.1770160325732
 31
0.0
  0
LINE
  5
1436
330
135C
100
AcDbEntity
  8
Quote(ISO)
  6
Continuous
 62
    96
370
    25
100
AcDbLine
 10
321.1121559620451
 20
269.1770160325732
 30
0.0
 11
336.1121559620558
 21
269.1770160325732
 31
0.0
  0
SOLID
  5
1437
330
135C
100
AcDbEntity
  8
Quote(ISO)
  6
Continuous
 62
    96
100
AcDbTrace
 10
321.1121559620451
 20
269.5936826992399
 30
0.0
 11
321.1121559620451
 21
268.7603493659065
 31
0.0
 12
318.6121559620451
 22
269.1770160325732
 32
0.0
 13
318.6121559620451
 23
269.1770160325732
 33
0.0
  0
SOLID
  5
1438
330
135C
100
AcDbEntity
  8
Quote(ISO)
  6
Continuous
 62
    96
100
AcDbTrace
 10
336.1121559620558
 20
269.5936826992399
 30
0.0
 11
336.1121559620558
 21
268.7603493659065
 31
0.0
 12
338.6121559620558
 22
269.1770160325732
 32
0.0
 13
338.6121559620558
 23
269.1770160325732
 33
0.0
  0
MTEXT
  5
1439
330
135C
100
AcDbEntity
  8
Quote(ISO)
  6
Continuous
 62
     7
370
    25
100
AcDbMText
 10
326.0814601912546
 20
273.5130269466251
 30
0.0
 40
3.5
 41
0.0
 71
     1
 72
     1
  1
\A1;20
  7
Corrente-ISO
 73
     1
 44
1.0
1001
ACAD
1000
MTEXTBEGIN
1070
    73
1070
     1
1070
    44
1040
1.0
1070
    74
1070
     0
1000
MTEXTEND
  0
POINT
  5
143A
330
135C
100
AcDbEntity
  8
Defpoints
  6
Continuous
 62
     0
100
AcDbPoint
 10
318.6121559620451
 20
220.4307743611286
 30
0.0
  0
POINT
  5
143B
330
135C
100
AcDbEntity
  8
Defpoints
  6
Continuous
 62
     0
100
AcDbPoint
 10
338.6121559620558
 20
256.6807743611227
 30
0.0
  0
POINT
  5
143C
330
135C
100
AcDbEntity
  8
Defpoints
  6
Continuous
 62
     0
100
AcDbPoint
 10
338.6121559620558
 20
269.1770160325732
 30
0.0
  0
ENDBLK
  5
135E
330
135C
100
AcDbEntity
  8
0
100
AcDbBlockEnd
  0
ENDSEC
  0
SECTION
  2
ENTITIES
  0
ELLIPSE
  5
392
330
77
100
AcDbEntity
  8
Spigoli nascosti(ISO)
 48
25.31908988952637
100
AcDbEllipse
 10
348.1591613458243
 20
175.6807743611202
 30
0.0
 11
-0.0000000000029195
 21
-10.0
 31
0.0
210
0.0
220
0.0
230
1.0
 40
0.5000000000000009
 41
0.0
 42
1.570796326794885
  0
ELLIPSE
  5
393
330
77
100
AcDbEntity
  8
Spigoli nascosti(ISO)
 48
25.31908988952637
100
AcDbEllipse
 10
348.1591613458454
 20
246.6807743611202
 30
0.0
 11
0.0000000000029859
 21
9.999999999999976
 31
0.0
210
0.0
220
0.0
230
1.0
 40
0.5000000000000009
 41
4.712388980384696
 42
6.283185307179589
  0
ELLIPSE
  5
394
330
77
100
AcDbEntity
  8
Spigoli nascosti(ISO)
 48
25.31908988952637
100
AcDbEllipse
 10
249.0651505782393
 20
175.6807743611495
 30
0.0
 11
-0.0000000000029296
 21
-10.0
 31
0.0
210
0.0
220
0.0
230
0.9999999999999998
 40
0.4999999999999989
 41
4.712388980384684
 42
6.283185307179596
  0
ELLIPSE
  5
395
330
77
100
AcDbEntity
  8
Spigoli nascosti(ISO)
 48
25.31908988952637
100
AcDbEllipse
 10
249.0651505782603
 20
246.6807743611495
 30
0.0
 11
0.0000000000029573
 21
10.0
 31
0.0
210
0.0
220
0.0
230
1.0
 40
0.4999999999999994
 41
0.0000000000000022
 42
1.570796326794895
  0
ELLIPSE
  5
396
330
77
100
AcDbEntity
  8
Spigoli visibili(ISO)
100
AcDbEllipse
 10
350.7572375571775
 20
175.6807743611194
 30
0.0
 11
-0.0000000000029414
 21
-10.00000000000001
 31
0.0
210
0.0
220
0.0
230
1.0
 40
0.5000000000000007
 41
0.0
 42
1.570796326794898
  0
ELLIPSE
  5
397
330
77
100
AcDbEntity
  8
Spigoli visibili(ISO)
100
AcDbEllipse
 10
246.4670743668859
 20
175.6807743611503
 30
0.0
 11
-0.0000000000029218
 21
-9.999999999999984
 31
0.0
210
0.0
220
0.0
230
1.0
 40
0.4999999999999994
 41
4.712388980384696
 42
6.283185307179614
  0
ELLIPSE
  5
398
330
77
100
AcDbEntity
  8
Spigoli visibili(ISO)
100
AcDbEllipse
 10
246.467074366907
 20
246.6807743611503
 30
0.0
 11
0.0000000000029738
 21
9.99999999999998
 31
0.0
210
0.0
220
0.0
230
1.0
 40
0.5000000000000005
 41
0.0
 42
1.570796326794896
  0
ELLIPSE
  5
399
330
77
100
AcDbEntity
  8
Spigoli visibili(ISO)
100
AcDbEllipse
 10
350.7572375571985
 20
246.6807743611194
 30
0.0
 11
0.000000000002985
 21
10.0
 31
0.0
210
0.0
220
0.0
230
0.9999999999999998
 40
0.5000000000000014
 41
4.712388980384682
 42
6.28318530717956
  0
LINE
  5
39A
330
77
100
AcDbEntity
  8
Spigoli nascosti(ISO)
 48
24.52334976196289
100
AcDbLine
 10
353.1591613458243
 20
175.6807743611187
 30
0.0
 11
353.1591613458452
 21
246.6807743611187
 31
0.0
  0
LINE
  5
39B
330
77
100
AcDbEntity
  8
Spigoli nascosti(ISO)
 48
24.52334976196289
100
AcDbLine
 10
244.0651505782392
 20
175.680774361151
 30
0.0
 11
244.0651505782603
 21
246.680774361151
 31
0.0
  0
LINE
  5
39C
330
77
100
AcDbEntity
  8
Spigoli visibili(ISO)
100
AcDbLine
 10
342.1480543468911
 20
165.6807743611219
 30
0.0
 11
350.7572375571746
 21
165.6807743611194
 31
0.0
  0
LINE
  5
39D
330
77
100
AcDbEntity
  8
Spigoli visibili(ISO)
100
AcDbLine
 10
263.6121559620289
 20
165.6807743611449
 30
0.0
 11
333.6121559620289
 21
165.6807743611241
 31
0.0
  0
LINE
  5
39E
330
77
100
AcDbEntity
  8
Spigoli visibili(ISO)
100
AcDbLine
 10
246.467074366883
 20
165.6807743611502
 30
0.0
 11
255.0762575771666
 21
165.6807743611476
 31
0.0
  0
LINE
  5
39F
330
77
100
AcDbEntity
  8
Spigoli visibili(ISO)
100
AcDbLine
 10
255.0762575771935
 20
256.6807743611477
 30
0.0
 11
246.4670743669099
 21
256.6807743611503
 31
0.0
  0
LINE
  5
3A0
330
77
100
AcDbEntity
  8
Spigoli visibili(ISO)
100
AcDbLine
 10
333.6121559620558
 20
256.6807743611241
 30
0.0
 11
263.6121559620558
 21
256.6807743611448
 31
0.0
  0
LINE
  5
3A1
330
77
100
AcDbEntity
  8
Spigoli visibili(ISO)
100
AcDbLine
 10
350.7572375572016
 20
256.6807743611194
 30
0.0
 11
342.148054346918
 21
256.6807743611219
 31
0.0
  0
LINE
  5
3A2
330
77
100
AcDbEntity
  8
Spigoli visibili(ISO)
100
AcDbLine
 10
241.4670743668859
 20
175.6807743611517
 30
0.0
 11
241.4670743669069
 21
246.6807743611517
 31
0.0
  0
LINE
  5
3A3
330
77
100
AcDbEntity
  8
Spigoli visibili(ISO)
100
AcDbLine
 10
355.7572375571775
 20
175.6807743611179
 30
0.0
 11
355.7572375571985
 21
246.6807743611179
 31
0.0
  0
LINE
  5
3A4
330
77
100
AcDbEntity
  8
Spigoli visibili(ISO)
100
AcDbLine
 10
341.6121559620288
 20
165.680774361122
 30
0.0
 11
342.1480543468911
 21
165.6807743611219
 31
0.0
  0
LINE
  5
3A5
330
77
100
AcDbEntity
  8
Spigoli visibili(ISO)
100
AcDbLine
 10
255.0762575771666
 20
165.6807743611476
 30
0.0
 11
255.6121559620288
 21
165.6807743611475
 31
0.0
  0
LINE
  5
3A6
330
77
100
AcDbEntity
  8
Spigoli visibili(ISO)
100
AcDbLine
 10
255.6121559620557
 20
256.6807743611475
 30
0.0
 11
255.0762575771935
 21
256.6807743611477
 31
0.0
  0
LINE
  5
3A7
330
77
100
AcDbEntity
  8
Spigoli visibili(ISO)
100
AcDbLine
 10
342.148054346918
 20
256.6807743611219
 30
0.0
 11
341.6121559620557
 21
256.680774361122
 31
0.0
  0
LINE
  5
3A8
330
77
100
AcDbEntity
  8
Spigoli nascosti(ISO)
 48
25.88462829589844
100
AcDbLine
 10
338.6121559620558
 20
256.6807743611227
 30
0.0
 11
338.6121559620289
 21
165.6807743611227
 31
0.0
  0
LINE
  5
3A9
330
77
100
AcDbEntity
  8
Spigoli nascosti(ISO)
 48
25.88462829589844
100
AcDbLine
 10
258.6121559620289
 20
165.6807743611463
 30
0.0
 11
258.6121559620558
 21
256.6807743611463
 31
0.0
  0
LINE
  5
3AA
330
77
100
AcDbEntity
  8
Spigoli visibili(ISO)
100
AcDbLine
 10
341.6121559620289
 20
165.6807743611218
 30
0.0
 11
333.6121559620289
 21
165.6807743611241
 31
0.0
  0
LINE
  5
3AB
330
77
100
AcDbEntity
  8
Spigoli visibili(ISO)
100
AcDbLine
 10
263.6121559620289
 20
165.6807743611449
 30
0.0
 11
255.6121559620289
 21
165.6807743611472
 31
0.0
  0
LINE
  5
3AC
330
77
100
AcDbEntity
  8
Spigoli visibili(ISO)
100
AcDbLine
 10
255.6121559620558
 20
256.6807743611473
 30
0.0
 11
263.6121559620558
 21
256.6807743611448
 31
0.0
  0
LINE
  5
3AD
330
77
100
AcDbEntity
  8
Spigoli visibili(ISO)
100
AcDbLine
 10
333.6121559620558
 20
256.6807743611241
 30
0.0
 11
341.6121559620558
 21
256.6807743611218
 31
0.0
  0
LINE
  5
3AE
330
77
100
AcDbEntity
  8
Spigoli visibili(ISO)
100
AcDbLine
 10
255.6121559620558
 20
256.6807743611472
 30
0.0
 11
255.6121559620289
 21
165.6807743611472
 31
0.0
  0
LINE
  5
3AF
330
77
100
AcDbEntity
  8
Spigoli visibili(ISO)
100
AcDbLine
 10
341.6121559620289
 20
165.6807743611218
 30
0.0
 11
341.6121559620558
 21
256.6807743611218
 31
0.0
  0
ARC
  5
3B0
330
77
100
AcDbEntity
  8
Spigoli visibili(ISO)
100
AcDbCircle
 10
280.6121559620448
 20
219.1807743611398
 30
0.0
 40
4.5
100
AcDbArc
 50
0.0
 51
180.0
  0
LINE
  5
3B1
330
77
100
AcDbEntity
  8
Spigoli visibili(ISO)
100
AcDbLine
 10
285.1121559620447
 20
219.1807743611385
 30
0.0
 11
285.11215596204
 21
203.1807743611385
 31
0.0
  0
ARC
  5
3B2
330
77
100
AcDbEntity
  8
Spigoli visibili(ISO)
100
AcDbCircle
 10
280.61215596204
 20
203.1807743611398
 30
0.0
 40
4.5
100
AcDbArc
 50
180.0
 51
0.0
  0
LINE
  5
3B3
330
77
100
AcDbEntity
  8
Spigoli visibili(ISO)
100
AcDbLine
 10
276.11215596204
 20
203.1807743611412
 30
0.0
 11
276.1121559620448
 21
219.1807743611411
 31
0.0
  0
ARC
  5
3B4
330
77
100
AcDbEntity
  8
Spigoli visibili(ISO)
100
AcDbCircle
 10
318.6121559620448
 20
219.1807743611286
 30
0.0
 40
4.5
100
AcDbArc
 50
0.0
 51
180.0
  0
LINE
  5
3B5
330
77
100
AcDbEntity
  8
Spigoli visibili(ISO)
100
AcDbLine
 10
323.1121559620448
 20
219.1807743611272
 30
0.0
 11
323.11215596204
 21
203.1807743611273
 31
0.0
  0
ARC
  5
3B6
330
77
100
AcDbEntity
  8
Spigoli visibili(ISO)
100
AcDbCircle
 10
318.61215596204
 20
203.1807743611286
 30
0.0
 40
4.5
100
AcDbArc
 50
180.0
 51
0.0
  0
LINE
  5
3B7
330
77
100
AcDbEntity
  8
Spigoli visibili(ISO)
100
AcDbLine
 10
314.11215596204
 20
203.1807743611299
 30
0.0
 11
314.1121559620448
 21
219.1807743611299
 31
0.0
  0
ELLIPSE
  5
3B8
330
77
100
AcDbEntity
  8
Spigoli visibili(ISO)
100
AcDbEllipse
 10
328.1121559620274
 20
161.0920992265315
 30
0.0
 11
9.999999999999978
 21
-0.0000000000029258
 31
0.0
210
0.0
220
0.0
230
1.0
 40
0.4999999999999932
 41
4.712388980384687
 42
6.283185307179597
  0
ELLIPSE
  5
3B9
330
77
100
AcDbEntity
  8
Spigoli visibili(ISO)
100
AcDbEllipse
 10
269.1121559620275
 20
161.0920992265489
 30
0.0
 11
-9.99999999999998
 21
0.0000000000029301
 31
0.0
210
0.0
220
0.0
230
0.9999999999999998
 40
0.499999999999993
 41
0.0
 42
1.57079632679489
  0
ELLIPSE
  5
3BA
330
77
100
AcDbEntity
  8
Spigoli nascosti(ISO)
 48
25.31908988952637
100
AcDbEllipse
 10
328.1121559620282
 20
163.6901754378848
 30
0.0
 11
9.99999999999998
 21
-0.0000000000029364
 31
0.0
210
0.0
220
0.0
230
1.0
 40
0.4999999999999927
 41
4.712388980384687
 42
6.283185307179591
  0
ELLIPSE
  5
3BB
330
77
100
AcDbEntity
  8
Spigoli nascosti(ISO)
 48
25.31908988952637
100
AcDbEllipse
 10
269.1121559620283
 20
163.6901754379021
 30
0.0
 11
-9.999999999999978
 21
0.0000000000029436
 31
0.0
210
0.0
220
0.0
230
1.0
 40
0.4999999999999929
 41
0.0000000000000273
 42
1.570796326794908
  0
LINE
  5
3BC
330
77
100
AcDbEntity
  8
Spigoli nascosti(ISO)
 48
5.711226940155029
100
AcDbLine
 10
338.11215596203
 20
169.680774361123
 30
0.0
 11
338.1121559620309
 21
172.680774361123
 31
0.0
  0
LINE
  5
3BD
330
77
100
AcDbEntity
  8
Spigoli nascosti(ISO)
 48
5.711226940155029
100
AcDbLine
 10
259.1121559620311
 20
172.6807743611462
 30
0.0
 11
259.1121559620301
 21
169.6807743611462
 31
0.0
  0
LINE
  5
3BE
330
77
100
AcDbEntity
  8
Spigoli nascosti(ISO)
 48
20.51567077636719
100
AcDbLine
 10
259.1121559620301
 20
169.6807743611462
 30
0.0
 11
265.1121559620301
 21
169.6807743611444
 31
0.0
  0
LINE
  5
3BF
330
77
100
AcDbEntity
  8
Spigoli nascosti(ISO)
 48
5.711226940155029
100
AcDbLine
 10
265.1121559620301
 20
169.6807743611444
 30
0.0
 11
265.1121559620311
 21
172.6807743611444
 31
0.0
  0
LINE
  5
3C0
330
77
100
AcDbEntity
  8
Spigoli nascosti(ISO)
 48
20.51567077636719
100
AcDbLine
 10
265.1121559620311
 20
172.6807743611444
 30
0.0
 11
259.1121559620311
 21
172.6807743611462
 31
0.0
  0
LINE
  5
3C1
330
77
100
AcDbEntity
  8
Spigoli nascosti(ISO)
 48
5.711226940155029
100
AcDbLine
 10
332.1121559620309
 20
172.6807743611247
 30
0.0
 11
332.11215596203
 21
169.6807743611248
 31
0.0
  0
LINE
  5
3C2
330
77
100
AcDbEntity
  8
Spigoli nascosti(ISO)
 48
13.46162605285644
100
AcDbLine
 10
333.11215596203
 20
169.6807743611245
 30
0.0
 11
338.11215596203
 21
169.680774361123
 31
0.0
  0
LINE
  5
3C3
330
77
100
AcDbEntity
  8
Spigoli nascosti(ISO)
 48
20.51567077636719
100
AcDbLine
 10
338.1121559620309
 20
172.680774361123
 30
0.0
 11
332.1121559620309
 21
172.6807743611247
 31
0.0
  0
LINE
  5
3C4
330
77
100
AcDbEntity
  8
Spigoli nascosti(ISO)
 48
3.987158298492431
100
AcDbLine
 10
338.1121559620297
 20
169.144875976261
 30
0.0
 11
338.11215596203
 21
169.6807743611232
 31
0.0
  0
LINE
  5
3C5
330
77
100
AcDbEntity
  8
Spigoli nascosti(ISO)
 48
3.987158298492431
100
AcDbLine
 10
259.1121559620301
 20
169.6807743611464
 30
0.0
 11
259.11215596203
 21
169.1448759762842
 31
0.0
  0
LINE
  5
3C6
330
77
100
AcDbEntity
  8
Spigoli visibili(ISO)
100
AcDbLine
 10
338.1121559620274
 20
161.0920992265286
 30
0.0
 11
338.1121559620287
 21
165.6807743611233
 31
0.0
  0
LINE
  5
3C7
330
77
100
AcDbEntity
  8
Spigoli visibili(ISO)
100
AcDbLine
 10
259.1121559620289
 20
165.6807743611465
 30
0.0
 11
259.1121559620276
 21
161.0920992265518
 31
0.0
  0
LINE
  5
3C8
330
77
100
AcDbEntity
  8
Spigoli visibili(ISO)
100
AcDbLine
 10
269.112155962026
 20
156.0920992265489
 30
0.0
 11
328.112155962026
 21
156.0920992265316
 31
0.0
  0
LINE
  5
3C9
330
77
100
AcDbEntity
  8
Spigoli nascosti(ISO)
 48
13.18964385986328
100
AcDbLine
 10
338.1121559620288
 20
165.6807743611233
 30
0.0
 11
338.1121559620297
 21
169.144875976261
 31
0.0
  0
LINE
  5
3CA
330
77
100
AcDbEntity
  8
Spigoli nascosti(ISO)
 48
25.93634605407715
100
AcDbLine
 10
269.1121559620268
 20
158.6901754379022
 30
0.0
 11
328.1121559620267
 21
158.6901754378849
 31
0.0
  0
LINE
  5
3CB
330
77
100
AcDbEntity
  8
Spigoli nascosti(ISO)
 48
13.18964385986328
100
AcDbLine
 10
259.1121559620299
 20
169.1448759762842
 30
0.0
 11
259.1121559620289
 21
165.6807743611465
 31
0.0
  0
LINE
  5
3CC
330
77
100
AcDbEntity
  8
Spigoli nascosti(ISO)
 48
24.9218864440918
100
AcDbLine
 10
265.1121559620301
 20
169.6807743611444
 30
0.0
 11
332.11215596203
 21
169.6807743611248
 31
0.0
  0
LINE
  5
3CD
330
77
100
AcDbEntity
  8
Spigoli nascosti(ISO)
 48
24.9218864440918
100
AcDbLine
 10
265.1121559620311
 20
172.6807743611444
 30
0.0
 11
332.1121559620309
 21
172.6807743611247
 31
0.0
  0
LINE
  5
3CE
330
77
100
AcDbEntity
  8
Spigoli nascosti(ISO)
 48
10.76928043365478
100
AcDbLine
 10
334.6121559620301
 20
169.6807743611241
 30
0.0
 11
338.6121559620289
 21
165.6807743611229
 31
0.0
  0
LINE
  5
3CF
330
77
100
AcDbEntity
  8
Spigoli nascosti(ISO)
 48
0.9517877697944641
100
AcDbLine
 10
338.6121559620301
 20
169.6807743611229
 30
0.0
 11
338.1121559620302
 21
169.680774361123
 31
0.0
  0
LINE
  5
3D0
330
77
100
AcDbEntity
  8
Spigoli nascosti(ISO)
 48
10.76928043365478
100
AcDbLine
 10
262.6121559620302
 20
169.6807743611452
 30
0.0
 11
258.612155962029
 21
165.6807743611464
 31
0.0
  0
LINE
  5
3D1
330
77
100
AcDbEntity
  8
Spigoli nascosti(ISO)
 48
0.9517877697944641
100
AcDbLine
 10
258.6121559620302
 20
169.6807743611463
 30
0.0
 11
259.1121559620301
 21
169.6807743611462
 31
0.0
  0
LINE
  5
3D2
330
77
100
AcDbEntity
  8
Spigoli nascosti(ISO)
 48
24.9218864440918
100
AcDbLine
 10
333.1121559620302
 20
169.6807743611245
 30
0.0
 11
266.1121559620302
 21
169.6807743611441
 31
0.0
  0
LINE
  5
3D3
330
77
100
AcDbEntity
  8
Spigoli nascosti(ISO)
 48
7.615002155303955
100
AcDbLine
 10
266.1121559620302
 20
169.6807743611441
 30
0.0
 11
266.1121559620291
 21
165.6807743611441
 31
0.0
  0
LINE
  5
3D4
330
77
100
AcDbEntity
  8
Spigoli nascosti(ISO)
 48
7.615002155303955
100
AcDbLine
 10
333.1121559620302
 20
169.6807743611245
 30
0.0
 11
333.112155962029
 21
165.6807743611245
 31
0.0
  0
ELLIPSE
  5
3D5
330
77
100
AcDbEntity
  8
Spigoli visibili(ISO)
100
AcDbEllipse
 10
145.465434569273
 20
175.6807743611196
 30
0.0
 11
0.0000000000000196
 21
-10.0
 31
0.0
210
0.0
220
0.0
230
1.0
 40
0.8660254037845863
 41
0.0000000000003897
 42
1.570796326794941
  0
ELLIPSE
  5
3D6
330
77
100
AcDbEntity
  8
Spigoli visibili(ISO)
100
AcDbEllipse
 10
143.9654345692738
 20
175.6807743611189
 30
0.0
 11
0.0000000000000002
 21
-10.00000000000001
 31
0.0
210
0.0
220
0.0
230
1.0
 40
0.8660254037845865
 41
0.0
 42
1.570796326794605
  0
LINE
  5
3D7
330
77
100
AcDbEntity
  8
Spigoli visibili(ISO)
100
AcDbLine
 10
143.9654345692739
 20
165.6807743611188
 30
0.0
 11
145.4654345692731
 21
165.6807743611196
 31
0.0
  0
ELLIPSE
  5
3D8
330
77
100
AcDbEntity
  8
Spigoli visibili(ISO)
100
AcDbEllipse
 10
145.465434569273
 20
246.6807743611196
 30
0.0
 11
-0.0000000000000157
 21
9.999999999999976
 31
0.0
210
0.0
220
0.0
230
1.0
 40
0.8660254037845865
 41
4.712388980384385
 42
6.28318530717964
  0
LINE
  5
3D9
330
77
100
AcDbEntity
  8
Spigoli visibili(ISO)
100
AcDbLine
 10
145.465434569273
 20
256.6807743611196
 30
0.0
 11
143.9654345692737
 21
256.6807743611189
 31
0.0
  0
ELLIPSE
  5
3DA
330
77
100
AcDbEntity
  8
Spigoli visibili(ISO)
100
AcDbEllipse
 10
143.9654345692737
 20
246.6807743611188
 30
0.0
 11
-0.0000000000000196
 21
10.0
 31
0.0
210
0.0
220
0.0
230
0.9999999999999998
 40
0.8660254037845863
 41
4.712388980384737
 42
6.283185307179984
  0
LINE
  5
3DB
330
77
100
AcDbEntity
  8
Spigoli visibili(ISO)
100
AcDbLine
 10
154.125688607119
 20
175.6807743611181
 30
0.0
 11
154.1256886071189
 21
246.6807743611182
 31
0.0
  0
LINE
  5
3DC
330
77
100
AcDbEntity
  8
Spigoli visibili(ISO)
100
AcDbLine
 10
129.0538918373912
 20
165.6807743611213
 30
0.0
 11
143.9654345692739
 21
165.6807743611188
 31
0.0
  0
LINE
  5
3DD
330
77
100
AcDbEntity
  8
Spigoli visibili(ISO)
100
AcDbLine
 10
58.12568860711559
 20
165.6807743611213
 30
0.0
 11
127.0538918373911
 21
165.6807743611215
 31
0.0
  0
LINE
  5
3DE
330
77
100
AcDbEntity
  8
Spigoli visibili(ISO)
100
AcDbLine
 10
127.0538918373909
 20
256.6807743611215
 30
0.0
 11
58.12568860711539
 21
256.6807743611213
 31
0.0
  0
LINE
  5
3DF
330
77
100
AcDbEntity
  8
Spigoli visibili(ISO)
100
AcDbLine
 10
143.9654345692737
 20
256.6807743611189
 30
0.0
 11
129.0538918373911
 21
256.6807743611213
 31
0.0
  0
LINE
  5
3E0
330
77
100
AcDbEntity
  8
Spigoli visibili(ISO)
100
AcDbLine
 10
152.6256886071197
 20
175.6807743611174
 30
0.0
 11
152.6256886071196
 21
246.6807743611174
 31
0.0
  0
LINE
  5
3E1
330
77
100
AcDbEntity
  8
Spigoli visibili(ISO)
100
AcDbLine
 10
127.0538918373911
 20
165.6807743611215
 30
0.0
 11
129.0538918373912
 21
165.6807743611213
 31
0.0
  0
LINE
  5
3E2
330
77
100
AcDbEntity
  8
Spigoli visibili(ISO)
100
AcDbLine
 10
129.053891837391
 20
256.6807743611213
 30
0.0
 11
127.0538918373909
 21
256.6807743611215
 31
0.0
  0
LINE
  5
3E3
330
77
100
AcDbEntity
  8
Spigoli nascosti(ISO)
 48
25.88462829589844
100
AcDbLine
 10
53.12568860711351
 20
165.6807743611234
 30
0.0
 11
53.12568860711332
 21
256.6807743611235
 31
0.0
  0
LINE
  5
3E4
330
77
100
AcDbEntity
  8
Spigoli visibili(ISO)
100
AcDbLine
 10
58.12568860711558
 20
165.6807743611213
 30
0.0
 11
50.1256886071132
 21
165.6807743611237
 31
0.0
  0
LINE
  5
3E5
330
77
100
AcDbEntity
  8
Spigoli visibili(ISO)
100
AcDbLine
 10
50.12568860711303
 20
256.6807743611237
 30
0.0
 11
58.1256886071154
 21
256.6807743611213
 31
0.0
  0
LINE
  5
3E6
330
77
100
AcDbEntity
  8
Spigoli visibili(ISO)
100
AcDbLine
 10
50.12568860711303
 20
256.6807743611237
 30
0.0
 11
50.12568860711319
 21
165.6807743611237
 31
0.0
  0
LINE
  5
3E7
330
77
100
AcDbEntity
  8
Spigoli nascosti(ISO)
 48
5.711226940155029
100
AcDbLine
 10
53.12568860710863
 20
223.6807743611282
 30
0.0
 11
50.12568860710863
 21
223.6807743611282
 31
0.0
  0
LINE
  5
3E8
330
77
100
AcDbEntity
  8
Spigoli nascosti(ISO)
 48
5.711226940155029
100
AcDbLine
 10
53.12568860710868
 20
198.6807743611281
 30
0.0
 11
50.12568860710867
 21
198.6807743611281
 31
0.0
  0
LINE
  5
3E9
330
77
100
AcDbEntity
  8
Spigoli visibili(ISO)
100
AcDbLine
 10
151.6256886071109
 20
156.0920992265311
 30
0.0
 11
142.9654345692695
 21
161.092099226528
 31
0.0
  0
LINE
  5
3EA
330
77
100
AcDbEntity
  8
Spigoli visibili(ISO)
100
AcDbLine
 10
151.6256886071109
 20
156.0920992265311
 30
0.0
 11
153.1256886071109
 21
158.6901754378843
 31
0.0
  0
LINE
  5
3EB
330
77
100
AcDbEntity
  8
Spigoli visibili(ISO)
100
AcDbLine
 10
144.4654345692695
 20
163.6901754378813
 30
0.0
 11
153.1256886071109
 21
158.6901754378843
 31
0.0
  0
LINE
  5
3EC
330
77
100
AcDbEntity
  8
Spigoli nascosti(ISO)
 48
28.66636085510254
100
AcDbLine
 10
130.7496669042923
 20
171.6089775913983
 30
0.0
 11
141.0176160967234
 21
165.6807743611228
 31
0.0
  0
LINE
  5
3ED
330
77
100
AcDbEntity
  8
Spigoli nascosti(ISO)
 48
25.15398597717285
100
AcDbLine
 10
59.12568860711447
 20
172.6807743611226
 30
0.0
 11
126.7496669042923
 21
172.6807743611227
 31
0.0
  0
LINE
  5
3EE
330
77
100
AcDbEntity
  8
Spigoli nascosti(ISO)
 48
1.697929739952087
100
AcDbLine
 10
127.0176160967234
 20
169.6807743611228
 30
0.0
 11
126.1256886071139
 21
169.6807743611228
 31
0.0
  0
LINE
  5
3EF
330
77
100
AcDbEntity
  8
Spigoli nascosti(ISO)
 48
13.18964385986328
100
AcDbLine
 10
135.0176160967235
 20
165.6807743611228
 30
0.0
 11
129.0176160967234
 21
169.1448759762605
 31
0.0
  0
LINE
  5
3F0
330
77
100
AcDbEntity
  8
Spigoli visibili(ISO)
100
AcDbLine
 10
141.0176160967234
 20
165.6807743611228
 30
0.0
 11
144.4654345692695
 21
163.6901754378813
 31
0.0
  0
LINE
  5
3F1
330
77
100
AcDbEntity
  8
Spigoli visibili(ISO)
100
AcDbLine
 10
142.9654345692695
 20
161.092099226528
 30
0.0
 11
135.0176160967234
 21
165.6807743611227
 31
0.0
  0
ARC
  5
3F2
330
77
100
AcDbEntity
  8
Spigoli nascosti(ISO)
 48
7.974416255950927
100
AcDbCircle
 10
126.7496669042923
 20
164.6807743611228
 30
0.0
 40
7.999999999999957
100
AcDbArc
 50
60.00000000000006
 51
90.0000000000001
  0
LINE
  5
3F3
330
77
100
AcDbEntity
  8
Spigoli nascosti(ISO)
 48
5.711226940155029
100
AcDbLine
 10
59.12568860711449
 20
169.6807743611225
 30
0.0
 11
59.12568860711449
 21
172.6807743611226
 31
0.0
  0
LINE
  5
3F4
330
77
100
AcDbEntity
  8
Spigoli nascosti(ISO)
 48
13.46162605285644
100
AcDbLine
 10
54.12568860711303
 20
169.680774361124
 30
0.0
 11
59.12568860711449
 21
169.6807743611225
 31
0.0
  0
LINE
  5
3F5
330
77
100
AcDbEntity
  8
Spigoli nascosti(ISO)
 48
20.51567077636719
100
AcDbLine
 10
59.12568860711447
 20
172.6807743611226
 30
0.0
 11
53.12568860711273
 21
172.6807743611243
 31
0.0
  0
ARC
  5
3F6
330
77
100
AcDbEntity
  8
Spigoli nascosti(ISO)
 48
3.987158298492431
100
AcDbCircle
 10
127.0176160967235
 20
165.6807743611229
 30
0.0
 40
3.999999999999896
100
AcDbArc
 50
59.99999999999988
 51
90.00000000000047
  0
LINE
  5
3F7
330
77
100
AcDbEntity
  8
Spigoli nascosti(ISO)
 48
7.615002155303955
100
AcDbLine
 10
126.1256886071145
 20
165.6807743611226
 30
0.0
 11
126.1256886071145
 21
169.6807743611226
 31
0.0
  0
LINE
  5
3F8
330
77
100
AcDbEntity
  8
Spigoli nascosti(ISO)
 48
24.9218864440918
100
AcDbLine
 10
59.12568860711463
 20
169.6807743611224
 30
0.0
 11
126.1256886071145
 21
169.6807743611226
 31
0.0
  0
LINE
  5
3F9
330
77
100
AcDbEntity
  8
Spigoli nascosti(ISO)
 48
7.615002155303955
100
AcDbLine
 10
59.12568860711464
 20
165.6807743611224
 30
0.0
 11
59.12568860711463
 21
169.6807743611224
 31
0.0
  0
LINE
  5
3FA
330
77
100
AcDbEntity
  8
Spigoli nascosti(ISO)
 48
10.76928043365478
100
AcDbLine
 10
59.78594264493654
 20
169.6807743611448
 30
0.0
 11
59.78594264493536
 21
165.680774361146
 31
0.0
  0
LINE
  5
3FB
330
77
100
AcDbEntity
  8
Spigoli nascosti(ISO)
 48
10.76928043365478
100
AcDbLine
 10
126.7859426449364
 20
169.680774361145
 30
0.0
 11
126.7859426449352
 21
165.6807743611462
 31
0.0
  0
LINE
  5
3FC
330
77
100
AcDbEntity
  8
Spigoli nascosti(ISO)
 48
10.76928043365478
100
AcDbLine
 10
53.12568860711302
 20
165.680774361124
 30
0.0
 11
57.12568860711302
 21
169.680774361124
 31
0.0
  0
LINE
  5
3FD
330
77
100
AcDbEntity
  8
Spigoli nascosti(ISO)
 48
1.903675556182861
100
AcDbLine
 10
54.12568860711309
 20
169.680774361124
 30
0.0
 11
53.12568860711301
 21
169.680774361124
 31
0.0
  0
LINE
  5
3FE
330
77
100
AcDbEntity
  8
Spigoli visibili(ISO)
100
AcDbLine
 10
130.7859426448911
 20
49.42571948283514
 30
0.0
 11
145.4654345692048
 21
40.9505108687715
 31
0.0
  0
LINE
  5
3FF
330
77
100
AcDbEntity
  8
Spigoli visibili(ISO)
100
AcDbLine
 10
145.4654345691753
 20
140.0445216363564
 30
0.0
 11
130.7859426448666
 21
131.5693130222841
 31
0.0
  0
LINE
  5
400
330
77
100
AcDbEntity
  8
Spigoli visibili(ISO)
100
AcDbLine
 10
129.053891837297
 20
134.0334146374213
 30
0.0
 11
143.9654345691745
 21
142.6425978477093
 31
0.0
  0
LINE
  5
401
330
77
100
AcDbEntity
  8
Spigoli visibili(ISO)
100
AcDbLine
 10
58.12568860702164
 20
133.4975162525379
 30
0.0
 11
127.0538918372971
 21
133.4975162525585
 31
0.0
  0
LINE
  5
402
330
77
100
AcDbEntity
  8
Spigoli visibili(ISO)
100
AcDbLine
 10
50.12568860704488
 20
55.49751625253559
 30
0.0
 11
50.12568860702402
 21
125.4975162525356
 31
0.0
  0
LINE
  5
403
330
77
100
AcDbEntity
  8
Spigoli visibili(ISO)
100
AcDbLine
 10
127.0538918373227
 20
47.49751625255853
 30
0.0
 11
58.12568860704725
 21
47.49751625253797
 31
0.0
  0
LINE
  5
404
330
77
100
AcDbEntity
  8
Spigoli visibili(ISO)
100
AcDbLine
 10
143.9654345692056
 20
38.35243465741775
 30
0.0
 11
129.0538918373229
 21
46.96161786769686
 31
0.0
  0
LINE
  5
405
330
77
100
AcDbEntity
  8
Spigoli visibili(ISO)
100
AcDbLine
 10
57.12568860704636
 20
50.49751625253769
 30
0.0
 11
126.7859426448907
 21
50.49751625255844
 31
0.0
  0
LINE
  5
406
330
77
100
AcDbEntity
  8
Spigoli visibili(ISO)
100
AcDbLine
 10
53.12568860702374
 20
126.4975162525364
 30
0.0
 11
53.12568860704518
 21
54.49751625253648
 31
0.0
  0
LINE
  5
407
330
77
100
AcDbEntity
  8
Spigoli visibili(ISO)
100
AcDbLine
 10
126.7859426448669
 20
130.4975162525584
 30
0.0
 11
57.12568860702255
 21
130.4975162525376
 31
0.0
  0
LINE
  5
408
330
77
100
AcDbEntity
  8
Spigoli visibili(ISO)
100
AcDbLine
 10
145.4654345692047
 20
40.95051086877141
 30
0.0
 11
154.1256886070506
 21
35.950510868774
 31
0.0
  0
LINE
  5
409
330
77
100
AcDbEntity
  8
Spigoli visibili(ISO)
100
AcDbLine
 10
154.1256886070182
 20
145.044521636359
 30
0.0
 11
145.4654345691753
 21
140.0445216363565
 31
0.0
  0
LINE
  5
40A
330
77
100
AcDbEntity
  8
Spigoli visibili(ISO)
100
AcDbLine
 10
154.1256886070182
 20
145.044521636359
 30
0.0
 11
152.6256886070174
 21
147.6425978477119
 31
0.0
  0
LINE
  5
40B
330
77
100
AcDbEntity
  8
Spigoli visibili(ISO)
100
AcDbLine
 10
143.9654345691746
 20
142.6425978477093
 30
0.0
 11
152.6256886070175
 21
147.6425978477119
 31
0.0
  0
LINE
  5
40C
330
77
100
AcDbEntity
  8
Spigoli visibili(ISO)
100
AcDbLine
 10
152.6256886070515
 20
33.35243465742034
 30
0.0
 11
143.9654345692056
 21
38.35243465741775
 31
0.0
  0
LINE
  5
40D
330
77
100
AcDbEntity
  8
Spigoli visibili(ISO)
100
AcDbLine
 10
152.6256886070515
 20
33.35243465742034
 30
0.0
 11
154.1256886070507
 21
35.95051086877411
 31
0.0
  0
ARC
  5
40E
330
77
100
AcDbEntity
  8
Spigoli visibili(ISO)
100
AcDbCircle
 10
127.0538918372959
 20
137.4975162525586
 30
0.0
 40
4.000000000000144
100
AcDbArc
 50
270.0000000000178
 51
300.0000000000166
  0
ARC
  5
40F
330
77
100
AcDbEntity
  8
Spigoli visibili(ISO)
100
AcDbCircle
 10
127.053891837324
 20
43.49751625255859
 30
0.0
 40
3.999999999999927
100
AcDbArc
 50
60.00000000001683
 51
90.0000000000173
  0
ARC
  5
410
330
77
100
AcDbEntity
  8
Spigoli visibili(ISO)
100
AcDbCircle
 10
57.12568860704518
 20
54.49751625253767
 30
0.0
 40
4.0
100
AcDbArc
 50
180.0
 51
270.0000000000171
  0
ARC
  5
411
330
77
100
AcDbEntity
  8
Spigoli visibili(ISO)
100
AcDbCircle
 10
57.12568860702376
 20
126.4975162525376
 30
0.0
 40
4.000000000000011
100
AcDbArc
 50
90.00000000001715
 51
180.0
  0
ARC
  5
412
330
77
100
AcDbEntity
  8
Spigoli visibili(ISO)
100
AcDbCircle
 10
58.12568860702402
 20
125.4975162525379
 30
0.0
 40
7.999999999999989
100
AcDbArc
 50
90.00000000001696
 51
180.0
  0
ARC
  5
413
330
77
100
AcDbEntity
  8
Spigoli visibili(ISO)
100
AcDbCircle
 10
58.12568860704487
 20
55.49751625253797
 30
0.0
 40
7.999999999999998
100
AcDbArc
 50
180.0
 51
270.000000000017
  0
ARC
  5
414
330
77
100
AcDbEntity
  8
Spigoli visibili(ISO)
100
AcDbCircle
 10
126.7859426448931
 20
42.49751625255838
 30
0.0
 40
8.000000000000058
100
AcDbArc
 50
60.00000000001723
 51
90.00000000001691
  0
ARC
  5
415
330
77
100
AcDbEntity
  8
Spigoli visibili(ISO)
100
AcDbCircle
 10
126.7859426448645
 20
138.4975162525583
 30
0.0
 40
7.999999999999866
100
AcDbArc
 50
270.0000000000171
 51
300.0000000000174
  0
LINE
  5
416
330
77
100
AcDbEntity
  8
Spigoli nascosti(ISO)
 48
5.711226940155029
100
AcDbLine
 10
53.12568860702784
 20
112.9975162525365
 30
0.0
 11
50.12568860702785
 21
112.9975162525356
 31
0.0
  0
LINE
  5
417
330
77
100
AcDbEntity
  8
Spigoli nascosti(ISO)
 48
5.711226940155029
100
AcDbLine
 10
53.12568860703052
 20
103.9975162525365
 30
0.0
 11
50.12568860703051
 21
103.9975162525356
 31
0.0
  0
LINE
  5
418
330
77
100
AcDbEntity
  8
Spigoli nascosti(ISO)
 48
5.711226940155029
100
AcDbLine
 10
53.12568860703915
 20
74.9975162525365
 30
0.0
 11
50.12568860703915
 21
74.9975162525356
 31
0.0
  0
LINE
  5
419
330
77
100
AcDbEntity
  8
Spigoli nascosti(ISO)
 48
5.711226940155029
100
AcDbLine
 10
53.12568860704184
 20
65.99751625253649
 30
0.0
 11
50.12568860704184
 21
65.9975162525356
 31
0.0
  0
ELLIPSE
  5
41A
330
77
100
AcDbEntity
  8
Spigoli nascosti(ISO)
 48
25.31908988952637
100
AcDbEllipse
 10
142.9654345691984
 20
60.99751625256331
 30
0.0
 11
0.000000000002953
 21
-9.999999999999978
 31
0.0
210
0.0
220
0.0
230
1.0
 40
0.8660254037844355
 41
0.0
 42
1.570796326794897
  0
ELLIPSE
  5
41B
330
77
100
AcDbEntity
  8
Spigoli nascosti(ISO)
 48
25.31908988952637
100
AcDbEllipse
 10
142.9654345691809
 20
119.9975162525632
 30
0.0
 11
-0.0000000000029696
 21
9.99999999999998
 31
0.0
210
0.0
220
0.0
230
0.9999999999999998
 40
0.8660254037844358
 41
4.712388980384689
 42
6.283185307179587
  0
ELLIPSE
  5
41C
330
77
100
AcDbEntity
  8
Spigoli visibili(ISO)
100
AcDbEllipse
 10
144.4654345691984
 20
60.99751625256375
 30
0.0
 11
0.0000000000029698
 21
-9.99999999999998
 31
0.0
210
0.0
220
0.0
230
1.0
 40
0.8660254037844358
 41
0.0
 42
1.570796326794896
  0
ELLIPSE
  5
41D
330
77
100
AcDbEntity
  8
Spigoli visibili(ISO)
100
AcDbEllipse
 10
144.4654345691809
 20
119.9975162525636
 30
0.0
 11
-0.0000000000029885
 21
9.999999999999978
 31
0.0
210
0.0
220
0.0
230
1.0
 40
0.8660254037844358
 41
4.712388980384686
 42
6.283185307179582
  0
LINE
  5
41E
330
77
100
AcDbEntity
  8
Spigoli visibili(ISO)
100
AcDbLine
 10
130.7496669042242
 20
50.99751625255969
 30
0.0
 11
144.4654345692014
 21
50.99751625256377
 31
0.0
  0
LINE
  5
41F
330
77
100
AcDbEntity
  8
Spigoli visibili(ISO)
100
AcDbLine
 10
59.12568860704635
 20
50.99751625253838
 30
0.0
 11
126.7496669042242
 21
50.99751625255851
 31
0.0
  0
LINE
  5
420
330
77
100
AcDbEntity
  8
Spigoli visibili(ISO)
100
AcDbLine
 10
153.1256886070252
 20
119.9975162525662
 30
0.0
 11
153.1256886070428
 21
60.99751625256633
 31
0.0
  0
LINE
  5
421
330
77
100
AcDbEntity
  8
Spigoli visibili(ISO)
100
AcDbLine
 10
144.4654345691779
 20
129.9975162525636
 30
0.0
 11
130.7496669042007
 21
129.9975162525595
 31
0.0
  0
LINE
  5
422
330
77
100
AcDbEntity
  8
Spigoli visibili(ISO)
100
AcDbLine
 10
126.7496669042007
 20
129.9975162525583
 30
0.0
 11
59.1256886070229
 21
129.9975162525382
 31
0.0
  0
LINE
  5
423
330
77
100
AcDbEntity
  8
Spigoli nascosti(ISO)
 48
25.93634605407715
100
AcDbLine
 10
151.6256886070252
 20
119.9975162525658
 30
0.0
 11
151.6256886070428
 21
60.99751625256589
 31
0.0
  0
LINE
  5
424
330
77
100
AcDbEntity
  8
Spigoli visibili(ISO)
100
AcDbLine
 10
130.7496669042242
 20
50.99751625255969
 30
0.0
 11
126.7496669042242
 21
50.9975162525585
 31
0.0
  0
LINE
  5
425
330
77
100
AcDbEntity
  8
Spigoli visibili(ISO)
100
AcDbLine
 10
126.7496669042007
 20
129.9975162525583
 30
0.0
 11
130.7496669042007
 21
129.9975162525595
 31
0.0
  0
LINE
  5
426
330
77
100
AcDbEntity
  8
Spigoli visibili(ISO)
100
AcDbLine
 10
53.12568860702471
 20
123.9975162525364
 30
0.0
 11
59.12568860702288
 21
129.9975162525382
 31
0.0
  0
LINE
  5
427
330
77
100
AcDbEntity
  8
Spigoli visibili(ISO)
100
AcDbLine
 10
59.12568860704635
 20
50.99751625253838
 30
0.0
 11
53.12568860704462
 21
56.99751625253657
 31
0.0
  0
LINE
  5
428
330
77
100
AcDbEntity
  8
Spigoli nascosti(ISO)
 48
24.9218864440918
100
AcDbLine
 10
59.12568860704531
 20
54.4975162525383
 30
0.0
 11
126.1256886070452
 21
54.49751625255827
 31
0.0
  0
LINE
  5
429
330
77
100
AcDbEntity
  8
Spigoli nascosti(ISO)
 48
6.663114547729492
100
AcDbLine
 10
126.1256886070462
 20
50.99751625255814
 30
0.0
 11
126.1256886070452
 21
54.49751625255827
 31
0.0
  0
LINE
  5
42A
330
77
100
AcDbEntity
  8
Spigoli nascosti(ISO)
 48
6.663114547729492
100
AcDbLine
 10
59.12568860704635
 20
50.99751625253822
 30
0.0
 11
59.12568860704531
 21
54.4975162525383
 31
0.0
  0
LINE
  5
42B
330
77
100
AcDbEntity
  8
Spigoli visibili(ISO)
100
AcDbLine
 10
126.1256886070464
 20
50.49751625255827
 30
0.0
 11
126.1256886070462
 21
50.99751625255814
 31
0.0
  0
LINE
  5
42C
330
77
100
AcDbEntity
  8
Spigoli visibili(ISO)
100
AcDbLine
 10
59.12568860704651
 20
50.4975162525383
 30
0.0
 11
59.12568860704635
 21
50.99751625253822
 31
0.0
  0
LINE
  5
42D
330
77
100
AcDbEntity
  8
Spigoli nascosti(ISO)
 48
24.9218864440918
100
AcDbLine
 10
126.7859426448683
 20
126.4975162525584
 30
0.0
 11
59.7859426448684
 21
126.4975162525384
 31
0.0
  0
LINE
  5
42E
330
77
100
AcDbEntity
  8
Spigoli nascosti(ISO)
 48
6.663114547729492
100
AcDbLine
 10
59.78594264486734
 20
129.9975162525384
 30
0.0
 11
59.78594264486837
 21
126.4975162525384
 31
0.0
  0
LINE
  5
42F
330
77
100
AcDbEntity
  8
Spigoli nascosti(ISO)
 48
6.663114547729492
100
AcDbLine
 10
126.7859426448672
 20
129.9975162525583
 30
0.0
 11
126.7859426448683
 21
126.4975162525584
 31
0.0
  0
LINE
  5
430
330
77
100
AcDbEntity
  8
Spigoli visibili(ISO)
100
AcDbLine
 10
59.78594264486719
 20
130.4975162525384
 30
0.0
 11
59.78594264486734
 21
129.9975162525384
 31
0.0
  0
LINE
  5
431
330
77
100
AcDbEntity
  8
Spigoli visibili(ISO)
100
AcDbLine
 10
126.7859426448671
 20
130.4975162525583
 30
0.0
 11
126.7859426448672
 21
129.9975162525583
 31
0.0
  0
LINE
  5
432
330
77
100
AcDbEntity
  8
Spigoli nascosti(ISO)
 48
24.9218864440918
100
AcDbLine
 10
57.12568860704489
 20
55.9975162525376
 30
0.0
 11
57.12568860702494
 21
122.9975162525375
 31
0.0
  0
LINE
  5
433
330
77
100
AcDbEntity
  8
Spigoli nascosti(ISO)
 48
7.615002155303955
100
AcDbLine
 10
57.12568860702494
 20
122.9975162525375
 30
0.0
 11
53.12568860702494
 21
122.9975162525363
 31
0.0
  0
LINE
  5
434
330
77
100
AcDbEntity
  8
Spigoli nascosti(ISO)
 48
5.711226940155029
100
AcDbLine
 10
57.12568860704489
 20
55.9975162525376
 30
0.0
 11
54.12568860704496
 21
55.99751625253671
 31
0.0
  0
LINE
  5
435
330
77
100
AcDbEntity
  8
Spigoli visibili(ISO)
100
AcDbLine
 10
54.12568860704496
 20
55.99751625253671
 30
0.0
 11
53.12568860704489
 21
55.99751625253642
 31
0.0
  0
DIMENSION
  5
436
330
77
100
AcDbEntity
  8
Quote(ISO)
  6
Continuous
 62
    96
370
    25
100
AcDbDimension
  2
*D10
 10
30.12568860711305
 20
165.6807743611237
 30
0.0
 11
30.12568860711303
 21
211.1807743611237
 31
0.0
 70
   160
  1
<>
 42
90.99999999999994
  3
MAURO
100
AcDbAlignedDimension
 13
50.12568860711301
 23
256.6807743611237
 33
0.0
 14
50.12568860711319
 24
165.6807743611237
 34
0.0
 50
90.0
100
AcDbRotatedDimension
1001
ACAD
1000
DSTYLE
1002
{
1070
   172
1070
     0
1070
   289
1070
     1
1070
    74
1070
     0
1070
   271
1070
     3
1070
   272
1070
     3
1070
    48
1040
0.0
1070
    47
1040
0.0
1002
}
  0
DIMENSION
  5
50D
330
77
100
AcDbEntity
  8
Quote(ISO)
  6
Continuous
 62
    96
370
    25
100
AcDbDimension
  2
*D11
 10
154.1256886071188
 20
274.5203036581031
 30
0.0
 11
102.1256886071158
 21
274.5203036581029
 31
0.0
 70
   160
  1
<>
 42
104.0000000000058
  3
MAURO
100
AcDbAlignedDimension
 13
50.12568860711301
 23
256.6807743611237
 33
0.0
 14
154.1256886071188
 24
246.6807743611182
 34
0.0
 50
180.0000000000001
100
AcDbRotatedDimension
1001
ACAD
1000
DSTYLE
1002
{
1070
   172
1070
     0
1070
   289
1070
     1
1070
    74
1070
     0
1070
   271
1070
     3
1070
   272
1070
     3
1070
    48
1040
0.0
1070
    47
1040
0.0
1002
}
  0
DIMENSION
  5
5E3
330
77
100
AcDbEntity
  8
Quote(ISO)
  6
Continuous
 62
    96
370
    25
100
AcDbDimension
  2
*D12
 10
129.7839065570945
 20
142.901737565788
 30
0.0
 11
125.6541487833549
 21
142.7214284474015
 31
0.0
 70
   165
  1
<>
 42
2.617993877991474
  3
MAURO
100
AcDb3PointAngularDimension
 13
129.053891837297
 23
134.0334146374213
 33
0.0
 14
58.12568860702164
 24
133.4975162525379
 34
0.0
 15
128.1256886070216
 25
133.4975162525588
 35
0.0
1001
ACAD_DSTYLE_DIMANGULAR_EXTENSION
1070
   387
1070
     1
1001
ACAD
1000
DSTYLE
1002
{
1070
   179
1070
     3
1070
    76
1070
     1
1070
    75
1070
     1
1070
    74
1070
     0
1070
   272
1070
     2
1070
    48
1040
0.0
1070
    47
1040
0.0
1002
}
  0
DIMENSION
  5
71D
330
77
100
AcDbEntity
  8
Quote(ISO)
  6
Continuous
 62
    96
370
    25
100
AcDbDimension
  2
*D13
 10
172.9994648754618
 20
147.2160453595376
 30
0.0
 11
176.5600571421406
 21
153.3831720704621
 31
0.0
 70
   160
  1
<>
 42
2.999999999999971
  3
MAURO
100
AcDbAlignedDimension
 13
151.6256886071109
 23
156.0920992265311
 33
0.0
 14
153.1256886071109
 24
158.6901754378843
 34
0.0
 50
240.0000000000001
100
AcDbRotatedDimension
1001
ACAD
1000
DSTYLE
1002
{
1070
   172
1070
     1
1070
   289
1070
     1
1070
    74
1070
     0
1070
   271
1070
     3
1070
   272
1070
     3
1070
    48
1040
0.0
1070
    47
1040
0.0
1002
}
  0
DIMENSION
  5
82F
330
77
100
AcDbEntity
  8
Quote(ISO)
  6
Continuous
 62
    96
370
    25
100
AcDbDimension
  2
*D14
 10
169.1226259937899
 20
129.9975162525636
 30
0.0
 11
169.1226259937899
 21
89.49751625257105
 31
0.0
 70
   160
  1
<>
 42
78.99999999999981
  3
MAURO
100
AcDbAlignedDimension
 13
144.4654345692014
 23
50.99751625256377
 33
0.0
 14
144.4654345691779
 24
129.9975162525636
 34
0.0
 50
270.0000000000171
100
AcDbRotatedDimension
1001
ACAD
1000
DSTYLE
1002
{
1070
   172
1070
     0
1070
   289
1070
     1
1070
    74
1070
     0
1070
   271
1070
     3
1070
   272
1070
     3
1070
    48
1040
0.0
1070
    47
1040
0.0
1002
}
  0
DIMENSION
  5
905
330
77
100
AcDbEntity
  8
Quote(ISO)
  6
Continuous
 62
    96
370
    25
100
AcDbDimension
  2
*D15
 10
318.6121559620461
 20
269.1770160325743
 30
0.0
 11
299.6121559620462
 21
269.1770160325743
 31
0.0
 70
   160
  1
<>
 42
38.0
  3
MAURO
100
AcDbAlignedDimension
 13
280.6121559620461
 23
223.6807743611398
 33
0.0
 14
318.6121559620461
 24
223.6807743611286
 34
0.0
 50
180.0
100
AcDbRotatedDimension
1001
ACAD
1000
DSTYLE
1002
{
1070
   172
1070
     0
1070
   289
1070
     1
1070
    74
1070
     0
1070
   271
1070
     3
1070
   272
1070
     3
1070
    48
1040
0.0
1070
    47
1040
0.0
1002
}
  0
DIMENSION
  5
9E7
330
77
100
AcDbEntity
  8
Quote(ISO)
  6
Continuous
 62
    96
370
    25
100
AcDbDimension
  2
*D16
 10
314.1121559620349
 20
185.7775580766931
 30
0.0
 11
330.2333404953925
 21
185.7775580766884
 31
0.0
 70
   160
  1
<>
 42
9.0
  3
MAURO
100
AcDbAlignedDimension
 13
323.11215596204
 23
203.1807743611273
 33
0.0
 14
314.11215596204
 24
203.1807743611299
 34
0.0
 50
179.9999999999832
100
AcDbRotatedDimension
1001
ACAD
1000
DSTYLE
1002
{
1070
   172
1070
     0
1070
   289
1070
     2
1070
    74
1070
     0
1070
   271
1070
     3
1070
   272
1070
     3
1070
    48
1040
0.0
1070
    47
1040
0.0
1002
}
  0
LINE
  5
AD6
330
77
100
AcDbEntity
  8
Linea del centro(ISO)
  6
CHAIN
 48
6.111540794372558
100
AcDbLine
 10
54.37568860702917
 20
108.4975162525368
 30
0.0
 11
48.87568860702916
 21
108.4975162525352
 31
0.0
  0
LINE
  5
AD7
330
77
100
AcDbEntity
  8
Linea del centro(ISO)
  6
CHAIN
 48
6.111540794372558
100
AcDbLine
 10
54.37568860704048
 20
70.49751625253687
 30
0.0
 11
48.87568860704047
 21
70.49751625253522
 31
0.0
  0
LINE
  5
AD8
330
77
100
AcDbEntity
  8
Linea del centro(ISO)
  6
CHAIN
 48
20.4628849029541
100
AcDbLine
 10
280.6121559620451
 20
220.4307743611398
 30
0.0
 11
280.6121559620397
 21
201.9307743611398
 31
0.0
  0
LINE
  5
AD9
330
77
100
AcDbEntity
  8
Linea del centro(ISO)
  6
CHAIN
 48
20.4628849029541
100
AcDbLine
 10
318.6121559620397
 20
201.9307743611286
 30
0.0
 11
318.6121559620451
 21
220.4307743611286
 31
0.0
  0
DIMENSION
  5
ADA
330
77
100
AcDbEntity
  8
Quote(ISO)
  6
Continuous
 62
    96
370
    25
100
AcDbDimension
  2
*D17
 10
36.60598595225907
 20
70.49751625253522
 30
0.0
 11
36.60598595225906
 21
89.49751625253524
 31
0.0
 70
   160
  1
<>
 42
38.00000000000002
  3
MAURO
100
AcDbAlignedDimension
 13
48.87568860702916
 23
108.4975162525352
 33
0.0
 14
48.87568860704047
 24
70.49751625253522
 34
0.0
 50
90.0
100
AcDbRotatedDimension
1001
ACAD
1000
DSTYLE
1002
{
1070
   172
1070
     0
1070
   289
1070
     1
1070
    74
1070
     0
1070
   271
1070
     3
1070
   272
1070
     3
1070
    48
1040
0.0
1070
    47
1040
0.0
1002
}
  0
DIMENSION
  5
BC2
330
77
100
AcDbEntity
  8
Quote(ISO)
  6
Continuous
 62
    96
370
    25
100
AcDbDimension
  2
*D18
 10
21.50964224592368
 20
47.49751625253798
 30
0.0
 11
21.50964224592368
 21
90.49751625252708
 31
0.0
 70
   160
  1
<>
 42
85.99999999999997
  3
MAURO
100
AcDbAlignedDimension
 13
58.12568860702164
 23
133.4975162525379
 33
0.0
 14
58.1256886070473
 24
47.49751625253797
 34
0.0
 50
270.0000000000171
100
AcDbRotatedDimension
1001
ACAD
1000
DSTYLE
1002
{
1070
   172
1070
     0
1070
   289
1070
     1
1070
    74
1070
     0
1070
   271
1070
     3
1070
   272
1070
     3
1070
    48
1040
0.0
1070
    47
1040
0.0
1002
}
  0
DIMENSION
  5
E56
330
77
100
AcDbEntity
  8
Quote(ISO)
  6
Continuous
 62
    96
370
    25
100
AcDbDimension
  2
*D21
 10
181.7666236066611
 20
256.6807743611215
 30
0.0
 11
181.7666236066611
 21
214.1807743611221
 31
0.0
 70
   160
  1
<>
 42
83.99999999999872
  3
MAURO
100
AcDbAlignedDimension
 13
126.7496669042923
 23
172.6807743611227
 33
0.0
 14
127.0538918373909
 24
256.6807743611215
 34
0.0
 50
270.0000000000002
100
AcDbRotatedDimension
1001
ACAD
1000
DSTYLE
1002
{
1070
   172
1070
     0
1070
   289
1070
     1
1070
    74
1070
     0
1070
   271
1070
     3
1070
   272
1070
     3
1070
    48
1040
0.0
1070
    47
1040
0.0
1002
}
  0
DIMENSION
  5
F2C
330
77
100
AcDbEntity
  8
Quote(ISO)
  6
Continuous
 62
    96
370
    25
100
AcDbDimension
  2
*D22
 10
154.1256886071188
 20
264.0901412781751
 30
0.0
 11
103.1256886071161
 21
264.0901412781751
 31
0.0
 70
   160
  1
<>
 42
101.0000000000055
  3
MAURO
100
AcDbAlignedDimension
 13
53.12568860711332
 23
256.6807743611235
 33
0.0
 14
154.1256886071188
 24
246.6807743611182
 34
0.0
 50
0.000000000000123
100
AcDbRotatedDimension
1001
ACAD
1000
DSTYLE
1002
{
1070
   172
1070
     0
1070
   289
1070
     1
1070
    74
1070
     0
1070
   271
1070
     3
1070
   272
1070
     3
1070
    48
1040
0.0
1070
    47
1040
0.0
1002
}
  0
LINE
  5
1002
330
77
100
AcDbEntity
  8
Centro(ISO)
  6
CHAIN
 48
20.4628849029541
100
AcDbLine
 10
287.6121559620401
 20
203.1807743611398
 30
0.0
 11
273.61215596204
 21
203.1807743611398
 31
0.0
  0
LINE
  5
1003
330
77
100
AcDbEntity
  8
Centro(ISO)
  6
CHAIN
 48
7.778351783752441
100
AcDbLine
 10
280.61215596204
 20
203.1807743611398
 30
0.0
 11
280.61215596204
 21
196.1807743611398
 31
0.0
  0
LINE
  5
1004
330
77
100
AcDbEntity
  8
Centro(ISO)
  6
CHAIN
 48
20.4628849029541
100
AcDbLine
 10
325.6121559620448
 20
219.1807743611286
 30
0.0
 11
311.6121559620448
 21
219.1807743611286
 31
0.0
  0
LINE
  5
1005
330
77
100
AcDbEntity
  8
Centro(ISO)
  6
CHAIN
 48
7.778351783752441
100
AcDbLine
 10
318.6121559620448
 20
226.1807743611286
 30
0.0
 11
318.6121559620448
 21
219.1807743611286
 31
0.0
  0
LINE
  5
1006
330
77
100
AcDbEntity
  8
Centro(ISO)
  6
CHAIN
 48
20.4628849029541
100
AcDbLine
 10
325.61215596204
 20
203.1807743611286
 30
0.0
 11
311.61215596204
 21
203.1807743611286
 31
0.0
  0
LINE
  5
1007
330
77
100
AcDbEntity
  8
Centro(ISO)
  6
CHAIN
 48
7.778351783752441
100
AcDbLine
 10
318.61215596204
 20
203.1807743611286
 30
0.0
 11
318.61215596204
 21
196.1807743611286
 31
0.0
  0
LINE
  5
1008
330
77
100
AcDbEntity
  8
Centro(ISO)
  6
CHAIN
 48
20.4628849029541
100
AcDbLine
 10
287.6121559620448
 20
219.1807743611398
 30
0.0
 11
273.6121559620448
 21
219.1807743611398
 31
0.0
  0
LINE
  5
1009
330
77
100
AcDbEntity
  8
Centro(ISO)
  6
CHAIN
 48
7.778351783752441
100
AcDbLine
 10
280.6121559620448
 20
226.1807743611398
 30
0.0
 11
280.6121559620448
 21
219.1807743611398
 31
0.0
  0
DIMENSION
  5
100A
330
77
100
AcDbEntity
  8
Quote(ISO)
  6
Continuous
 62
    96
370
    25
100
AcDbDimension
  2
*D23
 10
232.9685519290507
 20
219.1807743611398
 30
0.0
 11
232.9685519290507
 21
211.1807743611399
 31
0.0
 70
   160
  1
<>
 42
15.99999999999997
  3
MAURO
100
AcDbAlignedDimension
 13
273.61215596204
 23
203.1807743611398
 33
0.0
 14
273.6121559620448
 24
219.1807743611398
 34
0.0
 50
90.0
100
AcDbRotatedDimension
1001
ACAD
1000
DSTYLE
1002
{
1070
   172
1070
     0
1070
   289
1070
     1
1070
    74
1070
     0
1070
   271
1070
     3
1070
   272
1070
     3
1070
    48
1040
0.0
1070
    47
1040
0.0
1002
}
  0
DIMENSION
  5
10F2
330
77
100
AcDbEntity
  8
Quote(ISO)
  6
Continuous
 62
    96
370
    25
100
AcDbDimension
  2
*D24
 10
280.6121559620448
 20
219.1807743611397
 30
0.0
 11
299.8155076614939
 21
240.286225899718
 31
0.0
 70
   164
  1
<>
 42
4.499999999999772
  3
MAURO
100
AcDbRadialDimension
 15
282.8621559620452
 25
223.0778886781692
 35
0.0
 40
0.0
1001
ACAD_DSTYLE_DIMRADIAL_EXTENSION
1070
   387
1070
     1
1070
   388
1040
0.0
1070
   390
1040
0.0
1001
ACAD
1000
DSTYLE
1002
{
1070
    73
1070
     1
1070
   271
1070
     3
1070
   141
1040
0.0
1070
   272
1070
     3
1070
    48
1040
0.0
1070
    47
1040
0.0
1002
}
  0
DIMENSION
  5
1191
330
77
100
AcDbEntity
  8
Quote(ISO)
  6
Continuous
 62
    96
370
    25
100
AcDbDimension
  2
*D25
 10
232.9685519290507
 20
165.6807743611503
 30
0.0
 11
232.9685519290507
 21
184.4307743611449
 31
0.0
 70
   160
  1
<>
 42
37.49999999998954
  3
MAURO
100
AcDbAlignedDimension
 13
273.61215596204
 23
203.1807743611398
 33
0.0
 14
246.467074366883
 24
165.6807743611503
 34
0.0
 50
90.0
100
AcDbRotatedDimension
1001
ACAD
1000
DSTYLE
1002
{
1070
   172
1070
     0
1070
   289
1070
     1
1070
    74
1070
     0
1070
   271
1070
     3
1070
   272
1070
     3
1070
    48
1040
0.0
1070
    47
1040
0.0
1002
}
  0
DIMENSION
  5
1279
330
77
100
AcDbEntity
  8
Quote(ISO)
  6
Continuous
 62
    96
370
    25
100
AcDbDimension
  2
*D26
 10
258.6121559620595
 20
269.2053166570169
 30
0.0
 11
270.6121559620595
 21
269.2053166570134
 31
0.0
 70
   160
  1
<>
 42
21.99999999999983
  3
MAURO
100
AcDbAlignedDimension
 13
280.6121559620451
 23
220.4307743611398
 33
0.0
 14
258.6121559620559
 24
256.6807743611463
 34
0.0
 50
179.9999999999831
100
AcDbRotatedDimension
1001
ACAD
1000
DSTYLE
1002
{
1070
   172
1070
     0
1070
   289
1070
     1
1070
    74
1070
     0
1070
   271
1070
     3
1070
   272
1070
     3
1070
    48
1040
0.0
1070
    47
1040
0.0
1002
}
  0
DIMENSION
  5
135B
330
77
100
AcDbEntity
  8
Quote(ISO)
  6
Continuous
 62
    96
370
    25
100
AcDbDimension
  2
*D27
 10
338.6121559620558
 20
269.1770160325732
 30
0.0
 11
328.6121559620596
 21
269.1770160325732
 31
0.0
 70
   160
  1
<>
 42
20.00000000001069
  3
MAURO
100
AcDbAlignedDimension
 13
318.6121559620451
 23
220.4307743611286
 33
0.0
 14
338.6121559620558
 24
256.6807743611227
 34
0.0
 50
359.9999999999832
100
AcDbRotatedDimension
1001
ACAD
1000
DSTYLE
1002
{
1070
   172
1070
     0
1070
   289
1070
     1
1070
    74
1070
     0
1070
   271
1070
     3
1070
   272
1070
     3
1070
    48
1040
0.0
1070
    47
1040
0.0
1002
}
  0
ENDSEC
  0
SECTION
  2
OBJECTS
  0
DICTIONARY
  5
C
330
0
100
AcDbDictionary
281
     1
  3
ACAD_COLOR
350
6E
  3
ACAD_GROUP
350
D
  3
ACAD_LAYOUT
350
6D
  3
ACAD_MATERIAL
350
10
  3
ACAD_MLEADERSTYLE
350
71
  3
ACAD_MLINESTYLE
350
6A
  3
ACAD_PLOTSETTINGS
350
6C
  3
ACAD_PLOTSTYLENAME
350
E
  3
ACAD_SCALELIST
350
3D
  3
ACAD_TABLESTYLE
350
6F
  3
ACAD_VISUALSTYLE
350
29
  3
ACDB_RECOMPOSE_DATA
350
1693
  3
AcDbVariableDictionary
350
152E
  3
AcmDictionary
350
159F
  3
AMG
350
1548
  3
AMGSNAPSETTINGS
350
15D6
  3
DWGPROPS
350
1694
  0
DICTIONARY
  5
14E5
330
8
100
AcDbDictionary
280
     1
281
     1
  0
DICTIONARY
  5
143F
330
27F
100
AcDbDictionary
280
     1
281
     1
  3
ACAD_MLATT
360
1656
  3
ACAD_XREC_ROUNDTRIP
360
1655
  0
DICTIONARY
  5
1442
330
282
100
AcDbDictionary
280
     1
281
     1
  3
ACAD_MLATT
360
1658
  3
ACAD_XREC_ROUNDTRIP
360
1657
  0
DICTIONARY
  5
1445
330
284
100
AcDbDictionary
280
     1
281
     1
  3
ACAD_MLATT
360
165A
  3
ACAD_XREC_ROUNDTRIP
360
1659
  0
DICTIONARY
  5
144A
330
286
100
AcDbDictionary
280
     1
281
     1
  3
ACAD_MLATT
360
165E
  3
ACAD_XREC_ROUNDTRIP
360
165D
  0
DICTIONARY
  5
144D
330
287
100
AcDbDictionary
280
     1
281
     1
  3
ACAD_MLATT
360
1660
  3
ACAD_XREC_ROUNDTRIP
360
165F
  0
DICTIONARY
  5
1450
330
288
100
AcDbDictionary
280
     1
281
     1
  3
ACAD_MLATT
360
1662
  3
ACAD_XREC_ROUNDTRIP
360
1661
  0
DICTIONARY
  5
1453
330
289
100
AcDbDictionary
280
     1
281
     1
  3
ACAD_MLATT
360
1664
  3
ACAD_XREC_ROUNDTRIP
360
1663
  0
DICTIONARY
  5
165C
330
165B
100
AcDbDictionary
280
     1
281
     1
  0
DICTIONARY
  5
16C5
330
353
100
AcDbDictionary
280
     1
281
     1
  3
ACAD_MTEXT_RT
360
16C6
  0
DICTIONARY
  5
1459
330
35F
100
AcDbDictionary
280
     1
281
     1
  3
ACAD_MLATT
360
1666
  3
ACAD_XREC_ROUNDTRIP
360
1665
  0
DICTIONARY
  5
145C
330
360
100
AcDbDictionary
280
     1
281
     1
  3
ACAD_MLATT
360
1668
  3
ACAD_XREC_ROUNDTRIP
360
1667
  0
DICTIONARY
  5
145F
330
362
100
AcDbDictionary
280
     1
281
     1
  3
ACAD_MLATT
360
166A
  3
ACAD_XREC_ROUNDTRIP
360
1669
  0
DICTIONARY
  5
1462
330
364
100
AcDbDictionary
280
     1
281
     1
  3
ACAD_MLATT
360
166C
  3
ACAD_XREC_ROUNDTRIP
360
166B
  0
DICTIONARY
  5
1465
330
365
100
AcDbDictionary
280
     1
281
     1
  3
ACAD_MLATT
360
166E
  3
ACAD_XREC_ROUNDTRIP
360
166D
  0
DICTIONARY
  5
1468
330
366
100
AcDbDictionary
280
     1
281
     1
  3
ACAD_MLATT
360
1670
  3
ACAD_XREC_ROUNDTRIP
360
166F
  0
DICTIONARY
  5
146B
330
367
100
AcDbDictionary
280
     1
281
     1
  3
ACAD_MLATT
360
1672
  3
ACAD_XREC_ROUNDTRIP
360
1671
  0
DICTIONARY
  5
146E
330
368
100
AcDbDictionary
280
     1
281
     1
  3
ACAD_MLATT
360
1674
  3
ACAD_XREC_ROUNDTRIP
360
1673
  0
DICTIONARY
  5
1471
330
369
100
AcDbDictionary
280
     1
281
     1
  3
ACAD_MLATT
360
1676
  3
ACAD_XREC_ROUNDTRIP
360
1675
  0
DICTIONARY
  5
1474
330
36A
100
AcDbDictionary
280
     1
281
     1
  3
ACAD_MLATT
360
1678
  3
ACAD_XREC_ROUNDTRIP
360
1677
  0
DICTIONARY
  5
1477
330
36B
100
AcDbDictionary
280
     1
281
     1
  3
ACAD_MLATT
360
167A
  3
ACAD_XREC_ROUNDTRIP
360
1679
  0
DICTIONARY
  5
147A
330
36C
100
AcDbDictionary
280
     1
281
     1
  3
ACAD_MLATT
360
167C
  3
ACAD_XREC_ROUNDTRIP
360
167B
  0
DICTIONARY
  5
147D
330
36D
100
AcDbDictionary
280
     1
281
     1
  3
ACAD_MLATT
360
167E
  3
ACAD_XREC_ROUNDTRIP
360
167D
  0
DICTIONARY
  5
1480
330
36E
100
AcDbDictionary
280
     1
281
     1
  3
ACAD_MLATT
360
1680
  3
ACAD_XREC_ROUNDTRIP
360
167F
  0
DICTIONARY
  5
1483
330
36F
100
AcDbDictionary
280
     1
281
     1
  3
ACAD_MLATT
360
1682
  3
ACAD_XREC_ROUNDTRIP
360
1681
  0
DICTIONARY
  5
1486
330
370
100
AcDbDictionary
280
     1
281
     1
  3
ACAD_MLATT
360
1684
  3
ACAD_XREC_ROUNDTRIP
360
1683
  0
DICTIONARY
  5
1489
330
371
100
AcDbDictionary
280
     1
281
     1
  3
ACAD_MLATT
360
1686
  3
ACAD_XREC_ROUNDTRIP
360
1685
  0
DICTIONARY
  5
148C
330
372
100
AcDbDictionary
280
     1
281
     1
  3
ACAD_MLATT
360
1688
  3
ACAD_XREC_ROUNDTRIP
360
1687
  0
DICTIONARY
  5
148F
330
373
100
AcDbDictionary
280
     1
281
     1
  3
ACAD_MLATT
360
168A
  3
ACAD_XREC_ROUNDTRIP
360
1689
  0
DICTIONARY
  5
1492
330
374
100
AcDbDictionary
280
     1
281
     1
  3
ACAD_MLATT
360
168C
  3
ACAD_XREC_ROUNDTRIP
360
168B
  0
DICTIONARY
  5
1495
330
375
100
AcDbDictionary
280
     1
281
     1
  3
ACAD_MLATT
360
168E
  3
ACAD_XREC_ROUNDTRIP
360
168D
  0
DICTIONARY
  5
1498
330
376
100
AcDbDictionary
280
     1
281
     1
  3
ACAD_MLATT
360
1690
  3
ACAD_XREC_ROUNDTRIP
360
168F
  0
DICTIONARY
  5
149B
330
377
100
AcDbDictionary
280
     1
281
     1
  3
ACAD_MLATT
360
1692
  3
ACAD_XREC_ROUNDTRIP
360
1691
  0
DICTIONARY
  5
16C7
330
718
100
AcDbDictionary
280
     1
281
     1
  3
ACAD_MTEXT_RT
360
16C8
  0
DICTIONARY
  5
6E
102
{ACAD_REACTORS
330
C
102
}
330
C
100
AcDbDictionary
281
     1
  0
DICTIONARY
  5
D
102
{ACAD_REACTORS
330
C
102
}
330
C
100
AcDbDictionary
281
     1
  0
DICTIONARY
  5
6D
102
{ACAD_REACTORS
330
C
102
}
330
C
100
AcDbDictionary
281
     1
  3
Layout1
350
76
  3
Layout2
350
7E
  3
Model
350
7A
  0
DICTIONARY
  5
10
102
{ACAD_REACTORS
330
C
102
}
330
C
100
AcDbDictionary
281
     1
  3
ByBlock
350
19
  3
ByLayer
350
11
  3
Global
350
21
  0
DICTIONARY
  5
71
102
{ACAD_REACTORS
330
C
102
}
330
C
100
AcDbDictionary
281
     1
  3
Standard
350
72
  0
DICTIONARY
  5
6A
102
{ACAD_REACTORS
330
C
102
}
330
C
100
AcDbDictionary
281
     1
  3
Standard
350
6B
  0
DICTIONARY
  5
6C
102
{ACAD_REACTORS
330
C
102
}
330
C
100
AcDbDictionary
281
     1
  0
ACDBDICTIONARYWDFLT
  5
E
102
{ACAD_REACTORS
330
C
102
}
330
C
100
AcDbDictionary
281
     1
  3
Normal
350
F
100
AcDbDictionaryWithDefault
340
F
  0
DICTIONARY
  5
3D
102
{ACAD_REACTORS
330
C
102
}
330
C
100
AcDbDictionary
281
     1
  3
A0
350
3E
  3
A1
350
3F
  3
A2
350
40
  3
A3
350
41
  3
A4
350
42
  3
A5
350
43
  3
A6
350
44
  3
A7
350
45
  3
A8
350
46
  3
A9
350
47
  3
B0
350
48
  3
B1
350
49
  3
B2
350
4A
  3
B3
350
4B
  3
B4
350
4C
  3
B5
350
4D
  3
B6
350
4E
  3
B7
350
4F
  3
B8
350
50
  3
B9
350
51
  3
C0
350
52
  3
C1
350
53
  3
C2
350
54
  3
C3
350
55
  3
C4
350
56
  3
C5
350
57
  3
C6
350
58
  3
C7
350
59
  3
C8
350
5A
  3
C9
350
5B
  3
D0
350
5C
  3
D1
350
5D
  3
D2
350
5E
  0
DICTIONARY
  5
6F
102
{ACAD_REACTORS
330
C
102
}
330
C
100
AcDbDictionary
281
     1
  3
Standard
350
70
  0
DICTIONARY
  5
29
102
{ACAD_REACTORS
330
C
102
}
330
C
100
AcDbDictionary
281
     1
  3
2dWireframe
350
2F
  3
3D Hidden
350
31
  3
3dWireframe
350
30
  3
Basic
350
2E
  3
Brighten
350
35
  3
ColorChange
350
39
  3
Conceptual
350
32
  3
Dim
350
34
  3
EdgeColorOff
350
3C
  3
Facepattern
350
38
  3
Flat
350
2A
  3
FlatWithEdges
350
2B
  3
Gouraud
350
2C
  3
GouraudWithEdges
350
2D
  3
JitterOff
350
3A
  3
Linepattern
350
37
  3
OverhangOff
350
3B
  3
Realistic
350
33
  3
Thicken
350
36
  0
XRECORD
  5
1693
102
{ACAD_REACTORS
330
C
102
}
330
C
100
AcDbXrecord
280
     1
 90
        1
330
70
330
27F
330
282
330
284
330
286
330
287
330
288
330
289
330
35F
330
360
330
362
330
364
330
365
330
366
330
367
330
368
330
369
330
36A
330
36B
330
36C
330
36D
330
36E
330
36F
330
370
330
371
330
372
330
373
330
374
330
375
330
376
330
377
330
9E7
  0
DICTIONARY
  5
152E
102
{ACAD_REACTORS
330
C
102
}
330
C
100
AcDbDictionary
281
     1
  3
CANNOSCALE
350
1532
  3
CMLEADERSTYLE
350
1530
  3
CTABLESTYLE
350
152F
  3
DIMASSOC
350
1539
  3
HIDETEXT
350
1538
  3
INDEXCTL
350
1537
  3
LAYEREVAL
350
1534
  3
LAYERNOTIFY
350
1535
  3
LIGHTINGUNITS
350
1533
  3
MSLTSCALE
350
1531
  3
SORTENTS
350
1536
  3
XCLIPFRAME
350
1653
  0
DICTIONARY
  5
159F
102
{ACAD_REACTORS
330
C
102
}
330
C
100
AcDbDictionary
281
     1
  3
AcmStdDictionary
350
15AB
  0
DICTIONARY
  5
1548
102
{ACAD_REACTORS
330
C
102
}
330
C
100
AcDbDictionary
281
     1
  0
DICTIONARY
  5
15D6
102
{ACAD_REACTORS
330
C
102
}
330
C
100
AcDbDictionary
281
     1
  0
XRECORD
  5
1694
102
{ACAD_REACTORS
330
C
102
}
330
C
100
AcDbXrecord
280
     1
  1
DWGPROPS COOKIE
  2

  3

  4
FRIGHETTO MAURO
  6

  7

  8
amenegon
  9

300
Responsabile=
301
Società=
302
Categoria=
303
Numero parte=CGS-346-M
304
Descrizione=
305
Progetto=
306
Progettista=FRIGHETTO MAURO
307
Ingegnere=
308
Autorità=
309
Centro gestione costi=
 40
0.0007208564814815
 41
2456105.612250382
 42
2456105.638316273
  1

 90
       16
300
Fornitore=
300
Stato utente=
300
Stato progetto=In corso
300
Verificato da=
300
Progett. approvata da=
300
Prod. approvata da=
  0
XRECORD
  5
1656
102
{ACAD_REACTORS
330
143F
102
}
330
143F
100
AcDbXrecord
280
     1
 70
     4
 70
     0
 70
     0
 40
1.0
  2
DESCRIZIONE_1
  1
Embedded Object
 10
-93.49119398589706
 20
5.505471063720221
 30
0.0
 40
2.489199936389923
 41
106.9783856763648
 46
0.0
 71
     1
 72
     5
  1
MODIFICATO QUOTA DA 20 A 25
  7
Stile testo15
 73
     1
 44
1.0
  0
XRECORD
  5
1655
102
{ACAD_REACTORS
330
143F
102
}
330
143F
100
AcDbXrecord
280
     1
102
ACAD_MATT_HEIGHT
140
2.489199936389923
  0
XRECORD
  5
1658
102
{ACAD_REACTORS
330
1442
102
}
330
1442
100
AcDbXrecord
280
     1
 70
     4
 70
     0
 70
     0
 40
1.0
  2
DESCRIZIONE_2
  1
Embedded Object
 10
-93.56890635983567
 20
1.937379052550589
 30
0.0
 40
2.489199936389923
 41
106.0389395913541
 46
0.0
 71
     1
 72
     5
  1
MODIFICATO INTERASSE DA 80 A 90
  7
Stile testo15
 73
     1
 44
1.0
  0
XRECORD
  5
1657
102
{ACAD_REACTORS
330
1442
102
}
330
1442
100
AcDbXrecord
280
     1
102
ACAD_MATT_HEIGHT
140
2.489199936389923
  0
XRECORD
  5
165A
102
{ACAD_REACTORS
330
1445
102
}
330
1445
100
AcDbXrecord
280
     1
 70
     4
 70
     0
 70
     0
 40
1.0
  2
NR.REV
  1
Embedded Object
 10
17.21416714364988
 20
2.459098066293776
 30
0.0
 40
3.499999940395355
 41
5.795553091395007
 46
0.0
 71
     5
 72
     5
  1
\W0.9000;01
  7
Stile testo116
 73
     1
 44
1.0
  0
XRECORD
  5
1659
102
{ACAD_REACTORS
330
1445
102
}
330
1445
100
AcDbXrecord
280
     1
102
ACAD_MATT_HEIGHT
140
3.499999940395355
  0
XRECORD
  5
165E
102
{ACAD_REACTORS
330
144A
102
}
330
144A
100
AcDbXrecord
280
     1
 70
     4
 70
     0
 70
     1
340
165B
 40
1.0
  2
DISEGNATO
  1
Embedded Object
 10
32.66124997243344
 20
4.468844212966427
 30
0.0
 40
2.489199936389923
 41
24.93167301252459
 46
0.0
 71
     5
 72
     5
  1
\W0.9000;FRIGETTO MAURO
  7
Stile testo115
 73
     1
 44
1.0
  0
XRECORD
  5
165D
102
{ACAD_REACTORS
330
144A
102
}
330
144A
100
AcDbXrecord
280
     1
102
ACAD_MATT_HEIGHT
140
2.489199936389923
  0
XRECORD
  5
1660
102
{ACAD_REACTORS
330
144D
102
}
330
144D
100
AcDbXrecord
280
     1
 70
     4
 70
     0
 70
     0
 40
1.0
  2
DATA
  1
Embedded Object
 10
32.60244885683786
 20
0.4703683121771185
 30
0.0
 40
2.489199936389923
 41
24.99047412812017
 46
0.0
 71
     5
 72
     5
  1
12-12-01
  7
Stile testo15
 73
     1
 44
1.0
  0
XRECORD
  5
165F
102
{ACAD_REACTORS
330
144D
102
}
330
144D
100
AcDbXrecord
280
     1
102
ACAD_MATT_HEIGHT
140
2.489199936389923
  0
XRECORD
  5
1662
102
{ACAD_REACTORS
330
1450
102
}
330
1450
100
AcDbXrecord
280
     1
 70
     4
 70
     0
 70
     0
 40
1.0
  2
DATA
  1
Embedded Object
 10
57.6076232638568
 20
0.4850685912241559
 30
0.0
 40
2.489199936389923
 41
24.96107357032237
 46
0.0
 71
     5
 72
     5
  1
12-12-01
  7
Stile testo15
 73
     1
 44
1.0
  0
XRECORD
  5
1661
102
{ACAD_REACTORS
330
1450
102
}
330
1450
100
AcDbXrecord
280
     1
102
ACAD_MATT_HEIGHT
140
2.489199936389923
  0
XRECORD
  5
1664
102
{ACAD_REACTORS
330
1453
102
}
330
1453
100
AcDbXrecord
280
     1
 70
     4
 70
     0
 70
     0
 40
1.0
  2
DATA
  1
Embedded Object
 10
82.5539965552803
 20
0.4703683121771541
 30
0.0
 40
2.489199936389923
 41
24.93167301252459
 46
0.0
 71
     5
 72
     5
  1
12-12-01
  7
Stile testo15
 73
     1
 44
1.0
  0
XRECORD
  5
1663
102
{ACAD_REACTORS
330
1453
102
}
330
1453
100
AcDbXrecord
280
     1
102
ACAD_MATT_HEIGHT
140
2.489199936389923
  0
XRECORD
  5
16C6
102
{ACAD_REACTORS
330
16C5
102
}
330
16C5
100
AcDbXrecord
280
     1
 40
567138.0
  1
\fArial|b0|i0;\H2.0066;Via Cassola , 64\P36027 Rosà (VI)\PITALY\PTel.0424/585111\PFax.0424/533417\Pwww.comunello.com
  0
XRECORD
  5
1666
102
{ACAD_REACTORS
330
1459
102
}
330
1459
100
AcDbXrecord
280
     1
 70
     4
 70
     0
 70
     0
 40
1.0
  2
Denominazione__1
  1
Embedded Object
 10
11.0
 20
66.5
 30
0.0
 40
2.006599903106689
 41
71.00000000000001
 46
0.0
 71
     1
 72
     5
  1
INCONTRO
  7
Stile testo6
 73
     1
 44
1.0
  0
XRECORD
  5
1665
102
{ACAD_REACTORS
330
1459
102
}
330
1459
100
AcDbXrecord
280
     1
102
ACAD_MATT_HEIGHT
140
2.006599903106689
  0
XRECORD
  5
1668
102
{ACAD_REACTORS
330
145C
102
}
330
145C
100
AcDbXrecord
280
     1
 70
     4
 70
     0
 70
     0
 40
1.0
  2
Denominazione_2
  1
Embedded Object
 10
11.0
 20
63.0
 30
0.0
 40
2.006599903106689
 41
71.00000000000001
 46
0.0
 71
     1
 72
     5
  1

  7
Stile testo6
 73
     1
 44
1.0
  0
XRECORD
  5
1667
102
{ACAD_REACTORS
330
145C
102
}
330
145C
100
AcDbXrecord
280
     1
102
ACAD_MATT_HEIGHT
140
2.006599903106689
  0
XRECORD
  5
166A
102
{ACAD_REACTORS
330
145F
102
}
330
145F
100
AcDbXrecord
280
     1
 70
     4
 70
     0
 70
     0
 40
1.0
  2
CODICE_DISEGNO
  1
Embedded Object
 10
97.25000000000001
 20
63.50000000000001
 30
0.0
 40
3.50519984960556
 41
28.5
 46
0.0
 71
     5
 72
     5
  1
CGS-346-M
  7
Stile testo125
 73
     1
 44
1.0
  0
XRECORD
  5
1669
102
{ACAD_REACTORS
330
145F
102
}
330
145F
100
AcDbXrecord
280
     1
102
ACAD_MATT_HEIGHT
140
3.50519984960556
  0
XRECORD
  5
166C
102
{ACAD_REACTORS
330
1462
102
}
330
1462
100
AcDbXrecord
280
     1
 70
     4
 70
     0
 70
     0
 40
1.0
  2
Materiale_1
  1
Embedded Object
 10
144.75
 20
65.24632405268551
 30
0.0
 40
2.006599903106689
 41
63.50000000000001
 46
0.0
 71
     5
 72
     5
  1

  7
Stile testo6
 73
     1
 44
1.0
  0
XRECORD
  5
166B
102
{ACAD_REACTORS
330
1462
102
}
330
1462
100
AcDbXrecord
280
     1
102
ACAD_MATT_HEIGHT
140
2.006599903106689
  0
XRECORD
  5
166E
102
{ACAD_REACTORS
330
1465
102
}
330
1465
100
AcDbXrecord
280
     1
 70
     4
 70
     0
 70
     0
 40
1.0
  2
Materiale_2
  1
Embedded Object
 10
144.809961390817
 20
61.5
 30
0.0
 40
2.006599903106689
 41
65.0
 46
0.0
 71
     5
 72
     5
  1

  7
Stile testo6
 73
     1
 44
1.0
  0
XRECORD
  5
166D
102
{ACAD_REACTORS
330
1465
102
}
330
1465
100
AcDbXrecord
280
     1
102
ACAD_MATT_HEIGHT
140
2.006599903106689
  0
XRECORD
  5
1670
102
{ACAD_REACTORS
330
1468
102
}
330
1468
100
AcDbXrecord
280
     1
 70
     4
 70
     0
 70
     0
 40
1.0
  2
CODICE_MATERIALE
  1
Embedded Object
 10
188.5
 20
63.5
 30
0.0
 40
2.006599903106689
 41
23.00000000000001
 46
0.0
 71
     5
 72
     5
  1

  7
Stile testo6
 73
     1
 44
1.0
  0
XRECORD
  5
166F
102
{ACAD_REACTORS
330
1468
102
}
330
1468
100
AcDbXrecord
280
     1
102
ACAD_MATT_HEIGHT
140
2.006599903106689
  0
XRECORD
  5
1672
102
{ACAD_REACTORS
330
146B
102
}
330
146B
100
AcDbXrecord
280
     1
 70
     4
 70
     0
 70
     0
 40
1.0
  2
PESO_UNITARIO_KG
  1
Embedded Object
 10
97.05039695754834
 20
48.4920608646265
 30
0.0
 40
2.489199936389923
 41
26.99999999999999
 46
0.0
 71
     5
 72
     5
  1
1.05
  7
Stile testo15
 73
     1
 44
1.0
  0
XRECORD
  5
1671
102
{ACAD_REACTORS
330
146B
102
}
330
146B
100
AcDbXrecord
280
     1
102
ACAD_MATT_HEIGHT
140
2.489199936389923
  0
XRECORD
  5
1674
102
{ACAD_REACTORS
330
146E
102
}
330
146E
100
AcDbXrecord
280
     1
 70
     4
 70
     0
 70
     0
 40
1.0
  2
TRATTAMENTO_1
  1
Embedded Object
 10
132.6521050609213
 20
53.48089266404504
 30
0.0
 40
2.489199936389923
 41
46.5
 46
0.0
 71
     1
 72
     5
  1
001 ZINCATURA GRIGIA
  7
Stile testo15
 73
     1
 44
1.0
  0
XRECORD
  5
1673
102
{ACAD_REACTORS
330
146E
102
}
330
146E
100
AcDbXrecord
280
     1
102
ACAD_MATT_HEIGHT
140
2.489199936389923
  0
XRECORD
  5
1676
102
{ACAD_REACTORS
330
1471
102
}
330
1471
100
AcDbXrecord
280
     1
 70
     4
 70
     0
 70
     0
 40
1.0
  2
TRATTAMENTO_2
  1
Embedded Object
 10
113.0632687693352
 20
49.98769965437094
 30
0.0
 40
2.489199936389923
 41
63.0
 46
0.0
 71
     1
 72
     5
  1

  7
Stile testo15
 73
     1
 44
1.0
  0
XRECORD
  5
1675
102
{ACAD_REACTORS
330
1471
102
}
330
1471
100
AcDbXrecord
280
     1
102
ACAD_MATT_HEIGHT
140
2.489199936389923
  0
XRECORD
  5
1678
102
{ACAD_REACTORS
330
1474
102
}
330
1474
100
AcDbXrecord
280
     1
 70
     4
 70
     0
 70
     0
 40
1.0
  2
COEFFICIENTE_D'IMPEGO
  1
Embedded Object
 10
188.5523258958931
 20
48.62644459325678
 30
0.0
 40
2.489199936389923
 41
21.00000000000001
 46
0.0
 71
     5
 72
     5
  1

  7
Stile testo15
 73
     1
 44
1.0
  0
XRECORD
  5
1677
102
{ACAD_REACTORS
330
1474
102
}
330
1474
100
AcDbXrecord
280
     1
102
ACAD_MATT_HEIGHT
140
2.489199936389923
  0
XRECORD
  5
167A
102
{ACAD_REACTORS
330
1477
102
}
330
1477
100
AcDbXrecord
280
     1
 70
     4
 70
     0
 70
     0
 40
1.0
  2
SCALA
  1
Embedded Object
 10
97.25000000000001
 20
41.0
 30
0.0
 40
2.489199936389923
 41
26.5
 46
0.0
 71
     5
 72
     5
  1
1 : 1
  7
Stile testo15
 73
     1
 44
1.0
  0
XRECORD
  5
1679
102
{ACAD_REACTORS
330
1477
102
}
330
1477
100
AcDbXrecord
280
     1
102
ACAD_MATT_HEIGHT
140
2.489199936389923
  0
XRECORD
  5
167C
102
{ACAD_REACTORS
330
147A
102
}
330
147A
100
AcDbXrecord
280
     1
 70
     4
 70
     0
 70
     0
 40
1.0
  2
FOGLIO
  1
Embedded Object
 10
119.1976741041069
 20
40.40294218049127
 30
0.0
 40
2.489199936389923
 41
13.50000000000001
 46
0.0
 71
     5
 72
     5
  1
A3
  7
Stile testo15
 73
     1
 44
1.0
  0
XRECORD
  5
167B
102
{ACAD_REACTORS
330
147A
102
}
330
147A
100
AcDbXrecord
280
     1
102
ACAD_MATT_HEIGHT
140
2.489199936389923
  0
XRECORD
  5
167E
102
{ACAD_REACTORS
330
147D
102
}
330
147D
100
AcDbXrecord
280
     1
 70
     4
 70
     0
 70
     0
 40
1.0
  2
DISEGNATO
  1
Embedded Object
 10
127.5
 20
41.5
 30
0.0
 40
2.489199936389923
 41
31.5
 46
0.0
 71
     1
 72
     5
  1
FRIGHETTO M
  7
Stile testo15
 73
     1
 44
1.0
  0
XRECORD
  5
167D
102
{ACAD_REACTORS
330
147D
102
}
330
147D
100
AcDbXrecord
280
     1
102
ACAD_MATT_HEIGHT
140
2.489199936389923
  0
XRECORD
  5
1680
102
{ACAD_REACTORS
330
1480
102
}
330
1480
100
AcDbXrecord
280
     1
 70
     4
 70
     0
 70
     0
 40
1.0
  2
DATA
  1
Embedded Object
 10
168.25
 20
40.5
 30
0.0
 40
2.489199936389923
 41
15.5
 46
0.0
 71
     5
 72
     5
  1
10-01-02
  7
Stile testo15
 73
     1
 44
1.0
  0
XRECORD
  5
167F
102
{ACAD_REACTORS
330
1480
102
}
330
1480
100
AcDbXrecord
280
     1
102
ACAD_MATT_HEIGHT
140
2.489199936389923
  0
XRECORD
  5
1682
102
{ACAD_REACTORS
330
1483
102
}
330
1483
100
AcDbXrecord
280
     1
 70
     4
 70
     0
 70
     0
 40
1.0
  2
DATA
  1
Embedded Object
 10
168.25
 20
32.75
 30
0.0
 40
2.489199936389923
 41
15.5
 46
0.0
 71
     5
 72
     5
  1
10-01-02
  7
Stile testo15
 73
     1
 44
1.0
  0
XRECORD
  5
1681
102
{ACAD_REACTORS
330
1483
102
}
330
1483
100
AcDbXrecord
280
     1
102
ACAD_MATT_HEIGHT
140
2.489199936389923
  0
XRECORD
  5
1684
102
{ACAD_REACTORS
330
1486
102
}
330
1486
100
AcDbXrecord
280
     1
 70
     4
 70
     0
 70
     0
 40
1.0
  2
DATA
  1
Embedded Object
 10
168.25
 20
24.75
 30
0.0
 40
2.489199936389923
 41
15.5
 46
0.0
 71
     5
 72
     5
  1
10-01-02
  7
Stile testo15
 73
     1
 44
1.0
  0
XRECORD
  5
1683
102
{ACAD_REACTORS
330
1486
102
}
330
1486
100
AcDbXrecord
280
     1
102
ACAD_MATT_HEIGHT
140
2.489199936389923
  0
XRECORD
  5
1686
102
{ACAD_REACTORS
330
1489
102
}
330
1489
100
AcDbXrecord
280
     1
 70
     4
 70
     0
 70
     0
 40
1.0
  2
NUMERO_ARTICOLO
  1
Embedded Object
 10
137.8158294861797
 20
21.53904977834278
 30
0.0
 40
2.489199936389923
 41
63.00000000000003
 46
0.0
 71
     1
 72
     5
  1

  7
Stile testo15
 73
     1
 44
1.0
  0
XRECORD
  5
1685
102
{ACAD_REACTORS
330
1489
102
}
330
1489
100
AcDbXrecord
280
     1
102
ACAD_MATT_HEIGHT
140
2.489199936389923
  0
XRECORD
  5
1688
102
{ACAD_REACTORS
330
148C
102
}
330
148C
100
AcDbXrecord
280
     1
 70
     4
 70
     0
 70
     0
 40
1.0
  2
NUMERO_ARTICOLO
  1
Embedded Object
 10
127.1848152468796
 20
17.63978885077316
 30
0.0
 40
2.489199936389923
 41
71.00000000000001
 46
0.0
 71
     1
 72
     5
  1

  7
Stile testo15
 73
     1
 44
1.0
  0
XRECORD
  5
1687
102
{ACAD_REACTORS
330
148C
102
}
330
148C
100
AcDbXrecord
280
     1
102
ACAD_MATT_HEIGHT
140
2.489199936389923
  0
XRECORD
  5
168A
102
{ACAD_REACTORS
330
148F
102
}
330
148F
100
AcDbXrecord
280
     1
 70
     4
 70
     0
 70
     0
 40
1.0
  2
ATTREZZAT._1
  1
Embedded Object
 10
188.5
 20
40.5
 30
0.0
 40
2.489199936389923
 41
21.00000000000001
 46
0.0
 71
     5
 72
     5
  1

  7
Stile testo15
 73
     1
 44
1.0
  0
XRECORD
  5
1689
102
{ACAD_REACTORS
330
148F
102
}
330
148F
100
AcDbXrecord
280
     1
102
ACAD_MATT_HEIGHT
140
2.489199936389923
  0
XRECORD
  5
168C
102
{ACAD_REACTORS
330
1492
102
}
330
1492
100
AcDbXrecord
280
     1
 70
     4
 70
     0
 70
     0
 40
1.0
  2
ATTREZZAT.2
  1
Embedded Object
 10
188.5
 20
32.5
 30
0.0
 40
2.489199936389923
 41
21.00000000000001
 46
0.0
 71
     5
 72
     5
  1

  7
Stile testo15
 73
     1
 44
1.0
  0
XRECORD
  5
168B
102
{ACAD_REACTORS
330
1492
102
}
330
1492
100
AcDbXrecord
280
     1
102
ACAD_MATT_HEIGHT
140
2.489199936389923
  0
XRECORD
  5
168E
102
{ACAD_REACTORS
330
1495
102
}
330
1495
100
AcDbXrecord
280
     1
 70
     4
 70
     0
 70
     0
 40
1.0
  2
ATTREZZAT.3
  1
Embedded Object
 10
188.5
 20
24.5
 30
0.0
 40
2.489199936389923
 41
21.00000000000001
 46
0.0
 71
     5
 72
     5
  1

  7
Stile testo15
 73
     1
 44
1.0
  0
XRECORD
  5
168D
102
{ACAD_REACTORS
330
1495
102
}
330
1495
100
AcDbXrecord
280
     1
102
ACAD_MATT_HEIGHT
140
2.489199936389923
  0
XRECORD
  5
1690
102
{ACAD_REACTORS
330
1498
102
}
330
1498
100
AcDbXrecord
280
     1
 70
     4
 70
     0
 70
     0
 40
1.0
  2
SOSTITUISCE_IL
  1
Embedded Object
 10
22.0
 20
41.0
 30
0.0
 40
2.489199936389923
 41
22.0
 46
0.0
 71
     5
 72
     5
  1

  7
Stile testo15
 73
     1
 44
1.0
  0
XRECORD
  5
168F
102
{ACAD_REACTORS
330
1498
102
}
330
1498
100
AcDbXrecord
280
     1
102
ACAD_MATT_HEIGHT
140
2.489199936389923
  0
XRECORD
  5
1692
102
{ACAD_REACTORS
330
149B
102
}
330
149B
100
AcDbXrecord
280
     1
 70
     4
 70
     0
 70
     0
 40
1.0
  2
SOSTITUITO_DAL
  1
Embedded Object
 10
46.5
 20
41.0
 30
0.0
 40
2.489199936389923
 41
22.0
 46
0.0
 71
     5
 72
     5
  1

  7
Stile testo15
 73
     1
 44
1.0
  0
XRECORD
  5
1691
102
{ACAD_REACTORS
330
149B
102
}
330
149B
100
AcDbXrecord
280
     1
102
ACAD_MATT_HEIGHT
140
2.489199936389923
  0
XRECORD
  5
16C8
102
{ACAD_REACTORS
330
16C7
102
}
330
16C7
100
AcDbXrecord
280
     1
 40
6069.0
  1
\A1;150°
  0
LAYOUT
  5
76
102
{ACAD_XDICTIONARY
360
16BF
102
}
102
{ACAD_REACTORS
330
6D
102
}
330
6D
100
AcDbPlotSettings
  1

  2

  4

  6

 40
0.0
 41
0.0
 42
0.0
 43
0.0
 44
0.0
 45
0.0
 46
0.0
 47
0.0
 48
0.0
 49
0.0
140
0.0
141
0.0
142
1.0
143
1.0
 70
   688
 72
     0
 73
     0
 74
     5
  7

 75
    16
147
1.0
148
0.0
149
0.0
100
AcDbLayout
  1
Layout1
 70
     1
 71
     1
 10
0.0
 20
0.0
 11
420.0
 21
297.0
 12
0.0
 22
0.0
 32
0.0
 14
0.0
 24
0.0
 34
0.0
 15
420.0
 25
297.0
 35
0.0
146
0.0
 13
0.0
 23
0.0
 33
0.0
 16
1.0
 26
0.0
 36
0.0
 17
0.0
 27
1.0
 37
0.0
 76
     0
330
73
  0
LAYOUT
  5
7E
102
{ACAD_XDICTIONARY
360
16C3
102
}
102
{ACAD_REACTORS
330
6D
102
}
330
6D
100
AcDbPlotSettings
  1

  2

  4

  6

 40
0.0
 41
0.0
 42
0.0
 43
0.0
 44
0.0
 45
0.0
 46
0.0
 47
0.0
 48
0.0
 49
0.0
140
0.0
141
0.0
142
1.0
143
1.0
 70
   688
 72
     0
 73
     0
 74
     5
  7

 75
    16
147
1.0
148
0.0
149
0.0
100
AcDbLayout
  1
Layout2
 70
     1
 71
     2
 10
0.0
 20
0.0
 11
12.0
 21
9.0
 12
0.0
 22
0.0
 32
0.0
 14
0.0
 24
0.0
 34
0.0
 15
0.0
 25
0.0
 35
0.0
146
0.0
 13
0.0
 23
0.0
 33
0.0
 16
1.0
 26
0.0
 36
0.0
 17
0.0
 27
1.0
 37
0.0
 76
     0
330
7B
  0
LAYOUT
  5
7A
102
{ACAD_XDICTIONARY
360
16C1
102
}
102
{ACAD_REACTORS
330
6D
102
}
330
6D
100
AcDbPlotSettings
  1

  2

  4

  6

 40
0.0
 41
0.0
 42
0.0
 43
0.0
 44
0.0
 45
0.0
 46
0.0
 47
0.0
 48
0.0
 49
0.0
140
0.0
141
0.0
142
1.0
143
1.0
 70
  1712
 72
     0
 73
     0
 74
     0
  7

 75
     0
147
1.0
148
0.0
149
0.0
100
AcDbLayout
  1
Model
 70
     1
 71
     0
 10
0.0
 20
0.0
 11
12.0
 21
9.0
 12
0.0
 22
0.0
 32
0.0
 14
0.0
 24
0.0
 34
0.0
 15
0.0
 25
0.0
 35
0.0
146
0.0
 13
0.0
 23
0.0
 33
0.0
 16
1.0
 26
0.0
 36
0.0
 17
0.0
 27
1.0
 37
0.0
 76
     0
330
77
331
62
  0
MATERIAL
  5
19
102
{ACAD_XDICTIONARY
360
1A
102
}
102
{ACAD_REACTORS
330
10
102
}
330
10
100
AcDbMaterial
  1
ByBlock
 72
     0
 43
0.0208333333333333
 43
0.0
 43
0.0
 43
0.0
 43
0.0
 43
0.0208333333333333
 43
0.0
 43
0.0
 43
0.0
 43
0.0
 43
1.0
 43
0.0
 43
0.0
 43
0.0
 43
0.0
 43
1.0
 77
     0
 47
0.0208333333333333
 47
0.0
 47
0.0
 47
0.0
 47
0.0
 47
0.0208333333333333
 47
0.0
 47
0.0
 47
0.0
 47
0.0
 47
1.0
 47
0.0
 47
0.0
 47
0.0
 47
0.0
 47
1.0
171
     0
 49
0.0208333333333333
 49
0.0
 49
0.0
 49
0.0
 49
0.0
 49
0.0208333333333333
 49
0.0
 49
0.0
 49
0.0
 49
0.0
 49
1.0
 49
0.0
 49
0.0
 49
0.0
 49
0.0
 49
1.0
175
     0
142
0.0208333333333333
142
0.0
142
0.0
142
0.0
142
0.0
142
0.0208333333333333
142
0.0
142
0.0
142
0.0
142
0.0
142
1.0
142
0.0
142
0.0
142
0.0
142
0.0
142
1.0
179
     0
144
0.0208333333333333
144
0.0
144
0.0
144
0.0
144
0.0
144
0.0208333333333333
144
0.0
144
0.0
144
0.0
144
0.0
144
1.0
144
0.0
144
0.0
144
0.0
144
0.0
144
1.0
147
0.0208333333333333
147
0.0
147
0.0
147
0.0
147
0.0
147
0.0208333333333333
147
0.0
147
0.0
147
0.0
147
0.0
147
1.0
147
0.0
147
0.0
147
0.0
147
0.0
147
1.0
  0
MATERIAL
  5
11
102
{ACAD_XDICTIONARY
360
12
102
}
102
{ACAD_REACTORS
330
10
102
}
330
10
100
AcDbMaterial
  1
ByLayer
 72
     0
 43
0.0208333333333333
 43
0.0
 43
0.0
 43
0.0
 43
0.0
 43
0.0208333333333333
 43
0.0
 43
0.0
 43
0.0
 43
0.0
 43
1.0
 43
0.0
 43
0.0
 43
0.0
 43
0.0
 43
1.0
 77
     0
 47
0.0208333333333333
 47
0.0
 47
0.0
 47
0.0
 47
0.0
 47
0.0208333333333333
 47
0.0
 47
0.0
 47
0.0
 47
0.0
 47
1.0
 47
0.0
 47
0.0
 47
0.0
 47
0.0
 47
1.0
171
     0
 49
0.0208333333333333
 49
0.0
 49
0.0
 49
0.0
 49
0.0
 49
0.0208333333333333
 49
0.0
 49
0.0
 49
0.0
 49
0.0
 49
1.0
 49
0.0
 49
0.0
 49
0.0
 49
0.0
 49
1.0
175
     0
142
0.0208333333333333
142
0.0
142
0.0
142
0.0
142
0.0
142
0.0208333333333333
142
0.0
142
0.0
142
0.0
142
0.0
142
1.0
142
0.0
142
0.0
142
0.0
142
0.0
142
1.0
179
     0
144
0.0208333333333333
144
0.0
144
0.0
144
0.0
144
0.0
144
0.0208333333333333
144
0.0
144
0.0
144
0.0
144
0.0
144
1.0
144
0.0
144
0.0
144
0.0
144
0.0
144
1.0
147
0.0208333333333333
147
0.0
147
0.0
147
0.0
147
0.0
147
0.0208333333333333
147
0.0
147
0.0
147
0.0
147
0.0
147
1.0
147
0.0
147
0.0
147
0.0
147
0.0
147
1.0
  0
MATERIAL
  5
21
102
{ACAD_XDICTIONARY
360
22
102
}
102
{ACAD_REACTORS
330
10
102
}
330
10
100
AcDbMaterial
  1
Global
 72
     0
 43
0.0208333333333333
 43
0.0
 43
0.0
 43
0.0
 43
0.0
 43
0.0208333333333333
 43
0.0
 43
0.0
 43
0.0
 43
0.0
 43
1.0
 43
0.0
 43
0.0
 43
0.0
 43
0.0
 43
1.0
 77
     0
 47
0.0208333333333333
 47
0.0
 47
0.0
 47
0.0
 47
0.0
 47
0.0208333333333333
 47
0.0
 47
0.0
 47
0.0
 47
0.0
 47
1.0
 47
0.0
 47
0.0
 47
0.0
 47
0.0
 47
1.0
171
     0
 49
0.0208333333333333
 49
0.0
 49
0.0
 49
0.0
 49
0.0
 49
0.0208333333333333
 49
0.0
 49
0.0
 49
0.0
 49
0.0
 49
1.0
 49
0.0
 49
0.0
 49
0.0
 49
0.0
 49
1.0
175
     0
142
0.0208333333333333
142
0.0
142
0.0
142
0.0
142
0.0
142
0.0208333333333333
142
0.0
142
0.0
142
0.0
142
0.0
142
1.0
142
0.0
142
0.0
142
0.0
142
0.0
142
1.0
179
     0
144
0.0208333333333333
144
0.0
144
0.0
144
0.0
144
0.0
144
0.0208333333333333
144
0.0
144
0.0
144
0.0
144
0.0
144
1.0
144
0.0
144
0.0
144
0.0
144
0.0
144
1.0
147
0.0208333333333333
147
0.0
147
0.0
147
0.0
147
0.0
147
0.0208333333333333
147
0.0
147
0.0
147
0.0
147
0.0
147
1.0
147
0.0
147
0.0
147
0.0
147
0.0
147
1.0
  0
MLEADERSTYLE
  5
72
102
{ACAD_REACTORS
330
71
102
}
330
71
100
AcDbMLeaderStyle
170
     2
171
     1
172
     0
 90
        2
 40
0.0
 41
0.0
173
     1
 91
-1056964608
340
66
 92
       -2
290
     1
 42
0.09
291
     1
 43
0.36
  3
Standard
 44
0.18
300

342
60
174
     1
178
     6
175
     1
176
     0
 93
-1056964608
 45
0.18
292
     0
297
     0
 46
0.18
 94
-1056964608
 47
1.0
 49
1.0
140
1.0
293
     1
141
0.0
294
     1
177
     0
142
1.0
295
     0
296
     0
143
0.125
1001
ACAD_MLEADERVER
1070
     2
  0
MLINESTYLE
  5
6B
102
{ACAD_REACTORS
330
6A
102
}
330
6A
100
AcDbMlineStyle
  2
STANDARD
 70
     0
  3

 62
   256
 51
90.0
 52
90.0
 71
     2
 49
0.5
 62
   256
  6
BYLAYER
 49
-0.5
 62
   256
  6
BYLAYER
  0
ACDBPLACEHOLDER
  5
F
102
{ACAD_REACTORS
330
E
102
}
330
E
  0
SCALE
  5
3E
102
{ACAD_REACTORS
330
3D
102
}
330
3D
100
AcDbScale
 70
     0
300
1:1
140
1.0
141
1.0
290
     1
  0
SCALE
  5
3F
102
{ACAD_REACTORS
330
3D
102
}
330
3D
100
AcDbScale
 70
     0
300
1:2
140
1.0
141
2.0
290
     0
  0
SCALE
  5
40
102
{ACAD_REACTORS
330
3D
102
}
330
3D
100
AcDbScale
 70
     0
300
1:4
140
1.0
141
4.0
290
     0
  0
SCALE
  5
41
102
{ACAD_REACTORS
330
3D
102
}
330
3D
100
AcDbScale
 70
     0
300
1:5
140
1.0
141
5.0
290
     0
  0
SCALE
  5
42
102
{ACAD_REACTORS
330
3D
102
}
330
3D
100
AcDbScale
 70
     0
300
1:8
140
1.0
141
8.0
290
     0
  0
SCALE
  5
43
102
{ACAD_REACTORS
330
3D
102
}
330
3D
100
AcDbScale
 70
     0
300
1:10
140
1.0
141
10.0
290
     0
  0
SCALE
  5
44
102
{ACAD_REACTORS
330
3D
102
}
330
3D
100
AcDbScale
 70
     0
300
1:16
140
1.0
141
16.0
290
     0
  0
SCALE
  5
45
102
{ACAD_REACTORS
330
3D
102
}
330
3D
100
AcDbScale
 70
     0
300
1:20
140
1.0
141
20.0
290
     0
  0
SCALE
  5
46
102
{ACAD_REACTORS
330
3D
102
}
330
3D
100
AcDbScale
 70
     0
300
1:30
140
1.0
141
30.0
290
     0
  0
SCALE
  5
47
102
{ACAD_REACTORS
330
3D
102
}
330
3D
100
AcDbScale
 70
     0
300
1:40
140
1.0
141
40.0
290
     0
  0
SCALE
  5
48
102
{ACAD_REACTORS
330
3D
102
}
330
3D
100
AcDbScale
 70
     0
300
1:50
140
1.0
141
50.0
290
     0
  0
SCALE
  5
49
102
{ACAD_REACTORS
330
3D
102
}
330
3D
100
AcDbScale
 70
     0
300
1:100
140
1.0
141
100.0
290
     0
  0
SCALE
  5
4A
102
{ACAD_REACTORS
330
3D
102
}
330
3D
100
AcDbScale
 70
     0
300
2:1
140
2.0
141
1.0
290
     0
  0
SCALE
  5
4B
102
{ACAD_REACTORS
330
3D
102
}
330
3D
100
AcDbScale
 70
     0
300
4:1
140
4.0
141
1.0
290
     0
  0
SCALE
  5
4C
102
{ACAD_REACTORS
330
3D
102
}
330
3D
100
AcDbScale
 70
     0
300
8:1
140
8.0
141
1.0
290
     0
  0
SCALE
  5
4D
102
{ACAD_REACTORS
330
3D
102
}
330
3D
100
AcDbScale
 70
     0
300
10:1
140
10.0
141
1.0
290
     0
  0
SCALE
  5
4E
102
{ACAD_REACTORS
330
3D
102
}
330
3D
100
AcDbScale
 70
     0
300
100:1
140
100.0
141
1.0
290
     0
  0
SCALE
  5
4F
102
{ACAD_REACTORS
330
3D
102
}
330
3D
100
AcDbScale
 70
     0
300
1/128" = 1'-0"
140
0.0078125
141
12.0
290
     0
  0
SCALE
  5
50
102
{ACAD_REACTORS
330
3D
102
}
330
3D
100
AcDbScale
 70
     0
300
1/64" = 1'-0"
140
0.015625
141
12.0
290
     0
  0
SCALE
  5
51
102
{ACAD_REACTORS
330
3D
102
}
330
3D
100
AcDbScale
 70
     0
300
1/32" = 1'-0"
140
0.03125
141
12.0
290
     0
  0
SCALE
  5
52
102
{ACAD_REACTORS
330
3D
102
}
330
3D
100
AcDbScale
 70
     0
300
1/16" = 1'-0"
140
0.0625
141
12.0
290
     0
  0
SCALE
  5
53
102
{ACAD_REACTORS
330
3D
102
}
330
3D
100
AcDbScale
 70
     0
300
3/32" = 1'-0"
140
0.09375
141
12.0
290
     0
  0
SCALE
  5
54
102
{ACAD_REACTORS
330
3D
102
}
330
3D
100
AcDbScale
 70
     0
300
1/8" = 1'-0"
140
0.125
141
12.0
290
     0
  0
SCALE
  5
55
102
{ACAD_REACTORS
330
3D
102
}
330
3D
100
AcDbScale
 70
     0
300
3/16" = 1'-0"
140
0.1875
141
12.0
290
     0
  0
SCALE
  5
56
102
{ACAD_REACTORS
330
3D
102
}
330
3D
100
AcDbScale
 70
     0
300
1/4" = 1'-0"
140
0.25
141
12.0
290
     0
  0
SCALE
  5
57
102
{ACAD_REACTORS
330
3D
102
}
330
3D
100
AcDbScale
 70
     0
300
3/8" = 1'-0"
140
0.375
141
12.0
290
     0
  0
SCALE
  5
58
102
{ACAD_REACTORS
330
3D
102
}
330
3D
100
AcDbScale
 70
     0
300
1/2" = 1'-0"
140
0.5
141
12.0
290
     0
  0
SCALE
  5
59
102
{ACAD_REACTORS
330
3D
102
}
330
3D
100
AcDbScale
 70
     0
300
3/4" = 1'-0"
140
0.75
141
12.0
290
     0
  0
SCALE
  5
5A
102
{ACAD_REACTORS
330
3D
102
}
330
3D
100
AcDbScale
 70
     0
300
1" = 1'-0"
140
1.0
141
12.0
290
     0
  0
SCALE
  5
5B
102
{ACAD_REACTORS
330
3D
102
}
330
3D
100
AcDbScale
 70
     0
300
1-1/2" = 1'-0"
140
1.5
141
12.0
290
     0
  0
SCALE
  5
5C
102
{ACAD_REACTORS
330
3D
102
}
330
3D
100
AcDbScale
 70
     0
300
3" = 1'-0"
140
3.0
141
12.0
290
     0
  0
SCALE
  5
5D
102
{ACAD_REACTORS
330
3D
102
}
330
3D
100
AcDbScale
 70
     0
300
6" = 1'-0"
140
6.0
141
12.0
290
     0
  0
SCALE
  5
5E
102
{ACAD_REACTORS
330
3D
102
}
330
3D
100
AcDbScale
 70
     0
300
1'-0" = 1'-0"
140
12.0
141
12.0
290
     0
  0
TABLESTYLE
  5
70
102
{ACAD_XDICTIONARY
360
143D
102
}
102
{ACAD_REACTORS
330
6F
102
}
330
6F
100
AcDbTableStyle
  3
Standard
 70
     0
 71
     0
 40
0.06
 41
0.06
280
     0
281
     0
  7
Standard
140
0.18
170
     2
 62
     0
 63
     7
283
     0
274
    -2
284
     1
 64
     0
275
    -2
285
     1
 65
     0
276
    -2
286
     1
 66
     0
277
    -2
287
     1
 67
     0
278
    -2
288
     1
 68
     0
279
    -2
289
     1
 69
     0
  7
Standard
140
0.25
170
     5
 62
     0
 63
     7
283
     0
274
    -2
284
     1
 64
     0
275
    -2
285
     1
 65
     0
276
    -2
286
     1
 66
     0
277
    -2
287
     1
 67
     0
278
    -2
288
     1
 68
     0
279
    -2
289
     1
 69
     0
  7
Standard
140
0.18
170
     5
 62
     0
 63
     7
283
     0
274
    -2
284
     1
 64
     0
275
    -2
285
     1
 65
     0
276
    -2
286
     1
 66
     0
277
    -2
287
     1
 67
     0
278
    -2
288
     1
 68
     0
279
    -2
289
     1
 69
     0
  0
VISUALSTYLE
  5
2F
102
{ACAD_XDICTIONARY
360
16A2
102
}
102
{ACAD_REACTORS
330
29
102
}
330
29
100
AcDbVisualStyle
  2
2dWireframe
 70
     4
 71
     0
 72
     2
 73
     0
 90
        0
 40
-0.6
 41
-30.0
 62
     5
 63
     7
 74
     1
 91
        4
 64
     7
 65
   257
 75
     1
175
     1
 42
1.0
 92
        0
 66
   257
 43
1.0
 76
     1
 77
     6
 78
     2
 67
     7
 79
     5
170
     0
171
     0
290
     0
174
     0
 93
        1
 44
0.0
173
     0
291
     0
 45
0.0
1001
ACAD
1000
AcDbSavedByObjectVersion
1070
     0
  0
VISUALSTYLE
  5
31
102
{ACAD_XDICTIONARY
360
16A6
102
}
102
{ACAD_REACTORS
330
29
102
}
330
29
100
AcDbVisualStyle
  2
3D Hidden
 70
     6
 71
     1
 72
     2
 73
     2
 90
        0
 40
-0.6
 41
-30.0
 62
     5
 63
     7
 74
     2
 91
        2
 64
     7
 65
   257
 75
     2
175
     1
 42
179.0
 92
        0
 66
   257
 43
1.0
 76
     1
 77
     6
 78
     2
 67
     7
 79
     3
170
     0
171
     0
290
     0
174
     0
 93
        1
 44
0.0
173
     0
291
     0
 45
0.0
1001
ACAD
1000
AcDbSavedByObjectVersion
1070
     0
  0
VISUALSTYLE
  5
30
102
{ACAD_XDICTIONARY
360
16A4
102
}
102
{ACAD_REACTORS
330
29
102
}
330
29
100
AcDbVisualStyle
  2
3dWireframe
 70
     5
 71
     0
 72
     2
 73
     0
 90
        0
 40
-0.6
 41
-30.0
 62
     5
 63
     7
 74
     1
 91
        4
 64
     7
 65
   257
 75
     1
175
     1
 42
1.0
 92
        0
 66
   257
 43
1.0
 76
     1
 77
     6
 78
     2
 67
     7
 79
     5
170
     0
171
     0
290
     0
174
     0
 93
        1
 44
0.0
173
     0
291
     0
 45
0.0
1001
ACAD
1000
AcDbSavedByObjectVersion
1070
     0
  0
VISUALSTYLE
  5
2E
102
{ACAD_XDICTIONARY
360
16A0
102
}
102
{ACAD_REACTORS
330
29
102
}
330
29
100
AcDbVisualStyle
  2
Basic
 70
     7
 71
     1
 72
     0
 73
     1
 90
        0
 40
-0.6
 41
-30.0
 62
     5
 63
     7
 74
     0
 91
        4
 64
     7
 65
   257
 75
     1
175
     1
 42
1.0
 92
        8
 66
     7
 43
1.0
 76
     1
 77
     6
 78
     2
 67
     7
 79
     5
170
     0
171
     0
290
     0
174
     0
 93
        1
 44
0.0
173
     0
291
     1
 45
0.0
1001
ACAD
1000
AcDbSavedByObjectVersion
1070
     0
  0
VISUALSTYLE
  5
35
102
{ACAD_XDICTIONARY
360
16AE
102
}
102
{ACAD_REACTORS
330
29
102
}
330
29
100
AcDbVisualStyle
  2
Brighten
 70
    12
 71
     2
 72
     2
 73
     0
 90
        0
 40
-0.6
 41
-30.0
 62
     5
 63
     7
 74
     1
 91
        4
 64
     7
 65
   257
 75
     1
175
     1
 42
1.0
 92
        8
 66
     7
 43
1.0
 76
     1
 77
     6
 78
     2
 67
     7
 79
     5
170
     0
171
     0
290
     0
174
     0
 93
        1
 44
50.0
173
     0
291
     1
 45
0.0
1001
ACAD
1000
AcDbSavedByObjectVersion
1070
     0
  0
VISUALSTYLE
  5
39
102
{ACAD_XDICTIONARY
360
16B6
102
}
102
{ACAD_REACTORS
330
29
102
}
330
29
100
AcDbVisualStyle
  2
ColorChange
 70
    16
 71
     2
 72
     2
 73
     3
 90
        0
 40
-0.6
 41
-30.0
 62
     5
 63
     8
 74
     1
 91
        4
 64
     7
 65
   257
 75
     1
175
     1
 42
1.0
 92
        8
 66
     8
 43
1.0
 76
     1
 77
     6
 78
     2
 67
     7
 79
     5
170
     0
171
     0
290
     0
174
     0
 93
        1
 44
0.0
173
     0
291
     1
 45
0.0
1001
ACAD
1000
AcDbSavedByObjectVersion
1070
     0
  0
VISUALSTYLE
  5
32
102
{ACAD_XDICTIONARY
360
16A8
102
}
102
{ACAD_REACTORS
330
29
102
}
330
29
100
AcDbVisualStyle
  2
Conceptual
 70
     9
 71
     3
 72
     2
 73
     0
 90
        0
 40
-0.6
 41
-30.0
 62
     5
 63
     7
 74
     2
 91
        2
 64
     7
 65
   257
 75
     1
175
     1
 42
179.0
 92
        8
 66
     7
 43
1.0
 76
     1
 77
     6
 78
     2
 67
     7
 79
     3
170
     0
171
     0
290
     0
174
     0
 93
        1
 44
0.0
173
     0
291
     0
 45
0.0
1001
ACAD
1000
AcDbSavedByObjectVersion
1070
     0
  0
VISUALSTYLE
  5
34
102
{ACAD_XDICTIONARY
360
16AC
102
}
102
{ACAD_REACTORS
330
29
102
}
330
29
100
AcDbVisualStyle
  2
Dim
 70
    11
 71
     2
 72
     2
 73
     0
 90
        0
 40
-0.6
 41
-30.0
 62
     5
 63
     7
 74
     1
 91
        4
 64
     7
 65
   257
 75
     1
175
     1
 42
1.0
 92
        8
 66
     7
 43
1.0
 76
     1
 77
     6
 78
     2
 67
     7
 79
     5
170
     0
171
     0
290
     0
174
     0
 93
        1
 44
-50.0
173
     0
291
     1
 45
0.0
1001
ACAD
1000
AcDbSavedByObjectVersion
1070
     0
  0
VISUALSTYLE
  5
3C
102
{ACAD_XDICTIONARY
360
16BC
102
}
102
{ACAD_REACTORS
330
29
102
}
330
29
100
AcDbVisualStyle
  2
EdgeColorOff
 70
    22
 71
     2
 72
     2
 73
     0
 90
        0
 40
-0.6
 41
-30.0
 62
     5
 63
     7
 74
     1
 91
        4
 64
     7
 65
   257
 75
     1
175
     1
 42
1.0
 92
        8
 66
     7
 43
1.0
 76
     1
 77
     6
 78
     2
 67
     7
 79
     5
170
     0
171
     0
290
     0
174
     0
 93
        1
 44
0.0
173
     0
291
     1
 45
0.0
1001
ACAD
1000
AcDbSavedByObjectVersion
1070
     0
  0
VISUALSTYLE
  5
38
102
{ACAD_XDICTIONARY
360
16B4
102
}
102
{ACAD_REACTORS
330
29
102
}
330
29
100
AcDbVisualStyle
  2
Facepattern
 70
    15
 71
     2
 72
     2
 73
     0
 90
        0
 40
-0.6
 41
-30.0
 62
     5
 63
     7
 74
     1
 91
        4
 64
     7
 65
   257
 75
     1
175
     1
 42
1.0
 92
        8
 66
     7
 43
1.0
 76
     1
 77
     6
 78
     2
 67
     7
 79
     5
170
     0
171
     0
290
     0
174
     0
 93
        1
 44
0.0
173
     0
291
     1
 45
0.0
1001
ACAD
1000
AcDbSavedByObjectVersion
1070
     0
  0
VISUALSTYLE
  5
2A
102
{ACAD_XDICTIONARY
360
1698
102
}
102
{ACAD_REACTORS
330
29
102
}
330
29
100
AcDbVisualStyle
  2
Flat
 70
     0
 71
     2
 72
     1
 73
     1
 90
        2
 40
-0.6
 41
30.0
 62
     5
 63
     7
 74
     0
 91
        4
 64
     7
 65
   257
 75
     1
175
     1
 42
1.0
 92
        8
 66
     7
 43
1.0
 76
     1
 77
     6
 78
     2
 67
     7
 79
     5
170
     0
171
     0
290
     0
174
     0
 93
       13
 44
0.0
173
     0
291
     1
 45
0.0
1001
ACAD
1000
AcDbSavedByObjectVersion
1070
     0
  0
VISUALSTYLE
  5
2B
102
{ACAD_XDICTIONARY
360
169A
102
}
102
{ACAD_REACTORS
330
29
102
}
330
29
100
AcDbVisualStyle
  2
FlatWithEdges
 70
     1
 71
     2
 72
     1
 73
     1
 90
        2
 40
-0.6
 41
30.0
 62
     5
 63
     7
 74
     1
 91
        4
 64
     7
 65
   257
 75
     1
175
     1
 42
1.0
 92
        0
 66
   257
 43
1.0
 76
     1
 77
     6
 78
     2
 67
     7
 79
     5
170
     0
171
     0
290
     0
174
     0
 93
       13
 44
0.0
173
     0
291
     1
 45
0.0
1001
ACAD
1000
AcDbSavedByObjectVersion
1070
     0
  0
VISUALSTYLE
  5
2C
102
{ACAD_XDICTIONARY
360
169C
102
}
102
{ACAD_REACTORS
330
29
102
}
330
29
100
AcDbVisualStyle
  2
Gouraud
 70
     2
 71
     2
 72
     2
 73
     1
 90
        2
 40
-0.6
 41
30.0
 62
     5
 63
     7
 74
     0
 91
        4
 64
     7
 65
   257
 75
     1
175
     1
 42
1.0
 92
        0
 66
     7
 43
1.0
 76
     1
 77
     6
 78
     2
 67
     7
 79
     5
170
     0
171
     0
290
     0
174
     0
 93
       13
 44
0.0
173
     0
291
     1
 45
0.0
1001
ACAD
1000
AcDbSavedByObjectVersion
1070
     0
  0
VISUALSTYLE
  5
2D
102
{ACAD_XDICTIONARY
360
169E
102
}
102
{ACAD_REACTORS
330
29
102
}
330
29
100
AcDbVisualStyle
  2
GouraudWithEdges
 70
     3
 71
     2
 72
     2
 73
     1
 90
        2
 40
-0.6
 41
30.0
 62
     5
 63
     7
 74
     1
 91
        4
 64
     7
 65
   257
 75
     1
175
     1
 42
1.0
 92
        0
 66
   257
 43
1.0
 76
     1
 77
     6
 78
     2
 67
     7
 79
     5
170
     0
171
     0
290
     0
174
     0
 93
       13
 44
0.0
173
     0
291
     1
 45
0.0
1001
ACAD
1000
AcDbSavedByObjectVersion
1070
     0
  0
VISUALSTYLE
  5
3A
102
{ACAD_XDICTIONARY
360
16B8
102
}
102
{ACAD_REACTORS
330
29
102
}
330
29
100
AcDbVisualStyle
  2
JitterOff
 70
    20
 71
     2
 72
     2
 73
     0
 90
        0
 40
-0.6
 41
-30.0
 62
     5
 63
     7
 74
     1
 91
        4
 64
     7
 65
   257
 75
     1
175
     1
 42
1.0
 92
       10
 66
     7
 43
1.0
 76
     1
 77
     6
 78
     2
 67
     7
 79
     5
170
     0
171
     0
290
     0
174
     0
 93
        1
 44
0.0
173
     0
291
     1
 45
0.0
1001
ACAD
1000
AcDbSavedByObjectVersion
1070
     0
  0
VISUALSTYLE
  5
37
102
{ACAD_XDICTIONARY
360
16B2
102
}
102
{ACAD_REACTORS
330
29
102
}
330
29
100
AcDbVisualStyle
  2
Linepattern
 70
    14
 71
     2
 72
     2
 73
     0
 90
        0
 40
-0.6
 41
-30.0
 62
     5
 63
     7
 74
     1
 91
        4
 64
     7
 65
   257
 75
     7
175
     7
 42
1.0
 92
        8
 66
     7
 43
1.0
 76
     1
 77
     6
 78
     2
 67
     7
 79
     5
170
     0
171
     0
290
     0
174
     0
 93
        1
 44
0.0
173
     0
291
     1
 45
0.0
1001
ACAD
1000
AcDbSavedByObjectVersion
1070
     0
  0
VISUALSTYLE
  5
3B
102
{ACAD_XDICTIONARY
360
16BA
102
}
102
{ACAD_REACTORS
330
29
102
}
330
29
100
AcDbVisualStyle
  2
OverhangOff
 70
    21
 71
     2
 72
     2
 73
     0
 90
        0
 40
-0.6
 41
-30.0
 62
     5
 63
     7
 74
     1
 91
        4
 64
     7
 65
   257
 75
     1
175
     1
 42
1.0
 92
        9
 66
     7
 43
1.0
 76
     1
 77
     6
 78
     2
 67
     7
 79
     5
170
     0
171
     0
290
     0
174
     0
 93
        1
 44
0.0
173
     0
291
     1
 45
0.0
1001
ACAD
1000
AcDbSavedByObjectVersion
1070
     0
  0
VISUALSTYLE
  5
33
102
{ACAD_XDICTIONARY
360
16AA
102
}
102
{ACAD_REACTORS
330
29
102
}
330
29
100
AcDbVisualStyle
  2
Realistic
 70
     8
 71
     2
 72
     2
 73
     0
 90
        0
 40
-0.6
 41
-30.0
 62
     5
 63
     7
 74
     1
 91
        0
 64
     7
 65
   257
 75
     1
175
     1
 42
1.0
 92
        8
 66
     8
 43
1.0
 76
     1
 77
     6
 78
     2
 67
     7
 79
     5
170
     0
171
     0
290
     0
174
     0
 93
       13
 44
0.0
173
     0
291
     0
 45
0.0
1001
ACAD
1000
AcDbSavedByObjectVersion
1070
     0
  0
VISUALSTYLE
  5
36
102
{ACAD_XDICTIONARY
360
16B0
102
}
102
{ACAD_REACTORS
330
29
102
}
330
29
100
AcDbVisualStyle
  2
Thicken
 70
    13
 71
     2
 72
     2
 73
     0
 90
        0
 40
-0.6
 41
-30.0
 62
     5
 63
     7
 74
     1
 91
        4
 64
     7
 65
   257
 75
     1
175
     1
 42
1.0
 92
       12
 66
     7
 43
1.0
 76
     1
 77
     6
 78
     2
 67
     7
 79
     5
170
     0
171
     0
290
     0
174
     0
 93
        1
 44
0.0
173
     0
291
     1
 45
0.0
1001
ACAD
1000
AcDbSavedByObjectVersion
1070
     0
  0
DICTIONARYVAR
  5
1532
102
{ACAD_REACTORS
330
152E
102
}
330
152E
100
DictionaryVariables
280
     0
  1
1:1
  0
DICTIONARYVAR
  5
1530
102
{ACAD_REACTORS
330
152E
102
}
330
152E
100
DictionaryVariables
280
     0
  1
STANDARD
  0
DICTIONARYVAR
  5
152F
102
{ACAD_REACTORS
330
152E
102
}
330
152E
100
DictionaryVariables
280
     0
  1
STANDARD
  0
DICTIONARYVAR
  5
1539
102
{ACAD_REACTORS
330
152E
102
}
330
152E
100
DictionaryVariables
280
     0
  1
1
  0
DICTIONARYVAR
  5
1538
102
{ACAD_REACTORS
330
152E
102
}
330
152E
100
DictionaryVariables
280
     0
  1
1
  0
DICTIONARYVAR
  5
1537
102
{ACAD_REACTORS
330
152E
102
}
330
152E
100
DictionaryVariables
280
     0
  1
0
  0
DICTIONARYVAR
  5
1534
102
{ACAD_REACTORS
330
152E
102
}
330
152E
100
DictionaryVariables
280
     0
  1
0
  0
DICTIONARYVAR
  5
1535
102
{ACAD_REACTORS
330
152E
102
}
330
152E
100
DictionaryVariables
280
     0
  1
0
  0
DICTIONARYVAR
  5
1533
102
{ACAD_REACTORS
330
152E
102
}
330
152E
100
DictionaryVariables
280
     0
  1
2
  0
DICTIONARYVAR
  5
1531
102
{ACAD_REACTORS
330
152E
102
}
330
152E
100
DictionaryVariables
280
     0
  1
1
  0
DICTIONARYVAR
  5
1536
102
{ACAD_REACTORS
330
152E
102
}
330
152E
100
DictionaryVariables
280
     0
  1
127
  0
DICTIONARYVAR
  5
1653
102
{ACAD_REACTORS
330
152E
102
}
330
152E
100
DictionaryVariables
280
     0
  1
2
  0
DICTIONARY
  5
15AB
102
{ACAD_REACTORS
330
159F
102
}
330
159F
100
AcDbDictionary
281
     1
  0
DICTIONARY
  5
16BF
330
76
100
AcDbDictionary
280
     1
281
     1
  3
ACAD_XREC_ROUNDTRIP
360
16C0
  0
DICTIONARY
  5
16C3
330
7E
100
AcDbDictionary
280
     1
281
     1
  3
ACAD_XREC_ROUNDTRIP
360
16C4
  0
DICTIONARY
  5
16C1
330
7A
100
AcDbDictionary
280
     1
281
     1
  3
ACAD_XREC_ROUNDTRIP
360
16C2
  0
DICTIONARY
  5
1A
330
19
100
AcDbDictionary
280
     1
281
     1
  3
ACAD_XREC_ROUNDTRIP
360
1696
  3
BUMPTILE
360
1C
  3
DIFFUSETILE
360
1B
  3
OPACITYTILE
360
1F
  3
REFLECTIONTILE
360
1E
  3
REFRACTIONTILE
360
20
  3
SPECULARTILE
360
1D
  0
DICTIONARY
  5
12
330
11
100
AcDbDictionary
280
     1
281
     1
  3
ACAD_XREC_ROUNDTRIP
360
1695
  3
BUMPTILE
360
14
  3
DIFFUSETILE
360
13
  3
OPACITYTILE
360
17
  3
REFLECTIONTILE
360
16
  3
REFRACTIONTILE
360
18
  3
SPECULARTILE
360
15
  0
DICTIONARY
  5
22
330
21
100
AcDbDictionary
280
     1
281
     1
  3
ACAD_XREC_ROUNDTRIP
360
1697
  3
BUMPTILE
360
24
  3
DIFFUSETILE
360
23
  3
OPACITYTILE
360
27
  3
REFLECTIONTILE
360
26
  3
REFRACTIONTILE
360
28
  3
SPECULARTILE
360
25
  0
DICTIONARY
  5
143D
330
70
100
AcDbDictionary
280
     1
281
     1
  3
ACAD_ROUNDTRIP_2008_TABLESTYLE_CELLSTYLEMAP
360
1654
  3
ACAD_XREC_ROUNDTRIP
360
16BE
  0
DICTIONARY
  5
16A2
330
2F
100
AcDbDictionary
280
     1
281
     1
  3
ACAD_XREC_ROUNDTRIP
360
16A3
  0
DICTIONARY
  5
16A6
330
31
100
AcDbDictionary
280
     1
281
     1
  3
ACAD_XREC_ROUNDTRIP
360
16A7
  0
DICTIONARY
  5
16A4
330
30
100
AcDbDictionary
280
     1
281
     1
  3
ACAD_XREC_ROUNDTRIP
360
16A5
  0
DICTIONARY
  5
16A0
330
2E
100
AcDbDictionary
280
     1
281
     1
  3
ACAD_XREC_ROUNDTRIP
360
16A1
  0
DICTIONARY
  5
16AE
330
35
100
AcDbDictionary
280
     1
281
     1
  3
ACAD_XREC_ROUNDTRIP
360
16AF
  0
DICTIONARY
  5
16B6
330
39
100
AcDbDictionary
280
     1
281
     1
  3
ACAD_XREC_ROUNDTRIP
360
16B7
  0
DICTIONARY
  5
16A8
330
32
100
AcDbDictionary
280
     1
281
     1
  3
ACAD_XREC_ROUNDTRIP
360
16A9
  0
DICTIONARY
  5
16AC
330
34
100
AcDbDictionary
280
     1
281
     1
  3
ACAD_XREC_ROUNDTRIP
360
16AD
  0
DICTIONARY
  5
16BC
330
3C
100
AcDbDictionary
280
     1
281
     1
  3
ACAD_XREC_ROUNDTRIP
360
16BD
  0
DICTIONARY
  5
16B4
330
38
100
AcDbDictionary
280
     1
281
     1
  3
ACAD_XREC_ROUNDTRIP
360
16B5
  0
DICTIONARY
  5
1698
330
2A
100
AcDbDictionary
280
     1
281
     1
  3
ACAD_XREC_ROUNDTRIP
360
1699
  0
DICTIONARY
  5
169A
330
2B
100
AcDbDictionary
280
     1
281
     1
  3
ACAD_XREC_ROUNDTRIP
360
169B
  0
DICTIONARY
  5
169C
330
2C
100
AcDbDictionary
280
     1
281
     1
  3
ACAD_XREC_ROUNDTRIP
360
169D
  0
DICTIONARY
  5
169E
330
2D
100
AcDbDictionary
280
     1
281
     1
  3
ACAD_XREC_ROUNDTRIP
360
169F
  0
DICTIONARY
  5
16B8
330
3A
100
AcDbDictionary
280
     1
281
     1
  3
ACAD_XREC_ROUNDTRIP
360
16B9
  0
DICTIONARY
  5
16B2
330
37
100
AcDbDictionary
280
     1
281
     1
  3
ACAD_XREC_ROUNDTRIP
360
16B3
  0
DICTIONARY
  5
16BA
330
3B
100
AcDbDictionary
280
     1
281
     1
  3
ACAD_XREC_ROUNDTRIP
360
16BB
  0
DICTIONARY
  5
16AA
330
33
100
AcDbDictionary
280
     1
281
     1
  3
ACAD_XREC_ROUNDTRIP
360
16AB
  0
DICTIONARY
  5
16B0
330
36
100
AcDbDictionary
280
     1
281
     1
  3
ACAD_XREC_ROUNDTRIP
360
16B1
  0
XRECORD
  5
16C0
102
{ACAD_REACTORS
330
16BF
102
}
330
16BF
100
AcDbXrecord
280
     1
102
SHADEPLOT
 70
     0
102
SHADEPLOTRESLEVEL
 70
     2
102
SHADEPLOTCUSTOMDPI
 70
   300
  0
XRECORD
  5
16C4
102
{ACAD_REACTORS
330
16C3
102
}
330
16C3
100
AcDbXrecord
280
     1
102
SHADEPLOT
 70
     0
102
SHADEPLOTRESLEVEL
 70
     2
102
SHADEPLOTCUSTOMDPI
 70
   300
  0
XRECORD
  5
16C2
102
{ACAD_REACTORS
330
16C1
102
}
330
16C1
100
AcDbXrecord
280
     1
102
SHADEPLOT
 70
     0
102
SHADEPLOTRESLEVEL
 70
     2
102
SHADEPLOTCUSTOMDPI
 70
   300
  0
XRECORD
  5
1696
102
{ACAD_REACTORS
330
1A
102
}
330
1A
100
AcDbXrecord
280
     1
102
MATERIAL
148
0.0
149
0.0
149
0.0
 93
        0
 94
      127
282
     0
 72
     0
 77
     0
171
     0
175
     0
179
     0
273
     0
  0
XRECORD
  5
1C
102
{ACAD_REACTORS
330
1A
102
}
330
1A
100
AcDbXrecord
280
     1
270
     1
271
     1
  0
XRECORD
  5
1B
102
{ACAD_REACTORS
330
1A
102
}
330
1A
100
AcDbXrecord
280
     1
270
     1
271
     1
  0
XRECORD
  5
1F
102
{ACAD_REACTORS
330
1A
102
}
330
1A
100
AcDbXrecord
280
     1
270
     1
271
     1
  0
XRECORD
  5
1E
102
{ACAD_REACTORS
330
1A
102
}
330
1A
100
AcDbXrecord
280
     1
270
     1
271
     1
  0
XRECORD
  5
20
102
{ACAD_REACTORS
330
1A
102
}
330
1A
100
AcDbXrecord
280
     1
270
     1
271
     1
  0
XRECORD
  5
1D
102
{ACAD_REACTORS
330
1A
102
}
330
1A
100
AcDbXrecord
280
     1
270
     1
271
     1
  0
XRECORD
  5
1695
102
{ACAD_REACTORS
330
12
102
}
330
12
100
AcDbXrecord
280
     1
102
MATERIAL
148
0.0
149
0.0
149
0.0
 93
        0
 94
      127
282
     0
 72
     0
 77
     0
171
     0
175
     0
179
     0
273
     0
  0
XRECORD
  5
14
102
{ACAD_REACTORS
330
12
102
}
330
12
100
AcDbXrecord
280
     1
270
     1
271
     1
  0
XRECORD
  5
13
102
{ACAD_REACTORS
330
12
102
}
330
12
100
AcDbXrecord
280
     1
270
     1
271
     1
  0
XRECORD
  5
17
102
{ACAD_REACTORS
330
12
102
}
330
12
100
AcDbXrecord
280
     1
270
     1
271
     1
  0
XRECORD
  5
16
102
{ACAD_REACTORS
330
12
102
}
330
12
100
AcDbXrecord
280
     1
270
     1
271
     1
  0
XRECORD
  5
18
102
{ACAD_REACTORS
330
12
102
}
330
12
100
AcDbXrecord
280
     1
270
     1
271
     1
  0
XRECORD
  5
15
102
{ACAD_REACTORS
330
12
102
}
330
12
100
AcDbXrecord
280
     1
270
     1
271
     1
  0
XRECORD
  5
1697
102
{ACAD_REACTORS
330
22
102
}
330
22
100
AcDbXrecord
280
     1
102
MATERIAL
148
0.0
149
0.0
149
0.0
 93
        0
 94
      127
282
     0
 72
     0
 77
     0
171
     0
175
     0
179
     0
273
     0
  0
XRECORD
  5
24
102
{ACAD_REACTORS
330
22
102
}
330
22
100
AcDbXrecord
280
     1
270
     1
271
     1
  0
XRECORD
  5
23
102
{ACAD_REACTORS
330
22
102
}
330
22
100
AcDbXrecord
280
     1
270
     1
271
     1
  0
XRECORD
  5
27
102
{ACAD_REACTORS
330
22
102
}
330
22
100
AcDbXrecord
280
     1
270
     1
271
     1
  0
XRECORD
  5
26
102
{ACAD_REACTORS
330
22
102
}
330
22
100
AcDbXrecord
280
     1
270
     1
271
     1
  0
XRECORD
  5
28
102
{ACAD_REACTORS
330
22
102
}
330
22
100
AcDbXrecord
280
     1
270
     1
271
     1
  0
XRECORD
  5
25
102
{ACAD_REACTORS
330
22
102
}
330
22
100
AcDbXrecord
280
     1
270
     1
271
     1
  0
CELLSTYLEMAP
  5
1654
102
{ACAD_REACTORS
330
143D
102
}
330
143D
100
AcDbCellStyleMap
 90
        3
300
CELLSTYLE
  1
TABLEFORMAT_BEGIN
 90
        5
170
     1
 91
        0
 92
    32768
 62
   257
 93
        1
300
CONTENTFORMAT
  1
CONTENTFORMAT_BEGIN
 90
        0
 91
        0
 92
      512
 93
        0
300

 40
0.0
140
1.0
 94
        5
 62
     0
340
60
144
0.25
309
CONTENTFORMAT_END
171
     0
 94
        0
309
TABLEFORMAT_END
  1
CELLSTYLE_BEGIN
 90
        1
 91
        1
300
_TITLE
309
CELLSTYLE_END
300
CELLSTYLE
  1
TABLEFORMAT_BEGIN
 90
        5
170
     1
 91
        0
 92
        0
 62
   257
 93
        1
300
CONTENTFORMAT
  1
CONTENTFORMAT_BEGIN
 90
        0
 91
        0
 92
      512
 93
        0
300

 40
0.0
140
1.0
 94
        5
 62
     0
340
60
144
0.18
309
CONTENTFORMAT_END
171
     0
 94
        0
309
TABLEFORMAT_END
  1
CELLSTYLE_BEGIN
 90
        2
 91
        1
300
_HEADER
309
CELLSTYLE_END
300
CELLSTYLE
  1
TABLEFORMAT_BEGIN
 90
        5
170
     1
 91
        0
 92
        0
 62
   257
 93
        1
300
CONTENTFORMAT
  1
CONTENTFORMAT_BEGIN
 90
        0
 91
        0
 92
      512
 93
        0
300

 40
0.0
140
1.0
 94
        2
 62
     0
340
60
144
0.18
309
CONTENTFORMAT_END
171
     0
 94
        0
309
TABLEFORMAT_END
  1
CELLSTYLE_BEGIN
 90
        3
 91
        2
300
_DATA
309
CELLSTYLE_END
  0
XRECORD
  5
16BE
102
{ACAD_REACTORS
330
143D
102
}
330
143D
100
AcDbXrecord
280
     1
102
ACAD_ROUNDTRIP_PRE2007_TABLESTYLE
 90
      512
 91
        0
  1

 92
      512
 93
        0
  2

 94
      512
 95
        0
  3

  0
XRECORD
  5
16A3
102
{ACAD_REACTORS
330
16A2
102
}
330
16A2
100
AcDbXrecord
280
     1
102
RTVSPropertyOp0
 70
     1
102
RTVSPropertyOp1
 70
     1
102
RTVSPropertyOp2
 70
     1
102
RTVSPropertyOp3
 70
     1
102
RTVSPropertyOp4
 70
     1
102
RTVSPropertyOp5
 70
     1
102
RTVSPropertyOp6
 70
     1
102
RTVSPropertyOp7
 70
     1
102
RTVSPropertyOp8
 70
     1
102
RTVSPropertyOp9
 70
     1
102
RTVSPropertyOp10
 70
     1
102
RTVSPropertyOp11
 70
     1
102
RTVSPropertyOp12
 70
     1
102
RTVSPropertyOp13
 70
     1
102
RTVSPropertyOp14
 70
     1
102
RTVSPropertyOp15
 70
     1
102
RTVSPropertyOp16
 70
     1
102
RTVSPropertyOp17
 70
     1
102
RTVSPropertyOp18
 70
     1
102
RTVSPropertyOp19
 70
     1
102
RTVSPropertyOp20
 70
     1
102
RTVSPropertyOp21
 70
     1
102
RTVSPropertyOp22
 70
     1
102
RTVSPropertyOp23
 70
     1
102
RTVSPropertyOp24
 70
     1
102
RTVSPropertyOp25
 70
     1
102
RTVSPropertyOp26
 70
     1
102
RTVSPropertyOp27
 70
     1
  0
XRECORD
  5
16A7
102
{ACAD_REACTORS
330
16A6
102
}
330
16A6
100
AcDbXrecord
280
     1
102
RTVSPropertyOp0
 70
     1
102
RTVSPropertyOp1
 70
     1
102
RTVSPropertyOp2
 70
     1
102
RTVSPropertyOp3
 70
     1
102
RTVSPropertyOp4
 70
     1
102
RTVSPropertyOp5
 70
     1
102
RTVSPropertyOp6
 70
     1
102
RTVSPropertyOp7
 70
     1
102
RTVSPropertyOp8
 70
     1
102
RTVSPropertyOp9
 70
     1
102
RTVSPropertyOp10
 70
     1
102
RTVSPropertyOp11
 70
     1
102
RTVSPropertyOp12
 70
     1
102
RTVSPropertyOp13
 70
     1
102
RTVSPropertyOp14
 70
     1
102
RTVSPropertyOp15
 70
     1
102
RTVSPropertyOp16
 70
     1
102
RTVSPropertyOp17
 70
     1
102
RTVSPropertyOp18
 70
     1
102
RTVSPropertyOp19
 70
     1
102
RTVSPropertyOp20
 70
     1
102
RTVSPropertyOp21
 70
     1
102
RTVSPropertyOp22
 70
     1
102
RTVSPropertyOp23
 70
     1
102
RTVSPropertyOp24
 70
     1
102
RTVSPropertyOp25
 70
     1
102
RTVSPropertyOp26
 70
     1
102
RTVSPropertyOp27
 70
     1
  0
XRECORD
  5
16A5
102
{ACAD_REACTORS
330
16A4
102
}
330
16A4
100
AcDbXrecord
280
     1
102
RTVSPropertyOp0
 70
     1
102
RTVSPropertyOp1
 70
     1
102
RTVSPropertyOp2
 70
     1
102
RTVSPropertyOp3
 70
     1
102
RTVSPropertyOp4
 70
     1
102
RTVSPropertyOp5
 70
     1
102
RTVSPropertyOp6
 70
     1
102
RTVSPropertyOp7
 70
     1
102
RTVSPropertyOp8
 70
     1
102
RTVSPropertyOp9
 70
     1
102
RTVSPropertyOp10
 70
     1
102
RTVSPropertyOp11
 70
     1
102
RTVSPropertyOp12
 70
     1
102
RTVSPropertyOp13
 70
     1
102
RTVSPropertyOp14
 70
     1
102
RTVSPropertyOp15
 70
     1
102
RTVSPropertyOp16
 70
     1
102
RTVSPropertyOp17
 70
     1
102
RTVSPropertyOp18
 70
     1
102
RTVSPropertyOp19
 70
     1
102
RTVSPropertyOp20
 70
     1
102
RTVSPropertyOp21
 70
     1
102
RTVSPropertyOp22
 70
     1
102
RTVSPropertyOp23
 70
     1
102
RTVSPropertyOp24
 70
     1
102
RTVSPropertyOp25
 70
     1
102
RTVSPropertyOp26
 70
     1
102
RTVSPropertyOp27
 70
     1
  0
XRECORD
  5
16A1
102
{ACAD_REACTORS
330
16A0
102
}
330
16A0
100
AcDbXrecord
280
     1
102
RTVSPropertyOp0
 70
     1
102
RTVSPropertyOp1
 70
     1
102
RTVSPropertyOp2
 70
     1
102
RTVSPropertyOp3
 70
     1
102
RTVSPropertyOp4
 70
     1
102
RTVSPropertyOp5
 70
     1
102
RTVSPropertyOp6
 70
     1
102
RTVSPropertyOp7
 70
     1
102
RTVSPropertyOp8
 70
     1
102
RTVSPropertyOp9
 70
     1
102
RTVSPropertyOp10
 70
     1
102
RTVSPropertyOp11
 70
     1
102
RTVSPropertyOp12
 70
     1
102
RTVSPropertyOp13
 70
     1
102
RTVSPropertyOp14
 70
     1
102
RTVSPropertyOp15
 70
     1
102
RTVSPropertyOp16
 70
     1
102
RTVSPropertyOp17
 70
     1
102
RTVSPropertyOp18
 70
     1
102
RTVSPropertyOp19
 70
     1
102
RTVSPropertyOp20
 70
     1
102
RTVSPropertyOp21
 70
     1
102
RTVSPropertyOp22
 70
     1
102
RTVSPropertyOp23
 70
     1
102
RTVSPropertyOp24
 70
     1
102
RTVSPropertyOp25
 70
     1
102
RTVSPropertyOp26
 70
     1
102
RTVSPropertyOp27
 70
     1
  0
XRECORD
  5
16AF
102
{ACAD_REACTORS
330
16AE
102
}
330
16AE
100
AcDbXrecord
280
     1
102
RTVSPropertyOp0
 70
     1
102
RTVSPropertyOp1
 70
     1
102
RTVSPropertyOp2
 70
     1
102
RTVSPropertyOp3
 70
     1
102
RTVSPropertyOp4
 70
     1
102
RTVSPropertyOp5
 70
     1
102
RTVSPropertyOp6
 70
     1
102
RTVSPropertyOp7
 70
     1
102
RTVSPropertyOp8
 70
     1
102
RTVSPropertyOp9
 70
     1
102
RTVSPropertyOp10
 70
     1
102
RTVSPropertyOp11
 70
     1
102
RTVSPropertyOp12
 70
     1
102
RTVSPropertyOp13
 70
     1
102
RTVSPropertyOp14
 70
     1
102
RTVSPropertyOp15
 70
     1
102
RTVSPropertyOp16
 70
     1
102
RTVSPropertyOp17
 70
     1
102
RTVSPropertyOp18
 70
     1
102
RTVSPropertyOp19
 70
     1
102
RTVSPropertyOp20
 70
     1
102
RTVSPropertyOp21
 70
     1
102
RTVSPropertyOp22
 70
     1
102
RTVSPropertyOp23
 70
     1
102
RTVSPropertyOp24
 70
     1
102
RTVSPropertyOp25
 70
     1
102
RTVSPropertyOp26
 70
     1
102
RTVSPropertyOp27
 70
     1
  0
XRECORD
  5
16B7
102
{ACAD_REACTORS
330
16B6
102
}
330
16B6
100
AcDbXrecord
280
     1
102
RTVSPropertyOp0
 70
     1
102
RTVSPropertyOp1
 70
     1
102
RTVSPropertyOp2
 70
     1
102
RTVSPropertyOp3
 70
     1
102
RTVSPropertyOp4
 70
     1
102
RTVSPropertyOp5
 70
     1
102
RTVSPropertyOp6
 70
     1
102
RTVSPropertyOp7
 70
     1
102
RTVSPropertyOp8
 70
     1
102
RTVSPropertyOp9
 70
     1
102
RTVSPropertyOp10
 70
     1
102
RTVSPropertyOp11
 70
     1
102
RTVSPropertyOp12
 70
     1
102
RTVSPropertyOp13
 70
     1
102
RTVSPropertyOp14
 70
     1
102
RTVSPropertyOp15
 70
     1
102
RTVSPropertyOp16
 70
     1
102
RTVSPropertyOp17
 70
     1
102
RTVSPropertyOp18
 70
     1
102
RTVSPropertyOp19
 70
     1
102
RTVSPropertyOp20
 70
     1
102
RTVSPropertyOp21
 70
     1
102
RTVSPropertyOp22
 70
     1
102
RTVSPropertyOp23
 70
     1
102
RTVSPropertyOp24
 70
     1
102
RTVSPropertyOp25
 70
     1
102
RTVSPropertyOp26
 70
     1
102
RTVSPropertyOp27
 70
     1
  0
XRECORD
  5
16A9
102
{ACAD_REACTORS
330
16A8
102
}
330
16A8
100
AcDbXrecord
280
     1
102
RTVSPropertyOp0
 70
     1
102
RTVSPropertyOp1
 70
     1
102
RTVSPropertyOp2
 70
     1
102
RTVSPropertyOp3
 70
     1
102
RTVSPropertyOp4
 70
     1
102
RTVSPropertyOp5
 70
     1
102
RTVSPropertyOp6
 70
     1
102
RTVSPropertyOp7
 70
     1
102
RTVSPropertyOp8
 70
     1
102
RTVSPropertyOp9
 70
     1
102
RTVSPropertyOp10
 70
     1
102
RTVSPropertyOp11
 70
     1
102
RTVSPropertyOp12
 70
     1
102
RTVSPropertyOp13
 70
     1
102
RTVSPropertyOp14
 70
     1
102
RTVSPropertyOp15
 70
     1
102
RTVSPropertyOp16
 70
     1
102
RTVSPropertyOp17
 70
     1
102
RTVSPropertyOp18
 70
     1
102
RTVSPropertyOp19
 70
     1
102
RTVSPropertyOp20
 70
     1
102
RTVSPropertyOp21
 70
     1
102
RTVSPropertyOp22
 70
     1
102
RTVSPropertyOp23
 70
     1
102
RTVSPropertyOp24
 70
     1
102
RTVSPropertyOp25
 70
     1
102
RTVSPropertyOp26
 70
     1
102
RTVSPropertyOp27
 70
     1
  0
XRECORD
  5
16AD
102
{ACAD_REACTORS
330
16AC
102
}
330
16AC
100
AcDbXrecord
280
     1
102
RTVSPropertyOp0
 70
     1
102
RTVSPropertyOp1
 70
     1
102
RTVSPropertyOp2
 70
     1
102
RTVSPropertyOp3
 70
     1
102
RTVSPropertyOp4
 70
     1
102
RTVSPropertyOp5
 70
     1
102
RTVSPropertyOp6
 70
     1
102
RTVSPropertyOp7
 70
     1
102
RTVSPropertyOp8
 70
     1
102
RTVSPropertyOp9
 70
     1
102
RTVSPropertyOp10
 70
     1
102
RTVSPropertyOp11
 70
     1
102
RTVSPropertyOp12
 70
     1
102
RTVSPropertyOp13
 70
     1
102
RTVSPropertyOp14
 70
     1
102
RTVSPropertyOp15
 70
     1
102
RTVSPropertyOp16
 70
     1
102
RTVSPropertyOp17
 70
     1
102
RTVSPropertyOp18
 70
     1
102
RTVSPropertyOp19
 70
     1
102
RTVSPropertyOp20
 70
     1
102
RTVSPropertyOp21
 70
     1
102
RTVSPropertyOp22
 70
     1
102
RTVSPropertyOp23
 70
     1
102
RTVSPropertyOp24
 70
     1
102
RTVSPropertyOp25
 70
     1
102
RTVSPropertyOp26
 70
     1
102
RTVSPropertyOp27
 70
     1
  0
XRECORD
  5
16BD
102
{ACAD_REACTORS
330
16BC
102
}
330
16BC
100
AcDbXrecord
280
     1
102
RTVSPropertyOp0
 70
     0
102
RTVSPropertyOp1
 70
     0
102
RTVSPropertyOp2
 70
     0
102
RTVSPropertyOp3
 70
     0
102
RTVSPropertyOp4
 70
     0
102
RTVSPropertyOp5
 70
     0
102
RTVSPropertyOp6
 70
     0
102
RTVSPropertyOp7
 70
     0
102
RTVSPropertyOp8
 70
     0
102
RTVSPropertyOp9
 70
     0
102
RTVSPropertyOp10
 70
     0
102
RTVSPropertyOp11
 70
     0
102
RTVSPropertyOp12
 70
     0
102
RTVSPropertyOp13
 70
     0
102
RTVSPropertyOp14
 70
     2
102
RTVSPropertyOp15
 70
     0
102
RTVSPropertyOp16
 70
     0
102
RTVSPropertyOp17
 70
     0
102
RTVSPropertyOp18
 70
     0
102
RTVSPropertyOp19
 70
     0
102
RTVSPropertyOp20
 70
     0
102
RTVSPropertyOp21
 70
     0
102
RTVSPropertyOp22
 70
     0
102
RTVSPropertyOp23
 70
     0
102
RTVSPropertyOp24
 70
     0
102
RTVSPropertyOp25
 70
     0
102
RTVSPropertyOp26
 70
     0
102
RTVSPropertyOp27
 70
     0
  0
XRECORD
  5
16B5
102
{ACAD_REACTORS
330
16B4
102
}
330
16B4
100
AcDbXrecord
280
     1
102
RTVSPropertyOp0
 70
     1
102
RTVSPropertyOp1
 70
     1
102
RTVSPropertyOp2
 70
     1
102
RTVSPropertyOp3
 70
     1
102
RTVSPropertyOp4
 70
     1
102
RTVSPropertyOp5
 70
     1
102
RTVSPropertyOp6
 70
     1
102
RTVSPropertyOp7
 70
     1
102
RTVSPropertyOp8
 70
     1
102
RTVSPropertyOp9
 70
     1
102
RTVSPropertyOp10
 70
     1
102
RTVSPropertyOp11
 70
     1
102
RTVSPropertyOp12
 70
     1
102
RTVSPropertyOp13
 70
     1
102
RTVSPropertyOp14
 70
     1
102
RTVSPropertyOp15
 70
     1
102
RTVSPropertyOp16
 70
     1
102
RTVSPropertyOp17
 70
     1
102
RTVSPropertyOp18
 70
     1
102
RTVSPropertyOp19
 70
     1
102
RTVSPropertyOp20
 70
     1
102
RTVSPropertyOp21
 70
     1
102
RTVSPropertyOp22
 70
     1
102
RTVSPropertyOp23
 70
     1
102
RTVSPropertyOp24
 70
     1
102
RTVSPropertyOp25
 70
     1
102
RTVSPropertyOp26
 70
     1
102
RTVSPropertyOp27
 70
     1
  0
XRECORD
  5
1699
102
{ACAD_REACTORS
330
1698
102
}
330
1698
100
AcDbXrecord
280
     1
102
RTVSPropertyOp0
 70
     1
102
RTVSPropertyOp1
 70
     1
102
RTVSPropertyOp2
 70
     1
102
RTVSPropertyOp3
 70
     1
102
RTVSPropertyOp4
 70
     1
102
RTVSPropertyOp5
 70
     1
102
RTVSPropertyOp6
 70
     1
102
RTVSPropertyOp7
 70
     1
102
RTVSPropertyOp8
 70
     1
102
RTVSPropertyOp9
 70
     1
102
RTVSPropertyOp10
 70
     1
102
RTVSPropertyOp11
 70
     1
102
RTVSPropertyOp12
 70
     1
102
RTVSPropertyOp13
 70
     1
102
RTVSPropertyOp14
 70
     1
102
RTVSPropertyOp15
 70
     1
102
RTVSPropertyOp16
 70
     1
102
RTVSPropertyOp17
 70
     1
102
RTVSPropertyOp18
 70
     1
102
RTVSPropertyOp19
 70
     1
102
RTVSPropertyOp20
 70
     1
102
RTVSPropertyOp21
 70
     1
102
RTVSPropertyOp22
 70
     1
102
RTVSPropertyOp23
 70
     1
102
RTVSPropertyOp24
 70
     1
102
RTVSPropertyOp25
 70
     1
102
RTVSPropertyOp26
 70
     1
102
RTVSPropertyOp27
 70
     1
  0
XRECORD
  5
169B
102
{ACAD_REACTORS
330
169A
102
}
330
169A
100
AcDbXrecord
280
     1
102
RTVSPropertyOp0
 70
     1
102
RTVSPropertyOp1
 70
     1
102
RTVSPropertyOp2
 70
     1
102
RTVSPropertyOp3
 70
     1
102
RTVSPropertyOp4
 70
     1
102
RTVSPropertyOp5
 70
     1
102
RTVSPropertyOp6
 70
     1
102
RTVSPropertyOp7
 70
     1
102
RTVSPropertyOp8
 70
     1
102
RTVSPropertyOp9
 70
     1
102
RTVSPropertyOp10
 70
     1
102
RTVSPropertyOp11
 70
     1
102
RTVSPropertyOp12
 70
     1
102
RTVSPropertyOp13
 70
     1
102
RTVSPropertyOp14
 70
     1
102
RTVSPropertyOp15
 70
     1
102
RTVSPropertyOp16
 70
     1
102
RTVSPropertyOp17
 70
     1
102
RTVSPropertyOp18
 70
     1
102
RTVSPropertyOp19
 70
     1
102
RTVSPropertyOp20
 70
     1
102
RTVSPropertyOp21
 70
     1
102
RTVSPropertyOp22
 70
     1
102
RTVSPropertyOp23
 70
     1
102
RTVSPropertyOp24
 70
     1
102
RTVSPropertyOp25
 70
     1
102
RTVSPropertyOp26
 70
     1
102
RTVSPropertyOp27
 70
     1
  0
XRECORD
  5
169D
102
{ACAD_REACTORS
330
169C
102
}
330
169C
100
AcDbXrecord
280
     1
102
RTVSPropertyOp0
 70
     1
102
RTVSPropertyOp1
 70
     1
102
RTVSPropertyOp2
 70
     1
102
RTVSPropertyOp3
 70
     1
102
RTVSPropertyOp4
 70
     1
102
RTVSPropertyOp5
 70
     1
102
RTVSPropertyOp6
 70
     1
102
RTVSPropertyOp7
 70
     1
102
RTVSPropertyOp8
 70
     1
102
RTVSPropertyOp9
 70
     1
102
RTVSPropertyOp10
 70
     1
102
RTVSPropertyOp11
 70
     1
102
RTVSPropertyOp12
 70
     1
102
RTVSPropertyOp13
 70
     1
102
RTVSPropertyOp14
 70
     1
102
RTVSPropertyOp15
 70
     1
102
RTVSPropertyOp16
 70
     1
102
RTVSPropertyOp17
 70
     1
102
RTVSPropertyOp18
 70
     1
102
RTVSPropertyOp19
 70
     1
102
RTVSPropertyOp20
 70
     1
102
RTVSPropertyOp21
 70
     1
102
RTVSPropertyOp22
 70
     1
102
RTVSPropertyOp23
 70
     1
102
RTVSPropertyOp24
 70
     1
102
RTVSPropertyOp25
 70
     1
102
RTVSPropertyOp26
 70
     1
102
RTVSPropertyOp27
 70
     1
  0
XRECORD
  5
169F
102
{ACAD_REACTORS
330
169E
102
}
330
169E
100
AcDbXrecord
280
     1
102
RTVSPropertyOp0
 70
     1
102
RTVSPropertyOp1
 70
     1
102
RTVSPropertyOp2
 70
     1
102
RTVSPropertyOp3
 70
     1
102
RTVSPropertyOp4
 70
     1
102
RTVSPropertyOp5
 70
     1
102
RTVSPropertyOp6
 70
     1
102
RTVSPropertyOp7
 70
     1
102
RTVSPropertyOp8
 70
     1
102
RTVSPropertyOp9
 70
     1
102
RTVSPropertyOp10
 70
     1
102
RTVSPropertyOp11
 70
     1
102
RTVSPropertyOp12
 70
     1
102
RTVSPropertyOp13
 70
     1
102
RTVSPropertyOp14
 70
     1
102
RTVSPropertyOp15
 70
     1
102
RTVSPropertyOp16
 70
     1
102
RTVSPropertyOp17
 70
     1
102
RTVSPropertyOp18
 70
     1
102
RTVSPropertyOp19
 70
     1
102
RTVSPropertyOp20
 70
     1
102
RTVSPropertyOp21
 70
     1
102
RTVSPropertyOp22
 70
     1
102
RTVSPropertyOp23
 70
     1
102
RTVSPropertyOp24
 70
     1
102
RTVSPropertyOp25
 70
     1
102
RTVSPropertyOp26
 70
     1
102
RTVSPropertyOp27
 70
     1
  0
XRECORD
  5
16B9
102
{ACAD_REACTORS
330
16B8
102
}
330
16B8
100
AcDbXrecord
280
     1
102
RTVSPropertyOp0
 70
     0
102
RTVSPropertyOp1
 70
     0
102
RTVSPropertyOp2
 70
     0
102
RTVSPropertyOp3
 70
     0
102
RTVSPropertyOp4
 70
     0
102
RTVSPropertyOp5
 70
     0
102
RTVSPropertyOp6
 70
     0
102
RTVSPropertyOp7
 70
     0
102
RTVSPropertyOp8
 70
     0
102
RTVSPropertyOp9
 70
     0
102
RTVSPropertyOp10
 70
     0
102
RTVSPropertyOp11
 70
     0
102
RTVSPropertyOp12
 70
     0
102
RTVSPropertyOp13
 70
     0
102
RTVSPropertyOp14
 70
     2
102
RTVSPropertyOp15
 70
     0
102
RTVSPropertyOp16
 70
     0
102
RTVSPropertyOp17
 70
     0
102
RTVSPropertyOp18
 70
     0
102
RTVSPropertyOp19
 70
     0
102
RTVSPropertyOp20
 70
     0
102
RTVSPropertyOp21
 70
     0
102
RTVSPropertyOp22
 70
     0
102
RTVSPropertyOp23
 70
     0
102
RTVSPropertyOp24
 70
     0
102
RTVSPropertyOp25
 70
     0
102
RTVSPropertyOp26
 70
     0
102
RTVSPropertyOp27
 70
     0
  0
XRECORD
  5
16B3
102
{ACAD_REACTORS
330
16B2
102
}
330
16B2
100
AcDbXrecord
280
     1
102
RTVSPropertyOp0
 70
     1
102
RTVSPropertyOp1
 70
     1
102
RTVSPropertyOp2
 70
     1
102
RTVSPropertyOp3
 70
     1
102
RTVSPropertyOp4
 70
     1
102
RTVSPropertyOp5
 70
     1
102
RTVSPropertyOp6
 70
     1
102
RTVSPropertyOp7
 70
     1
102
RTVSPropertyOp8
 70
     1
102
RTVSPropertyOp9
 70
     1
102
RTVSPropertyOp10
 70
     1
102
RTVSPropertyOp11
 70
     1
102
RTVSPropertyOp12
 70
     1
102
RTVSPropertyOp13
 70
     1
102
RTVSPropertyOp14
 70
     1
102
RTVSPropertyOp15
 70
     1
102
RTVSPropertyOp16
 70
     1
102
RTVSPropertyOp17
 70
     1
102
RTVSPropertyOp18
 70
     1
102
RTVSPropertyOp19
 70
     1
102
RTVSPropertyOp20
 70
     1
102
RTVSPropertyOp21
 70
     1
102
RTVSPropertyOp22
 70
     1
102
RTVSPropertyOp23
 70
     1
102
RTVSPropertyOp24
 70
     1
102
RTVSPropertyOp25
 70
     1
102
RTVSPropertyOp26
 70
     1
102
RTVSPropertyOp27
 70
     1
  0
XRECORD
  5
16BB
102
{ACAD_REACTORS
330
16BA
102
}
330
16BA
100
AcDbXrecord
280
     1
102
RTVSPropertyOp0
 70
     0
102
RTVSPropertyOp1
 70
     0
102
RTVSPropertyOp2
 70
     0
102
RTVSPropertyOp3
 70
     0
102
RTVSPropertyOp4
 70
     0
102
RTVSPropertyOp5
 70
     0
102
RTVSPropertyOp6
 70
     0
102
RTVSPropertyOp7
 70
     0
102
RTVSPropertyOp8
 70
     0
102
RTVSPropertyOp9
 70
     0
102
RTVSPropertyOp10
 70
     0
102
RTVSPropertyOp11
 70
     0
102
RTVSPropertyOp12
 70
     0
102
RTVSPropertyOp13
 70
     0
102
RTVSPropertyOp14
 70
     2
102
RTVSPropertyOp15
 70
     0
102
RTVSPropertyOp16
 70
     0
102
RTVSPropertyOp17
 70
     0
102
RTVSPropertyOp18
 70
     0
102
RTVSPropertyOp19
 70
     0
102
RTVSPropertyOp20
 70
     0
102
RTVSPropertyOp21
 70
     0
102
RTVSPropertyOp22
 70
     0
102
RTVSPropertyOp23
 70
     0
102
RTVSPropertyOp24
 70
     0
102
RTVSPropertyOp25
 70
     0
102
RTVSPropertyOp26
 70
     0
102
RTVSPropertyOp27
 70
     0
  0
XRECORD
  5
16AB
102
{ACAD_REACTORS
330
16AA
102
}
330
16AA
100
AcDbXrecord
280
     1
102
RTVSPropertyOp0
 70
     1
102
RTVSPropertyOp1
 70
     1
102
RTVSPropertyOp2
 70
     1
102
RTVSPropertyOp3
 70
     1
102
RTVSPropertyOp4
 70
     1
102
RTVSPropertyOp5
 70
     1
102
RTVSPropertyOp6
 70
     1
102
RTVSPropertyOp7
 70
     1
102
RTVSPropertyOp8
 70
     1
102
RTVSPropertyOp9
 70
     1
102
RTVSPropertyOp10
 70
     1
102
RTVSPropertyOp11
 70
     1
102
RTVSPropertyOp12
 70
     1
102
RTVSPropertyOp13
 70
     1
102
RTVSPropertyOp14
 70
     1
102
RTVSPropertyOp15
 70
     1
102
RTVSPropertyOp16
 70
     1
102
RTVSPropertyOp17
 70
     1
102
RTVSPropertyOp18
 70
     1
102
RTVSPropertyOp19
 70
     1
102
RTVSPropertyOp20
 70
     1
102
RTVSPropertyOp21
 70
     1
102
RTVSPropertyOp22
 70
     1
102
RTVSPropertyOp23
 70
     1
102
RTVSPropertyOp24
 70
     1
102
RTVSPropertyOp25
 70
     1
102
RTVSPropertyOp26
 70
     1
102
RTVSPropertyOp27
 70
     1
  0
XRECORD
  5
16B1
102
{ACAD_REACTORS
330
16B0
102
}
330
16B0
100
AcDbXrecord
280
     1
102
RTVSPropertyOp0
 70
     1
102
RTVSPropertyOp1
 70
     1
102
RTVSPropertyOp2
 70
     1
102
RTVSPropertyOp3
 70
     1
102
RTVSPropertyOp4
 70
     1
102
RTVSPropertyOp5
 70
     1
102
RTVSPropertyOp6
 70
     1
102
RTVSPropertyOp7
 70
     1
102
RTVSPropertyOp8
 70
     1
102
RTVSPropertyOp9
 70
     1
102
RTVSPropertyOp10
 70
     1
102
RTVSPropertyOp11
 70
     1
102
RTVSPropertyOp12
 70
     1
102
RTVSPropertyOp13
 70
     1
102
RTVSPropertyOp14
 70
     1
102
RTVSPropertyOp15
 70
     1
102
RTVSPropertyOp16
 70
     1
102
RTVSPropertyOp17
 70
     1
102
RTVSPropertyOp18
 70
     1
102
RTVSPropertyOp19
 70
     1
102
RTVSPropertyOp20
 70
     1
102
RTVSPropertyOp21
 70
     1
102
RTVSPropertyOp22
 70
     1
102
RTVSPropertyOp23
 70
     1
102
RTVSPropertyOp24
 70
     1
102
RTVSPropertyOp25
 70
     1
102
RTVSPropertyOp26
 70
     1
102
RTVSPropertyOp27
 70
     1
  0
ENDSEC
  0
EOF
