  0
SECTION
  2
HEADER
  9
$ACADVER
  1
AC1015
  9
$ACADMAINTVER
 70
    20
  9
$DWGCODEPAGE
  3
ANSI_1252
  9
$INSBASE
 10
0.0
 20
0.0
 30
0.0
  9
$EXTMIN
 10
-0.0000000000004263
 20
0.0
 30
0.0
  9
$EXTMAX
 10
420.0
 20
594.0000152587891
 30
0.0
  9
$LIMMIN
 10
0.0
 20
0.0
  9
$LIMMAX
 10
420.0
 20
594.0
  9
$ORTHOMODE
 70
     0
  9
$REGENMODE
 70
     1
  9
$FILLMODE
 70
     1
  9
$QTEXTMODE
 70
     0
  9
$MIRRTEXT
 70
     0
  9
$LTSCALE
 40
2.0
  9
$ATTMODE
 70
     1
  9
$TEXTSIZE
 40
0.2
  9
$TRACEWID
 40
0.05
  9
$TEXTSTYLE
  7
Standard
  9
$CLAYER
  8
0
  9
$CELTYPE
  6
ByLayer
  9
$CECOLOR
 62
   256
  9
$CELTSCALE
 40
1.0
  9
$DISPSILH
 70
     0
  9
$DIMSCALE
 40
1.0
  9
$DIMASZ
 40
1.799999999999999
  9
$DIMEXO
 40
0.0625
  9
$DIMDLI
 40
0.38
  9
$DIMRND
 40
0.0
  9
$DIMDLE
 40
0.0
  9
$DIMEXE
 40
0.18
  9
$DIMTP
 40
0.0
  9
$DIMTM
 40
0.0
  9
$DIMTXT
 40
0.3499999940395355
  9
$DIMCEN
 40
0.09
  9
$DIMTSZ
 40
0.0
  9
$DIMTOL
 70
     0
  9
$DIMLIM
 70
     0
  9
$DIMTIH
 70
     1
  9
$DIMTOH
 70
     1
  9
$DIMSE1
 70
     0
  9
$DIMSE2
 70
     0
  9
$DIMTAD
 70
     0
  9
$DIMZIN
 70
     0
  9
$DIMBLK
  1

  9
$DIMASO
 70
     1
  9
$DIMSHO
 70
     1
  9
$DIMPOST
  1

  9
$DIMAPOST
  1

  9
$DIMALT
 70
     0
  9
$DIMALTD
 70
     2
  9
$DIMALTF
 40
25.4
  9
$DIMLFAC
 40
1.0
  9
$DIMTOFL
 70
     0
  9
$DIMTVP
 40
0.0
  9
$DIMTIX
 70
     0
  9
$DIMSOXD
 70
     0
  9
$DIMSAH
 70
     0
  9
$DIMBLK1
  1

  9
$DIMBLK2
  1

  9
$DIMSTYLE
  2
Standard
  9
$DIMCLRD
 70
     0
  9
$DIMCLRE
 70
     0
  9
$DIMCLRT
 70
     0
  9
$DIMTFAC
 40
1.0
  9
$DIMGAP
 40
0.09
  9
$DIMJUST
 70
     0
  9
$DIMSD1
 70
     0
  9
$DIMSD2
 70
     0
  9
$DIMTOLJ
 70
     1
  9
$DIMTZIN
 70
     0
  9
$DIMALTZ
 70
     0
  9
$DIMALTTZ
 70
     0
  9
$DIMUPT
 70
     0
  9
$DIMDEC
 70
     4
  9
$DIMTDEC
 70
     4
  9
$DIMALTU
 70
     2
  9
$DIMALTTD
 70
     2
  9
$DIMTXSTY
  7
Standard
  9
$DIMAUNIT
 70
     0
  9
$DIMADEC
 70
     0
  9
$DIMALTRND
 40
0.0
  9
$DIMAZIN
 70
     0
  9
$DIMDSEP
 70
    46
  9
$DIMATFIT
 70
     3
  9
$DIMFRAC
 70
     0
  9
$DIMLDRBLK
  1

  9
$DIMLUNIT
 70
     2
  9
$DIMLWD
 70
    -2
  9
$DIMLWE
 70
    -2
  9
$DIMTMOVE
 70
     0
  9
$LUNITS
 70
     2
  9
$LUPREC
 70
     4
  9
$SKETCHINC
 40
0.1
  9
$FILLETRAD
 40
0.0
  9
$AUNITS
 70
     0
  9
$AUPREC
 70
     0
  9
$MENU
  1
.
  9
$ELEVATION
 40
0.0
  9
$PELEVATION
 40
0.0
  9
$THICKNESS
 40
0.0
  9
$LIMCHECK
 70
     0
  9
$CHAMFERA
 40
0.0
  9
$CHAMFERB
 40
0.0
  9
$CHAMFERC
 40
0.0
  9
$CHAMFERD
 40
0.0
  9
$SKPOLY
 70
     0
  9
$TDCREATE
 40
2456105.634673333
  9
$TDUCREATE
 40
2456105.551340000
  9
$TDUPDATE
 40
2456105.645874861
  9
$TDUUPDATE
 40
2456105.562541528
  9
$TDINDWG
 40
0.0003163079
  9
$TDUSRTIMER
 40
0.0003163079
  9
$USRTIMER
 70
     1
  9
$ANGBASE
 50
0.0
  9
$ANGDIR
 70
     0
  9
$PDMODE
 70
     0
  9
$PDSIZE
 40
0.0
  9
$PLINEWID
 40
0.0
  9
$SPLFRAME
 70
     0
  9
$SPLINETYPE
 70
     6
  9
$SPLINESEGS
 70
     8
  9
$HANDSEED
  5
C0C
  9
$SURFTAB1
 70
     6
  9
$SURFTAB2
 70
     6
  9
$SURFTYPE
 70
     6
  9
$SURFU
 70
     6
  9
$SURFV
 70
     6
  9
$UCSBASE
  2

  9
$UCSNAME
  2

  9
$UCSORG
 10
0.0
 20
0.0
 30
0.0
  9
$UCSXDIR
 10
1.0
 20
0.0
 30
0.0
  9
$UCSYDIR
 10
0.0
 20
1.0
 30
0.0
  9
$UCSORTHOREF
  2

  9
$UCSORTHOVIEW
 70
     0
  9
$UCSORGTOP
 10
0.0
 20
0.0
 30
0.0
  9
$UCSORGBOTTOM
 10
0.0
 20
0.0
 30
0.0
  9
$UCSORGLEFT
 10
0.0
 20
0.0
 30
0.0
  9
$UCSORGRIGHT
 10
0.0
 20
0.0
 30
0.0
  9
$UCSORGFRONT
 10
0.0
 20
0.0
 30
0.0
  9
$UCSORGBACK
 10
0.0
 20
0.0
 30
0.0
  9
$PUCSBASE
  2

  9
$PUCSNAME
  2

  9
$PUCSORG
 10
0.0
 20
0.0
 30
0.0
  9
$PUCSXDIR
 10
1.0
 20
0.0
 30
0.0
  9
$PUCSYDIR
 10
0.0
 20
1.0
 30
0.0
  9
$PUCSORTHOREF
  2

  9
$PUCSORTHOVIEW
 70
     0
  9
$PUCSORGTOP
 10
0.0
 20
0.0
 30
0.0
  9
$PUCSORGBOTTOM
 10
0.0
 20
0.0
 30
0.0
  9
$PUCSORGLEFT
 10
0.0
 20
0.0
 30
0.0
  9
$PUCSORGRIGHT
 10
0.0
 20
0.0
 30
0.0
  9
$PUCSORGFRONT
 10
0.0
 20
0.0
 30
0.0
  9
$PUCSORGBACK
 10
0.0
 20
0.0
 30
0.0
  9
$USERI1
 70
     0
  9
$USERI2
 70
     0
  9
$USERI3
 70
     0
  9
$USERI4
 70
     0
  9
$USERI5
 70
     0
  9
$USERR1
 40
0.0
  9
$USERR2
 40
0.0
  9
$USERR3
 40
0.0
  9
$USERR4
 40
0.0
  9
$USERR5
 40
0.0
  9
$WORLDVIEW
 70
     1
  9
$SHADEDGE
 70
     3
  9
$SHADEDIF
 70
    70
  9
$TILEMODE
 70
     1
  9
$MAXACTVP
 70
    64
  9
$PINSBASE
 10
0.0
 20
0.0
 30
0.0
  9
$PLIMCHECK
 70
     0
  9
$PEXTMIN
 10
0.0
 20
0.0
 30
0.0
  9
$PEXTMAX
 10
420.0
 20
594.0
 30
0.0
  9
$PLIMMIN
 10
0.0
 20
0.0
  9
$PLIMMAX
 10
420.0
 20
594.0
  9
$UNITMODE
 70
     0
  9
$VISRETAIN
 70
     1
  9
$PLINEGEN
 70
     0
  9
$PSLTSCALE
 70
     1
  9
$TREEDEPTH
 70
  3020
  9
$CMLSTYLE
  2
Standard
  9
$CMLJUST
 70
     0
  9
$CMLSCALE
 40
1.0
  9
$PROXYGRAPHICS
 70
     1
  9
$MEASUREMENT
 70
     1
  9
$CELWEIGHT
370
    -1
  9
$ENDCAPS
280
     0
  9
$JOINSTYLE
280
     0
  9
$LWDISPLAY
290
     0
  9
$INSUNITS
 70
     4
  9
$HYPERLINKBASE
  1

  9
$STYLESHEET
  1

  9
$XEDIT
290
     1
  9
$CEPSNTYPE
380
     0
  9
$PSTYLEMODE
290
     1
  9
$FINGERPRINTGUID
  2
{F7FB46DE-9931-438A-8336-000DF107490B}
  9
$VERSIONGUID
  2
{9601B141-7637-41E4-A7A2-E5468FA645AF}
  9
$EXTNAMES
290
     1
  9
$PSVPSCALE
 40
0.0
  9
$OLESTARTUP
290
     0
  0
ENDSEC
  0
SECTION
  2
CLASSES
  0
CLASS
  1
ACDBDICTIONARYWDFLT
  2
AcDbDictionaryWithDefault
  3
ObjectDBX Classes
 90
        0
280
     0
281
     0
  0
CLASS
  1
MATERIAL
  2
AcDbMaterial
  3
ObjectDBX Classes
 90
     1153
280
     0
281
     0
  0
CLASS
  1
VISUALSTYLE
  2
AcDbVisualStyle
  3
ObjectDBX Classes
 90
     4095
280
     0
281
     0
  0
CLASS
  1
SCALE
  2
AcDbScale
  3
ObjectDBX Classes
 90
     1153
280
     0
281
     0
  0
CLASS
  1
TABLESTYLE
  2
AcDbTableStyle
  3
ObjectDBX Classes
 90
     4095
280
     0
281
     0
  0
CLASS
  1
MLEADERSTYLE
  2
AcDbMLeaderStyle
  3
ACDB_MLEADERSTYLE_CLASS
 90
     4095
280
     0
281
     0
  0
CLASS
  1
CELLSTYLEMAP
  2
AcDbCellStyleMap
  3
ObjectDBX Classes
 90
     1152
280
     0
281
     0
  0
CLASS
  1
DICTIONARYVAR
  2
AcDbDictionaryVar
  3
ObjectDBX Classes
 90
        0
280
     0
281
     0
  0
CLASS
  1
ACDBPLACEHOLDER
  2
AcDbPlaceHolder
  3
ObjectDBX Classes
 90
        0
280
     0
281
     0
  0
CLASS
  1
LAYOUT
  2
AcDbLayout
  3
ObjectDBX Classes
 90
        0
280
     0
281
     0
  0
CLASS
  1
ACME_DOCUMENT
  2
AcMeDbDoc
  3
AcMeServices
 90
     1024
280
     0
281
     0
  0
CLASS
  1
AMGSETTINGSOBJ
  2
AmgSettingsObj
  3
"AcadM|Product Description: AutoCAD Mechanical|Company: Autodesk, Inc."
 90
     1024
280
     0
281
     0
  0
CLASS
  1
ACMESCOPE
  2
AcMeScope
  3
AcMeServices
 90
     1024
280
     0
281
     0
  0
CLASS
  1
ACMECOMMANDHISTORY
  2
AcMeCommandHistory
  3
AcMeServices
 90
     1024
280
     0
281
     0
  0
CLASS
  1
ACIMSYSVARMAN
  2
AcImSysVarManager
  3
AcMeServices
 90
     1024
280
     0
281
     0
  0
CLASS
  1
ACIMINTSYSVAR
  2
AcImIntSysVar
  3
AcMeServices
 90
     1024
280
     0
281
     0
  0
CLASS
  1
ACMEDRAWINGMAN
  2
AcMeDrawingMan
  3
AcMeServices
 90
     1024
280
     0
281
     0
  0
CLASS
  1
ACMEVIEW
  2
AcMeView
  3
AcMeServices
 90
     1024
280
     0
281
     0
  0
CLASS
  1
ACDBENTITYCACHE
  2
AcMeEntityCache
  3
AcMeServices
 90
     1024
280
     0
281
     0
  0
CLASS
  1
ACMESTATEMGR
  2
AcMeStateMgr
  3
AcMeServices
 90
     1024
280
     0
281
     0
  0
CLASS
  1
ACGREFMASTER
  2
AcGrefMaster
  3
AcAttribServices
 90
     1024
280
     0
281
     0
  0
CLASS
  1
AM_DRAWING_MGR
  2
AcDmDwgMgr
  3
AcMechDwgViewMgmt
 90
     1024
280
     0
281
     0
  0
CLASS
  1
AM_DWG_DOCUMENT
  2
AcDmDwgDocument
  3
AcMechDwgViewMgmt
 90
     1024
280
     0
281
     0
  0
CLASS
  1
AM_DWG_SHEET
  2
AcDmSheet
  3
AcMechDwgViewMgmt
 90
     1024
280
     0
281
     0
  0
CLASS
  1
AM_VIEWDIMPARMAP
  2
AcDmViewDimParMap
  3
AcMechDwgViewMgmt
 90
     1024
280
     0
281
     0
  0
CLASS
  1
AMDTINTERNALREACTOR
  2
AmdtInternalReactor
  3
AcMeServices
 90
     1024
280
     0
281
     0
  0
CLASS
  1
ACIMREALSYSVAR
  2
AcImRealSysVar
  3
AcMeServices
 90
     1024
280
     0
281
     0
  0
CLASS
  1
AM_DWGMGR_NAME
  2
AcDmDwgMgrName
  3
AcMechDwgViewMgmt
 90
     1024
280
     0
281
     0
  0
CLASS
  1
ACME_DATABASE
  2
AcMeDbDatabase
  3
AcMeServices
 90
     1024
280
     0
281
     0
  0
CLASS
  1
ACRFINSADJUSTERMGR
  2
AcRfInsAdjusterMgr
  3
AcMeServices
 90
     1024
280
     0
281
     0
  0
CLASS
  1
ACGREFACADMASTER
  2
AcGrefacadMaster
  3
AcGrefServices
 90
     1024
280
     0
281
     0
  0
CLASS
  1
AMDTMENUSTATEMGR
  2
AmdtMenuStateMgr
  3
McadcomServices
 90
     1024
280
     0
281
     0
  0
CLASS
  1
AMDTMCOMMENUSTATE
  2
AmdtMcomMenuState
  3
McadcomServices
 90
     1024
280
     0
281
     0
  0
CLASS
  1
AMIMASTER
  2
AmiMaster
  3
AmiServices
 90
     1024
280
     0
281
     0
  0
CLASS
  1
MAPIAMMOUDLE
  2
MApiAmModule
  3
MApiAmServices
 90
     1024
280
     0
281
     0
  0
CLASS
  1
ACIMSTRSYSVAR
  2
AcImStrSysVar
  3
AcMeServices
 90
     1024
280
     0
281
     0
  0
CLASS
  1
AMDTADMENUSTATE
  2
AmdtAdMenuState
  3
DesignerServices
 90
     1024
280
     0
281
     0
  0
CLASS
  1
ADAPPL
  2
AcAdAppl
  3
DesignerServices
 90
     1024
280
     0
281
     0
  0
CLASS
  1
DEPMGR
  2
AcAdDepMgr
  3
DesignerServices
 90
     1024
280
     0
281
     0
  0
CLASS
  1
PARAMMGR
  2
AcAdParamMgr
  3
DesignerServices
 90
     1024
280
     0
281
     0
  0
CLASS
  1
PARAMSCOPE
  2
AcAdParamScope
  3
DesignerServices
 90
     1024
280
     0
281
     0
  0
CLASS
  1
NAMEDAPPL
  2
AcAdNamedAppl
  3
DesignerServices
 90
     1024
280
     0
281
     0
  0
CLASS
  1
AMDTDMMENUSTATE
  2
AmdtDmMenuState
  3
AcMechDwgViewMgmt
 90
     1024
280
     0
281
     0
  0
CLASS
  1
AMDTAMMENUSTATE
  2
AmdtAmMenuState
  3
DesignerAssemblies
 90
     1024
280
     0
281
     0
  0
CLASS
  1
ACAMPROJECT
  2
AcAmProject
  3
DesignerAssemblies
 90
     1024
280
     0
281
     0
  0
CLASS
  1
ACAMGRCOMPDEF
  2
AcAmGrCompDef
  3
DesignerAssemblies
 90
     1024
280
     0
281
     0
  0
CLASS
  1
ACAMCOMPDEF
  2
AcAmCompDef
  3
DesignerAssemblies
 90
     1024
280
     0
281
     0
  0
CLASS
  1
ACAMCOMPDEFMGR
  2
AcAmCompDefMgr
  3
DesignerAssemblies
 90
     1024
280
     0
281
     0
  0
CLASS
  1
AMCONTEXTMGR
  2
AcAmContextMgr
  3
DesignerAssemblies
 90
     1024
280
     0
281
     0
  0
CLASS
  1
ACAMCONTEXTMODELER
  2
AcAmContextModeler
  3
DesignerAssemblies
 90
     1024
280
     0
281
     0
  0
CLASS
  1
ACMDATADICTIONARY
  2
AcmDataDictionary
  3
"AcmSymBB|Product Description: AutoCAD Mechanical|Company: Autodesk, Inc."
 90
     1024
280
     0
281
     0
  0
CLASS
  1
CATALOGSTATE
  2
AcAmCatalogState
  3
DesignerAssemblies
 90
     1024
280
     0
281
     0
  0
CLASS
  1
ACAMGRCOMPDEFSET
  2
AcAmGrCompDefSet
  3
DesignerAssemblies
 90
     1024
280
     0
281
     0
  0
CLASS
  1
AMDTBROWSERDBTAB
  2
AmdtBrowserDbTab
  3
McadcomServices
 90
     1024
280
     0
281
     0
  0
CLASS
  1
CBROWSERAPPOBJECT
  2
CBrowserAppObject
  3
McadcomServices
 90
     1024
280
     0
281
     0
  0
CLASS
  1
DM_PLACEHOLDER
  2
AcDmSelsetPlaceholder
  3
AcMechDwgViewMgmt
 90
     1024
280
     0
281
     0
  0
CLASS
  1
EXACXREFPANELOBJECT
  2
ExAcXREFPanelObject
  3
EXAC_ESW
 90
     1025
280
     0
281
     0
  0
CLASS
  1
NPOCOLLECTION
  2
AcDbImpNonPersistentObjectsCollection
  3
ObjectDBX Classes
 90
     1153
280
     0
281
     0
  0
CLASS
  1
ACMSTANDARDISO
  2
AcmStandardISO
  3
"Amdt_StdImp|Product Description: AutoCAD Mechanical|Company: Autodesk, Inc."
 90
     1024
280
     0
281
     0
  0
CLASS
  1
AMDTEDGESTANDARDISO13715
  2
AmdtEdgeStdISO13715
  3
"Amdt_StdImp|Product Description: AutoCAD Mechanical|Company: Autodesk, Inc."
 90
     1024
280
     0
281
     0
  0
CLASS
  1
ACMSURFSTANDARDISO2002
  2
AcmSurfTextStdISO2002
  3
"Amdt_StdImp|Product Description: AutoCAD Mechanical|Company: Autodesk, Inc."
 90
     1024
280
     0
281
     0
  0
CLASS
  1
ACMFCFSTANDARDISO
  2
AcmFCFStdISO
  3
"Amdt_StdImp|Product Description: AutoCAD Mechanical|Company: Autodesk, Inc."
 90
     1024
280
     0
281
     0
  0
CLASS
  1
ACMWELDSTANDARDISO
  2
AcmWeldingStdISO
  3
"Amdt_StdImp|Product Description: AutoCAD Mechanical|Company: Autodesk, Inc."
 90
     1024
280
     0
281
     0
  0
CLASS
  1
ACMIDSTANDARDISO
  2
AcmIdStdISO
  3
"Amdt_StdImp|Product Description: AutoCAD Mechanical|Company: Autodesk, Inc."
 90
     1024
280
     0
281
     0
  0
CLASS
  1
ACMDATUMSTANDARDISO
  2
AcmDatumStdISO
  3
"Amdt_StdImp|Product Description: AutoCAD Mechanical|Company: Autodesk, Inc."
 90
     1024
280
     0
281
     0
  0
CLASS
  1
ACMBOMSTANDARDISO
  2
AcmBOMStdISO
  3
"Amdt_StdImp|Product Description: AutoCAD Mechanical|Company: Autodesk, Inc."
 90
     1024
280
     0
281
     0
  0
CLASS
  1
ACMDETAILSTANDARDISO
  2
AmdtDetailSymStdISO
  3
"Amdt_StdImp|Product Description: AutoCAD Mechanical|Company: Autodesk, Inc."
 90
     1024
280
     0
281
     0
  0
CLASS
  1
ACMSECTIONSTANDARDISO2001
  2
AmdtSectionSymStdISO2001
  3
"Amdt_StdImp|Product Description: AutoCAD Mechanical|Company: Autodesk, Inc."
 90
     1024
280
     0
281
     0
  0
CLASS
  1
ACMCENTERLINESTANDARDISO
  2
AmdtCenterLineStdISO
  3
"Amdt_StdImp|Product Description: AutoCAD Mechanical|Company: Autodesk, Inc."
 90
     1024
280
     0
281
     0
  0
CLASS
  1
ACMTHREADLINESTANDARDISO
  2
AmdtThreadLineStdISO
  3
"Amdt_StdImp|Product Description: AutoCAD Mechanical|Company: Autodesk, Inc."
 90
     1024
280
     0
281
     0
  0
CLASS
  1
ACMNOTESTANDARDISO
  2
AmdtNoteStdISO
  3
"Amdt_StdImp|Product Description: AutoCAD Mechanical|Company: Autodesk, Inc."
 90
     1024
280
     0
281
     0
  0
CLASS
  1
ACMTAPERSTANDARDISO
  2
AcmTaperStdISO
  3
"Amdt_StdImp|Product Description: AutoCAD Mechanical|Company: Autodesk, Inc."
 90
     1024
280
     0
281
     0
  0
CLASS
  1
ACMANOOTATIONVIEWSTANDARDISO
  2
AmdtAnViewStdISO
  3
"Amdt_StdImp|Product Description: AutoCAD Mechanical|Company: Autodesk, Inc."
 90
     1024
280
     0
281
     0
  0
CLASS
  1
ACAMGLAYSTD
  2
AcAmgLayStd
  3
"AmgLay|Product Description: AutoCAD Mechanical|Company: Autodesk, Inc."
 90
     1024
280
     0
281
     0
  0
CLASS
  1
ACAMGDIMSTD
  2
AcAmgDimStd
  3
"AmgDim|Product Description: AutoCAD Mechanical|Company: Autodesk, Inc."
 90
     1024
280
     0
281
     0
  0
CLASS
  1
ACAMGHOLECHARTSTDISO
  2
AcAmgHoleChartStdISO
  3
AmgDim|Product Description: AutoCAD Mechanical|Company: Autodesk, Inc.
 90
     1024
280
     0
281
     0
  0
CLASS
  1
AMGOBJPROPCFG
  2
AmgObjPropCfg
  3
"AmgLay|Product Description: AutoCAD Mechanical|Company: Autodesk, Inc."
 90
     1025
280
     0
281
     0
  0
CLASS
  1
ACAMGTITLESTD
  2
AcAmgTitleStd
  3
"AmgTitle|Product Description: AutoCAD Mechanical|Company: Autodesk, Inc."
 90
     4095
280
     0
281
     0
  0
CLASS
  1
AMDTNOTETEMPLATEDB
  2
AmdtNoteTemplateDB
  3
AcmSymBB|Product Description: AutoCAD Mechanical|Company: Autodesk, Inc.
 90
     1024
280
     0
281
     0
  0
CLASS
  1
ACAMGFILTERDAT
  2
AcAmgFilterDat
  3
"AcadM|Product Description: AutoCAD Mechanical|Company: Autodesk, Inc."
 90
     1024
280
     0
281
     0
  0
ENDSEC
  0
SECTION
  2
TABLES
  0
TABLE
  2
VPORT
  5
8
102
{ACAD_XDICTIONARY
360
AA1
102
}
330
0
100
AcDbSymbolTable
 70
     1
  0
VPORT
  5
62
330
8
100
AcDbSymbolTableRecord
100
AcDbViewportTableRecord
  2
*Active
 70
     0
 10
0.0
 20
0.0
 11
1.0
 21
1.0
 12
344.8636355342086
 22
303.5454527098178
 13
0.0
 23
0.0
 14
1.0
 24
1.0
 15
0.0
 25
0.0
 16
0.0
 26
0.0
 36
1.0
 17
0.0
 27
0.0
 37
0.0
 40
593.9999997233992
 41
1.610192837465564
 42
50.0
 43
0.0
 44
0.0
 50
0.0
 51
0.0
 71
     0
 72
   100
 73
     1
 74
     1
 75
     0
 76
     0
 77
     0
 78
     0
281
     0
 65
     1
110
0.0
120
0.0
130
0.0
111
1.0
121
0.0
131
0.0
112
0.0
122
1.0
132
0.0
 79
     0
146
0.0
  0
ENDTAB
  0
TABLE
  2
LTYPE
  5
5
330
0
100
AcDbSymbolTable
 70
    69
  0
LTYPE
  5
66
330
5
100
AcDbSymbolTableRecord
100
AcDbLinetypeTableRecord
  2
ByBlock
 70
     0
  3

 72
    65
 73
     0
 40
0.0
  0
LTYPE
  5
67
330
5
100
AcDbSymbolTableRecord
100
AcDbLinetypeTableRecord
  2
ByLayer
 70
     0
  3

 72
    65
 73
     0
 40
0.0
  0
LTYPE
  5
68
330
5
100
AcDbSymbolTableRecord
100
AcDbLinetypeTableRecord
  2
Continuous
 70
     0
  3
Solid line
 72
    65
 73
     0
 40
0.0
  0
LTYPE
  5
7F
330
5
100
AcDbSymbolTableRecord
100
AcDbLinetypeTableRecord
  2
Section_View_Lines
 70
     0
  3
Section View Lines
 72
    65
 73
     4
 40
0.8406
 49
0.6614
 74
     0
 49
-0.0827
 74
     0
 49
0.0138
 74
     0
 49
-0.0827
 74
     0
  0
LTYPE
  5
80
330
5
100
AcDbSymbolTableRecord
100
AcDbLinetypeTableRecord
  2
CHAIN
 70
     0
  3
Chain ____ _ ____ _ ____ _ ____ _ ____ _ ____
 72
    65
 73
     4
 40
0.3543
 49
0.2362
 74
     0
 49
-0.0295
 74
     0
 49
0.0591
 74
     0
 49
-0.0295
 74
     0
  0
LTYPE
  5
81
330
5
100
AcDbSymbolTableRecord
100
AcDbLinetypeTableRecord
  2
DASH_DOT
 70
     0
  3
Dash dot _._._._._._._._._._._._._._._.
 72
    65
 73
     4
 40
0.182
 49
0.1181
 74
     0
 49
-0.0295
 74
     0
 49
0.0049
 74
     0
 49
-0.0295
 74
     0
  0
LTYPE
  5
82
330
5
100
AcDbSymbolTableRecord
100
AcDbLinetypeTableRecord
  2
DASH_DOUBLE_DOT
 70
     0
  3
Dash Double Dot __ __ . __ __ . __ __ . __ _
 72
    65
 73
     6
 40
0.2164
 49
0.1181
 74
     0
 49
-0.0295
 74
     0
 49
0.0049
 74
     0
 49
-0.0295
 74
     0
 49
0.0049
 74
     0
 49
-0.0295
 74
     0
  0
LTYPE
  5
83
330
5
100
AcDbSymbolTableRecord
100
AcDbLinetypeTableRecord
  2
DASH_TRIPLE_DOT
 70
     0
  3
Dash Triple-Dot _ . . . _ . . . _ . . . _
 72
    65
 73
     8
 40
0.2508
 49
0.1181
 74
     0
 49
-0.0295
 74
     0
 49
0.0049
 74
     0
 49
-0.0295
 74
     0
 49
0.0049
 74
     0
 49
-0.0295
 74
     0
 49
0.0049
 74
     0
 49
-0.0295
 74
     0
  0
LTYPE
  5
84
330
5
100
AcDbSymbolTableRecord
100
AcDbLinetypeTableRecord
  2
DASHED
 70
     0
  3
Dashed __ __ __ __ __ __ __ __ __ __ __ __ __ _
 72
    65
 73
     2
 40
0.2068
 49
0.1655
 74
     0
 49
-0.0413
 74
     0
  0
LTYPE
  5
85
330
5
100
AcDbSymbolTableRecord
100
AcDbLinetypeTableRecord
  2
DASHED_SPACE
 70
     0
  3
Dashed Space __ __ __ __ __ __ __ __ __ __ __ _
 72
    65
 73
     2
 40
0.2067
 49
0.1654
 74
     0
 49
-0.0413
 74
     0
  0
LTYPE
  5
86
330
5
100
AcDbSymbolTableRecord
100
AcDbLinetypeTableRecord
  2
DOTTED
 70
     0
  3
Dotted . . . . . . . . . . . . . . . . . . . . 
 72
    65
 73
     2
 40
0.0481
 49
0.0068
 74
     0
 49
-0.0413
 74
     0
  0
LTYPE
  5
87
330
5
100
AcDbSymbolTableRecord
100
AcDbLinetypeTableRecord
  2
DOUBLE_DASH_CHAIN
 70
     0
  3
Double Dash Chain ___ _ _ ___ _ _ ___ _ _ ___ _
 72
    65
 73
     6
 40
1.240299999999999
 49
0.6614
 74
     0
 49
-0.0827
 74
     0
 49
0.1654
 74
     0
 49
-0.0827
 74
     0
 49
0.1654
 74
     0
 49
-0.0827
 74
     0
  0
LTYPE
  5
88
330
5
100
AcDbSymbolTableRecord
100
AcDbLinetypeTableRecord
  2
DOUBLE_DASH_DOT
 70
     0
  3
Double Dash Dot __ __ . __ __ . __ __ . __ _
 72
    65
 73
     6
 40
0.3296
 49
0.1181
 74
     0
 49
-0.0295
 74
     0
 49
0.1181
 74
     0
 49
-0.0295
 74
     0
 49
0.0049
 74
     0
 49
-0.0295
 74
     0
  0
LTYPE
  5
89
330
5
100
AcDbSymbolTableRecord
100
AcDbLinetypeTableRecord
  2
DOUBLE_DASH_DOUBLE_DOT
 70
     0
  3
Double Dash Double Dot _ _ . . _ _ . . _ _
 72
    65
 73
     8
 40
0.364
 49
0.1181
 74
     0
 49
-0.0295
 74
     0
 49
0.1181
 74
     0
 49
-0.0295
 74
     0
 49
0.0049
 74
     0
 49
-0.0295
 74
     0
 49
0.0049
 74
     0
 49
-0.0295
 74
     0
  0
LTYPE
  5
8A
330
5
100
AcDbSymbolTableRecord
100
AcDbLinetypeTableRecord
  2
DOUBLE_DASH_TRIPLE_DOT
 70
     0
  3
Double Dash Triple Dot __ __ . . . __ __ . . .
 72
    65
 73
    10
 40
0.3984
 49
0.1181
 74
     0
 49
-0.0295
 74
     0
 49
0.1181
 74
     0
 49
-0.0295
 74
     0
 49
0.0049
 74
     0
 49
-0.0295
 74
     0
 49
0.0049
 74
     0
 49
-0.0295
 74
     0
 49
0.0049
 74
     0
 49
-0.0295
 74
     0
  0
LTYPE
  5
8B
330
5
100
AcDbSymbolTableRecord
100
AcDbLinetypeTableRecord
  2
LONG_DASH_DOTTED
 70
     0
  3
Long Dash Dotted ____ . ____ . ____ . ____ . _
 72
    65
 73
     4
 40
0.3001
 49
0.2362
 74
     0
 49
-0.0295
 74
     0
 49
0.0049
 74
     0
 49
-0.0295
 74
     0
  0
LTYPE
  5
8C
330
5
100
AcDbSymbolTableRecord
100
AcDbLinetypeTableRecord
  2
LONG_DASH_DOUBLE_DOT
 70
     0
  3
Long Dash Double Dot ____ . . ____ . . ____ . .
 72
    65
 73
     6
 40
0.3345
 49
0.2362
 74
     0
 49
-0.0295
 74
     0
 49
0.0049
 74
     0
 49
-0.0295
 74
     0
 49
0.0049
 74
     0
 49
-0.0295
 74
     0
  0
LTYPE
  5
8D
330
5
100
AcDbSymbolTableRecord
100
AcDbLinetypeTableRecord
  2
LONG_DASH_TRIPLE_DOT
 70
     0
  3
Long Dash Triple Dot ____ ... ____ ... ____
 72
    65
 73
     8
 40
0.3689
 49
0.2362
 74
     0
 49
-0.0295
 74
     0
 49
0.0049
 74
     0
 49
-0.0295
 74
     0
 49
0.0049
 74
     0
 49
-0.0295
 74
     0
 49
0.0049
 74
     0
 49
-0.0295
 74
     0
  0
LTYPE
  5
8E
330
5
100
AcDbSymbolTableRecord
100
AcDbLinetypeTableRecord
  2
BORDER
 70
     0
  3
Border __ __ . __ __ . __ __ . __ __ . __ __ .
 72
    65
 73
     6
 40
44.45
 49
12.7
 74
     0
 49
-6.349999999999999
 74
     0
 49
12.7
 74
     0
 49
-6.349999999999999
 74
     0
 49
0.0
 74
     0
 49
-6.349999999999999
 74
     0
  0
LTYPE
  5
8F
330
5
100
AcDbSymbolTableRecord
100
AcDbLinetypeTableRecord
  2
BORDER2
 70
     0
  3
Border (.5x) __.__.__.__.__.__.__.__.__.__.__.
 72
    65
 73
     6
 40
22.225
 49
6.349999999999999
 74
     0
 49
-3.174999999999999
 74
     0
 49
6.349999999999999
 74
     0
 49
-3.174999999999999
 74
     0
 49
0.0
 74
     0
 49
-3.174999999999999
 74
     0
  0
LTYPE
  5
90
330
5
100
AcDbSymbolTableRecord
100
AcDbLinetypeTableRecord
  2
BORDERX2
 70
     0
  3
Border (2x) ____  ____  .  ____  ____  .  ___
 72
    65
 73
     6
 40
88.9
 49
25.4
 74
     0
 49
-12.7
 74
     0
 49
25.4
 74
     0
 49
-12.7
 74
     0
 49
0.0
 74
     0
 49
-12.7
 74
     0
  0
LTYPE
  5
91
330
5
100
AcDbSymbolTableRecord
100
AcDbLinetypeTableRecord
  2
CENTER
 70
     0
  3
Center ____ _ ____ _ ____ _ ____ _ ____ _ ____
 72
    65
 73
     4
 40
50.8
 49
31.75
 74
     0
 49
-6.349999999999999
 74
     0
 49
6.349999999999999
 74
     0
 49
-6.349999999999999
 74
     0
  0
LTYPE
  5
92
330
5
100
AcDbSymbolTableRecord
100
AcDbLinetypeTableRecord
  2
CENTER2
 70
     0
  3
Center (.5x) ___ _ ___ _ ___ _ ___ _ ___ _ ___
 72
    65
 73
     4
 40
28.575
 49
19.05
 74
     0
 49
-3.174999999999999
 74
     0
 49
3.174999999999999
 74
     0
 49
-3.174999999999999
 74
     0
  0
LTYPE
  5
93
330
5
100
AcDbSymbolTableRecord
100
AcDbLinetypeTableRecord
  2
CENTERX2
 70
     0
  3
Center (2x) ________  __  ________  __  _____
 72
    65
 73
     4
 40
101.6
 49
63.5
 74
     0
 49
-12.7
 74
     0
 49
12.7
 74
     0
 49
-12.7
 74
     0
  0
LTYPE
  5
94
330
5
100
AcDbSymbolTableRecord
100
AcDbLinetypeTableRecord
  2
DASHDOT2
 70
     0
  3
Dash dot (.5x) _._._._._._._._._._._._._._._.
 72
    65
 73
     4
 40
12.7
 49
6.349999999999999
 74
     0
 49
-3.174999999999999
 74
     0
 49
0.0
 74
     0
 49
-3.174999999999999
 74
     0
  0
LTYPE
  5
95
330
5
100
AcDbSymbolTableRecord
100
AcDbLinetypeTableRecord
  2
DASHDOTX2
 70
     0
  3
Dash dot (2x) ____  .  ____  .  ____  .  ___
 72
    65
 73
     4
 40
50.8
 49
25.4
 74
     0
 49
-12.7
 74
     0
 49
0.0
 74
     0
 49
-12.7
 74
     0
  0
LTYPE
  5
96
330
5
100
AcDbSymbolTableRecord
100
AcDbLinetypeTableRecord
  2
DASHED2
 70
     0
  3
Dashed (.5x) _ _ _ _ _ _ _ _ _ _ _ _ _ _ _ _ _
 72
    65
 73
     2
 40
9.524999999999998
 49
6.349999999999999
 74
     0
 49
-3.174999999999999
 74
     0
  0
LTYPE
  5
97
330
5
100
AcDbSymbolTableRecord
100
AcDbLinetypeTableRecord
  2
DASHEDX2
 70
     0
  3
Dashed (2x) ____  ____  ____  ____  ____  ___
 72
    65
 73
     2
 40
38.1
 49
25.4
 74
     0
 49
-12.7
 74
     0
  0
LTYPE
  5
98
330
5
100
AcDbSymbolTableRecord
100
AcDbLinetypeTableRecord
  2
DIVIDE
 70
     0
  3
Divide ____ . . ____ . . ____ . . ____ . . ____
 72
    65
 73
     6
 40
31.75
 49
12.7
 74
     0
 49
-6.349999999999999
 74
     0
 49
0.0
 74
     0
 49
-6.349999999999999
 74
     0
 49
0.0
 74
     0
 49
-6.349999999999999
 74
     0
  0
LTYPE
  5
99
330
5
100
AcDbSymbolTableRecord
100
AcDbLinetypeTableRecord
  2
DIVIDE2
 70
     0
  3
Divide (.5x) __..__..__..__..__..__..__..__.._
 72
    65
 73
     6
 40
15.875
 49
6.349999999999999
 74
     0
 49
-3.174999999999999
 74
     0
 49
0.0
 74
     0
 49
-3.174999999999999
 74
     0
 49
0.0
 74
     0
 49
-3.174999999999999
 74
     0
  0
LTYPE
  5
9A
330
5
100
AcDbSymbolTableRecord
100
AcDbLinetypeTableRecord
  2
DIVIDEX2
 70
     0
  3
Divide (2x) ________  .  .  ________  .  .  _
 72
    65
 73
     6
 40
63.49999999999999
 49
25.4
 74
     0
 49
-12.7
 74
     0
 49
0.0
 74
     0
 49
-12.7
 74
     0
 49
0.0
 74
     0
 49
-12.7
 74
     0
  0
LTYPE
  5
9B
330
5
100
AcDbSymbolTableRecord
100
AcDbLinetypeTableRecord
  2
DOT
 70
     0
  3
Dot . . . . . . . . . . . . . . . . . . . . . .
 72
    65
 73
     2
 40
6.349999999999999
 49
0.0
 74
     0
 49
-6.349999999999999
 74
     0
  0
LTYPE
  5
9C
330
5
100
AcDbSymbolTableRecord
100
AcDbLinetypeTableRecord
  2
DOT2
 70
     0
  3
Dot (.5x) .....................................
 72
    65
 73
     2
 40
3.174999999999999
 49
0.0
 74
     0
 49
-3.174999999999999
 74
     0
  0
LTYPE
  5
9D
330
5
100
AcDbSymbolTableRecord
100
AcDbLinetypeTableRecord
  2
DOTX2
 70
     0
  3
Dot (2x) .  .  .  .  .  .  .  .  .  .  .  .  . 
 72
    65
 73
     2
 40
12.7
 49
0.0
 74
     0
 49
-12.7
 74
     0
  0
LTYPE
  5
9E
330
5
100
AcDbSymbolTableRecord
100
AcDbLinetypeTableRecord
  2
HIDDEN
 70
     0
  3
Hidden __ __ __ __ __ __ __ __ __ __ __ __ __ _
 72
    65
 73
     2
 40
9.524999999999998
 49
6.349999999999999
 74
     0
 49
-3.174999999999999
 74
     0
  0
LTYPE
  5
9F
330
5
100
AcDbSymbolTableRecord
100
AcDbLinetypeTableRecord
  2
HIDDEN2
 70
     0
  3
Hidden (.5x) _ _ _ _ _ _ _ _ _ _ _ _ _ _ _ _ _
 72
    65
 73
     2
 40
4.762499999999999
 49
3.174999999999999
 74
     0
 49
-1.587499999999999
 74
     0
  0
LTYPE
  5
A0
330
5
100
AcDbSymbolTableRecord
100
AcDbLinetypeTableRecord
  2
HIDDENX2
 70
     0
  3
Hidden (2x) ____ ____ ____ ____ ____ ____ ____
 72
    65
 73
     2
 40
19.05
 49
12.7
 74
     0
 49
-6.349999999999999
 74
     0
  0
LTYPE
  5
A1
330
5
100
AcDbSymbolTableRecord
100
AcDbLinetypeTableRecord
  2
PHANTOM
 70
     0
  3
Phantom ______  __  __  ______  __  __  ______
 72
    65
 73
     6
 40
63.5
 49
31.75
 74
     0
 49
-6.349999999999999
 74
     0
 49
6.349999999999999
 74
     0
 49
-6.349999999999999
 74
     0
 49
6.349999999999999
 74
     0
 49
-6.349999999999999
 74
     0
  0
LTYPE
  5
A2
330
5
100
AcDbSymbolTableRecord
100
AcDbLinetypeTableRecord
  2
PHANTOM2
 70
     0
  3
Phantom (.5x) ___ _ _ ___ _ _ ___ _ _ ___ _ _
 72
    65
 73
     6
 40
31.75
 49
15.875
 74
     0
 49
-3.174999999999999
 74
     0
 49
3.174999999999999
 74
     0
 49
-3.174999999999999
 74
     0
 49
3.174999999999999
 74
     0
 49
-3.174999999999999
 74
     0
  0
LTYPE
  5
A3
330
5
100
AcDbSymbolTableRecord
100
AcDbLinetypeTableRecord
  2
PHANTOMX2
 70
     0
  3
Phantom (2x) ____________    ____    ____   _
 72
    65
 73
     6
 40
127.0
 49
63.5
 74
     0
 49
-12.7
 74
     0
 49
12.7
 74
     0
 49
-12.7
 74
     0
 49
12.7
 74
     0
 49
-12.7
 74
     0
  0
LTYPE
  5
A4
330
5
100
AcDbSymbolTableRecord
100
AcDbLinetypeTableRecord
  2
ACAD_ISO02W100
 70
     0
  3
ISO dash __ __ __ __ __ __ __ __ __ __ __ __ __
 72
    65
 73
     2
 40
15.0
 49
12.0
 74
     0
 49
-3.0
 74
     0
  0
LTYPE
  5
A5
330
5
100
AcDbSymbolTableRecord
100
AcDbLinetypeTableRecord
  2
ACAD_ISO03W100
 70
     0
  3
ISO dash space __    __    __    __    __    __
 72
    65
 73
     2
 40
30.0
 49
12.0
 74
     0
 49
-18.0
 74
     0
  0
LTYPE
  5
A6
330
5
100
AcDbSymbolTableRecord
100
AcDbLinetypeTableRecord
  2
ACAD_ISO04W100
 70
     0
  3
ISO long-dash dot ____ . ____ . ____ . ____ . _
 72
    65
 73
     4
 40
30.0
 49
24.0
 74
     0
 49
-3.0
 74
     0
 49
0.0
 74
     0
 49
-3.0
 74
     0
  0
LTYPE
  5
A7
330
5
100
AcDbSymbolTableRecord
100
AcDbLinetypeTableRecord
  2
ACAD_ISO05W100
 70
     0
  3
ISO long-dash double-dot ____ .. ____ .. ____ .
 72
    65
 73
     6
 40
33.0
 49
24.0
 74
     0
 49
-3.0
 74
     0
 49
0.0
 74
     0
 49
-3.0
 74
     0
 49
0.0
 74
     0
 49
-3.0
 74
     0
  0
LTYPE
  5
A8
330
5
100
AcDbSymbolTableRecord
100
AcDbLinetypeTableRecord
  2
ACAD_ISO06W100
 70
     0
  3
ISO long-dash triple-dot ____ ... ____ ... ____
 72
    65
 73
     8
 40
36.0
 49
24.0
 74
     0
 49
-3.0
 74
     0
 49
0.0
 74
     0
 49
-3.0
 74
     0
 49
0.0
 74
     0
 49
-3.0
 74
     0
 49
0.0
 74
     0
 49
-3.0
 74
     0
  0
LTYPE
  5
A9
330
5
100
AcDbSymbolTableRecord
100
AcDbLinetypeTableRecord
  2
ACAD_ISO07W100
 70
     0
  3
ISO dot . . . . . . . . . . . . . . . . . . . .
 72
    65
 73
     2
 40
3.0
 49
0.0
 74
     0
 49
-3.0
 74
     0
  0
LTYPE
  5
AA
330
5
100
AcDbSymbolTableRecord
100
AcDbLinetypeTableRecord
  2
ACAD_ISO08W100
 70
     0
  3
ISO long-dash short-dash ____ __ ____ __ ____ _
 72
    65
 73
     4
 40
36.0
 49
24.0
 74
     0
 49
-3.0
 74
     0
 49
6.0
 74
     0
 49
-3.0
 74
     0
  0
LTYPE
  5
AB
330
5
100
AcDbSymbolTableRecord
100
AcDbLinetypeTableRecord
  2
ACAD_ISO09W100
 70
     0
  3
ISO long-dash double-short-dash ____ __ __ ____
 72
    65
 73
     6
 40
45.0
 49
24.0
 74
     0
 49
-3.0
 74
     0
 49
6.0
 74
     0
 49
-3.0
 74
     0
 49
6.0
 74
     0
 49
-3.0
 74
     0
  0
LTYPE
  5
AC
330
5
100
AcDbSymbolTableRecord
100
AcDbLinetypeTableRecord
  2
ACAD_ISO10W100
 70
     0
  3
ISO dash dot __ . __ . __ . __ . __ . __ . __ .
 72
    65
 73
     4
 40
18.0
 49
12.0
 74
     0
 49
-3.0
 74
     0
 49
0.0
 74
     0
 49
-3.0
 74
     0
  0
LTYPE
  5
AD
330
5
100
AcDbSymbolTableRecord
100
AcDbLinetypeTableRecord
  2
ACAD_ISO11W100
 70
     0
  3
ISO double-dash dot __ __ . __ __ . __ __ . __ 
 72
    65
 73
     6
 40
33.0
 49
12.0
 74
     0
 49
-3.0
 74
     0
 49
12.0
 74
     0
 49
-3.0
 74
     0
 49
0.0
 74
     0
 49
-3.0
 74
     0
  0
LTYPE
  5
AE
330
5
100
AcDbSymbolTableRecord
100
AcDbLinetypeTableRecord
  2
ACAD_ISO12W100
 70
     0
  3
ISO dash double-dot __ . . __ . . __ . . __ . .
 72
    65
 73
     6
 40
21.0
 49
12.0
 74
     0
 49
-3.0
 74
     0
 49
0.0
 74
     0
 49
-3.0
 74
     0
 49
0.0
 74
     0
 49
-3.0
 74
     0
  0
LTYPE
  5
AF
330
5
100
AcDbSymbolTableRecord
100
AcDbLinetypeTableRecord
  2
ACAD_ISO13W100
 70
     0
  3
ISO double-dash double-dot __ __ . . __ __ . . 
 72
    65
 73
     8
 40
36.0
 49
12.0
 74
     0
 49
-3.0
 74
     0
 49
12.0
 74
     0
 49
-3.0
 74
     0
 49
0.0
 74
     0
 49
-3.0
 74
     0
 49
0.0
 74
     0
 49
-3.0
 74
     0
  0
LTYPE
  5
B0
330
5
100
AcDbSymbolTableRecord
100
AcDbLinetypeTableRecord
  2
ACAD_ISO14W100
 70
     0
  3
ISO dash triple-dot __ . . . __ . . . __ . . . 
 72
    65
 73
     8
 40
24.0
 49
12.0
 74
     0
 49
-3.0
 74
     0
 49
0.0
 74
     0
 49
-3.0
 74
     0
 49
0.0
 74
     0
 49
-3.0
 74
     0
 49
0.0
 74
     0
 49
-3.0
 74
     0
  0
LTYPE
  5
B1
330
5
100
AcDbSymbolTableRecord
100
AcDbLinetypeTableRecord
  2
ACAD_ISO15W100
 70
     0
  3
ISO double-dash triple-dot __ __ . . . __ __ . 
 72
    65
 73
    10
 40
39.0
 49
12.0
 74
     0
 49
-3.0
 74
     0
 49
12.0
 74
     0
 49
-3.0
 74
     0
 49
0.0
 74
     0
 49
-3.0
 74
     0
 49
0.0
 74
     0
 49
-3.0
 74
     0
 49
0.0
 74
     0
 49
-3.0
 74
     0
  0
LTYPE
  5
B4
330
5
100
AcDbSymbolTableRecord
100
AcDbLinetypeTableRecord
  2
FENCELINE1
 70
     0
  3
Fenceline circle ----0-----0----0-----0----0---
 72
    65
 73
     4
 40
36.83
 49
6.349999999999999
 74
     0
 49
-2.54
 74
     4
 75
   133
340
B3
 46
2.54
 50
0.0
 44
-2.54
 45
0.0
 49
-2.54
 74
     0
 49
25.4
 74
     0
  0
LTYPE
  5
B5
330
5
100
AcDbSymbolTableRecord
100
AcDbLinetypeTableRecord
  2
FENCELINE2
 70
     0
  3
Fenceline square ----[]-----[]----[]-----[]----
 72
    65
 73
     4
 40
36.83
 49
6.349999999999999
 74
     0
 49
-2.54
 74
     4
 75
   132
340
B3
 46
2.54
 50
0.0
 44
-2.54
 45
0.0
 49
-2.54
 74
     0
 49
25.4
 74
     0
  0
LTYPE
  5
B6
330
5
100
AcDbSymbolTableRecord
100
AcDbLinetypeTableRecord
  2
TRACKS
 70
     0
  3
Tracks -|-|-|-|-|-|-|-|-|-|-|-|-|-|-|-|-|-|-|-|
 72
    65
 73
     2
 40
7.62
 49
3.81
 74
     4
 75
   130
340
B3
 46
6.349999999999999
 50
0.0
 44
0.0
 45
0.0
 49
3.81
 74
     0
  0
LTYPE
  5
B7
330
5
100
AcDbSymbolTableRecord
100
AcDbLinetypeTableRecord
  2
BATTING
 70
     0
  3
Batting SSSSSSSSSSSSSSSSSSSSSSSSSSSSSSSSSSSSSSS
 72
    65
 73
     4
 40
10.16254
 49
0.00254
 74
     0
 49
-2.54
 74
     4
 75
   134
340
B3
 46
2.54
 50
0.0
 44
-2.54
 45
0.0
 49
-5.08
 74
     4
 75
   134
340
B3
 46
2.54
 50
180.0
 44
2.54
 45
0.0
 49
-2.54
 74
     0
  0
LTYPE
  5
B8
330
5
100
AcDbSymbolTableRecord
100
AcDbLinetypeTableRecord
  2
HOT_WATER_SUPPLY
 70
     0
  3
Hot water supply ---- HW ---- HW ---- HW ----
 72
    65
 73
     3
 40
22.86
 49
12.7
 74
     0
 49
-5.08
 74
     2
 75
     0
340
60
 46
2.54
 50
0.0
 44
-2.54
 45
-1.27
  9
HW
 49
-5.08
 74
     0
  0
LTYPE
  5
B9
330
5
100
AcDbSymbolTableRecord
100
AcDbLinetypeTableRecord
  2
GAS_LINE
 70
     0
  3
Gas line ----GAS----GAS----GAS----GAS----GAS---
 72
    65
 73
     3
 40
24.13
 49
12.7
 74
     0
 49
-5.08
 74
     2
 75
     0
340
60
 46
2.54
 50
0.0
 44
-2.54
 45
-1.27
  9
GAS
 49
-6.349999999999999
 74
     0
  0
LTYPE
  5
BA
330
5
100
AcDbSymbolTableRecord
100
AcDbLinetypeTableRecord
  2
ZIGZAG
 70
     0
  3
Zig zag /\/\/\/\/\/\/\/\/\/\/\/\/\/\/\/\/\/\/\/
 72
    65
 73
     4
 40
20.32254
 49
0.00254
 74
     0
 49
-5.08
 74
     4
 75
   131
340
B3
 46
5.08
 50
0.0
 44
-5.08
 45
0.0
 49
-10.16
 74
     4
 75
   131
340
B3
 46
5.08
 50
180.0
 44
5.08
 45
0.0
 49
-5.08
 74
     0
  0
LTYPE
  5
B7C
330
5
100
AcDbSymbolTableRecord
100
AcDbLinetypeTableRecord
  2
AM_ISO02W050
 70
     0
  3
__ __ __ __ __ __ __ __ __ __ __ __ __ __ __
 72
    65
 73
     2
 40
7.5
 49
6.0
 74
     0
 49
-1.5
 74
     0
  0
LTYPE
  5
B7D
330
5
100
AcDbSymbolTableRecord
100
AcDbLinetypeTableRecord
  2
AM_ISO08W050
 70
     0
  3
____ . ____ . ____ . ____ . ____ . ____ . ____
 72
    65
 73
     4
 40
18.0
 49
12.0
 74
     0
 49
-1.5
 74
     0
 49
3.0
 74
     0
 49
-1.5
 74
     0
  0
LTYPE
  5
B7E
330
5
100
AcDbSymbolTableRecord
100
AcDbLinetypeTableRecord
  2
AM_ISO09W050
 70
     0
  3
_____ . . _____ . . _____ . . ____ .. ____
 72
    65
 73
     6
 40
22.5
 49
12.0
 74
     0
 49
-1.5
 74
     0
 49
3.0
 74
     0
 49
-1.5
 74
     0
 49
3.0
 74
     0
 49
-1.5
 74
     0
  0
LTYPE
  5
B7F
330
5
100
AcDbSymbolTableRecord
100
AcDbLinetypeTableRecord
  2
Amconstr
 70
     0
  3
_______________________
 72
    65
 73
     2
 40
9999.0
 49
9999.0
 74
     0
 49
0.0
 74
     0
  0
LTYPE
  5
B80
330
5
100
AcDbSymbolTableRecord
100
AcDbLinetypeTableRecord
  2
AM_ISO08W050x2
 70
     0
  3
__ . __ . __ . __ . __ . __
 72
    65
 73
     4
 40
9.0
 49
6.0
 74
     0
 49
-0.75
 74
     0
 49
1.5
 74
     0
 49
-0.75
 74
     0
  0
LTYPE
  5
B81
330
5
100
AcDbSymbolTableRecord
100
AcDbLinetypeTableRecord
  2
AM_ISO02W050x2
 70
     0
  3
 _ _ _ _ _ _ _ _ _ _ _ _
 72
    65
 73
     2
 40
3.75
 49
3.0
 74
     0
 49
-0.75
 74
     0
  0
LTYPE
  5
B84
330
5
100
AcDbSymbolTableRecord
100
AcDbLinetypeTableRecord
  2
Amzigzag
 70
     0
  3
/\/-/\/-/\/-/\/-/\/-/\/
 72
    65
 73
     2
 40
11.0001
 49
0.0001
 74
     4
 75
   136
340
B83
 46
0.04
 50
0.0
 44
0.0
 45
0.0
 49
-11.0
 74
     0
  0
LTYPE
  5
B88
330
5
100
AcDbSymbolTableRecord
100
AcDbLinetypeTableRecord
  2
ACISOWELD
 70
     0
  3
_ _ _ _ _
 72
    65
 73
     2
 40
2.0
 49
2.0
 74
     0
 49
-1.0
 74
     0
  0
LTYPE
  5
B89
330
5
100
AcDbSymbolTableRecord
100
AcDbLinetypeTableRecord
  2
ACISOTGB
 70
     0
  3
__ . . __ . .
 72
    65
 73
     6
 40
9.0
 49
4.0
 74
     0
 49
-1.0
 74
     0
 49
1.0
 74
     0
 49
-1.0
 74
     0
 49
1.0
 74
     0
 49
-1.0
 74
     0
  0
LTYPE
  5
B8A
330
5
100
AcDbSymbolTableRecord
100
AcDbLinetypeTableRecord
  2
ACISOTGL
 70
     0
  3
_ _ _ _ _
 72
    65
 73
     2
 40
3.0
 49
2.0
 74
     0
 49
-1.0
 74
     0
  0
ENDTAB
  0
TABLE
  2
LAYER
  5
2
330
0
100
AcDbSymbolTable
 70
    11
  0
LAYER
  5
5F
330
2
100
AcDbSymbolTableRecord
100
AcDbLayerTableRecord
  2
0
 70
     0
 62
     7
  6
Continuous
370
    -3
390
F
  0
LAYER
  5
C1
330
2
100
AcDbSymbolTableRecord
100
AcDbLayerTableRecord
  2
Bordo_0
 70
     0
 62
   179
  6
Continuous
370
    50
390
F
  0
LAYER
  5
D3
330
2
100
AcDbSymbolTableRecord
100
AcDbLayerTableRecord
  2
Filettatura(ISO)
 70
     0
 62
   179
  6
Continuous
370
    18
390
F
  0
LAYER
  5
DF
330
2
100
AcDbSymbolTableRecord
100
AcDbLayerTableRecord
  2
Geometria schizzo(ISO)
 70
     0
 62
   179
  6
Continuous
370
    35
390
F
  0
LAYER
  5
E6
330
2
100
AcDbSymbolTableRecord
100
AcDbLayerTableRecord
  2
Linea del centro(ISO)
 70
     0
 62
   150
  6
LONG_DASH_DOTTED
370
    18
390
F
  0
LAYER
  5
135
330
2
100
AcDbSymbolTableRecord
100
AcDbLayerTableRecord
  2
Linee di interruzione(ISO)
 70
     0
 62
   179
  6
Continuous
370
    35
390
F
  0
LAYER
  5
15F
330
2
100
AcDbSymbolTableRecord
100
AcDbLayerTableRecord
  2
Quote(ISO)
 70
     0
 62
    96
  6
Continuous
370
    18
390
F
  0
LAYER
  5
165
330
2
100
AcDbSymbolTableRecord
100
AcDbLayerTableRecord
  2
Simboli(ISO)
 70
     0
 62
   179
  6
Continuous
370
    18
390
F
  0
LAYER
  5
18A
330
2
100
AcDbSymbolTableRecord
100
AcDbLayerTableRecord
  2
Spigoli visibili(ISO)
 70
     0
 62
   179
  6
Continuous
370
    35
390
F
  0
LAYER
  5
18C
330
2
100
AcDbSymbolTableRecord
100
AcDbLayerTableRecord
  2
Tratteggio
 70
     0
 62
   179
  6
Continuous
370
     9
390
F
  0
LAYER
  5
46A
330
2
100
AcDbSymbolTableRecord
100
AcDbLayerTableRecord
  2
Defpoints
 70
     0
 62
     7
  6
Continuous
290
     0
370
    -3
390
F
  0
ENDTAB
  0
TABLE
  2
STYLE
  5
3
330
0
100
AcDbSymbolTable
 70
    65
  0
STYLE
  5
60
330
3
100
AcDbSymbolTableRecord
100
AcDbTextStyleTableRecord
  2
Standard
 70
     0
 40
0.0
 41
1.0
 50
0.0
 71
     0
 42
0.2
  3
ARIAL.TTF
  4

1001
ACAD
1000
Arial
1071
      256
  0
STYLE
  5
65
330
3
100
AcDbSymbolTableRecord
100
AcDbTextStyleTableRecord
  2
Annotative
 70
     0
 40
0.0
 41
1.0
 50
0.0
 71
     0
 42
0.2
  3
txt
  4

1001
AcadAnnotative
1000
AnnotativeData
1002
{
1070
     1
1070
     1
1002
}
  0
STYLE
  5
B3
330
3
100
AcDbSymbolTableRecord
100
AcDbTextStyleTableRecord
  2

 70
     1
 40
0.0
 41
1.0
 50
0.0
 71
     0
 42
0.2
  3
ltypeshp.shx
  4

  0
STYLE
  5
18D
330
3
100
AcDbSymbolTableRecord
100
AcDbTextStyleTableRecord
  2
Bordo_1
 70
     0
 40
0.0
 41
1.0
 50
0.0
 71
     0
 42
0.2
  3
ARIAL.TTF
  4

1001
ACAD
1000
Arial
1071
      256
  0
STYLE
  5
18E
330
3
100
AcDbSymbolTableRecord
100
AcDbTextStyleTableRecord
  2
Corrente-ANSI
 70
     0
 40
0.0
 41
1.0
 50
0.0
 71
     0
 42
0.2
  3
ARIAL.TTF
  4

1001
ACAD
1000
Arial
1071
      256
  0
STYLE
  5
18F
330
3
100
AcDbSymbolTableRecord
100
AcDbTextStyleTableRecord
  2
Corrente-BSI
 70
     0
 40
0.0
 41
1.0
 50
0.0
 71
     0
 42
0.2
  3
ARIAL.TTF
  4

1001
ACAD
1000
Arial
1071
      256
  0
STYLE
  5
190
330
3
100
AcDbSymbolTableRecord
100
AcDbTextStyleTableRecord
  2
Corrente-DIN
 70
     0
 40
0.0
 41
1.0
 50
0.0
 71
     0
 42
0.2
  3
ARIAL.TTF
  4

1001
ACAD
1000
Arial
1071
      256
  0
STYLE
  5
191
330
3
100
AcDbSymbolTableRecord
100
AcDbTextStyleTableRecord
  2
Corrente-GB
 70
     0
 40
0.0
 41
1.0
 50
0.0
 71
     0
 42
0.2
  3
ARIAL.TTF
  4

1001
ACAD
1000
Arial
1071
      256
  0
STYLE
  5
192
330
3
100
AcDbSymbolTableRecord
100
AcDbTextStyleTableRecord
  2
Corrente-ISO
 70
     0
 40
0.0
 41
1.0
 50
0.0
 71
     0
 42
0.2
  3
ARIAL.TTF
  4

1001
ACAD
1000
Arial
1071
      256
  0
STYLE
  5
193
330
3
100
AcDbSymbolTableRecord
100
AcDbTextStyleTableRecord
  2
Corrente-JIS
 70
     0
 40
0.0
 41
1.0
 50
0.0
 71
     0
 42
0.2
  3
ARIAL.TTF
  4

1001
ACAD
1000
Arial
1071
      256
  0
STYLE
  5
194
330
3
100
AcDbSymbolTableRecord
100
AcDbTextStyleTableRecord
  2
DEFAULT-ANSI
 70
     0
 40
0.0
 41
1.0
 50
0.0
 71
     0
 42
0.2
  3
ARIAL.TTF
  4

1001
ACAD
1000
Arial
1071
      256
  0
STYLE
  5
195
330
3
100
AcDbSymbolTableRecord
100
AcDbTextStyleTableRecord
  2
DEFAULT-ANSI~0
 70
     0
 40
0.0
 41
1.0
 50
0.0
 71
     0
 42
0.2
  3
ARIAL.TTF
  4

1001
ACAD
1000
Arial
1071
      256
  0
STYLE
  5
196
330
3
100
AcDbSymbolTableRecord
100
AcDbTextStyleTableRecord
  2
DEFAULT-ANSIDa layer
 70
     0
 40
0.0
 41
1.0
 50
0.0
 71
     0
 42
0.2
  3
ARIAL.TTF
  4

1001
ACAD
1000
Arial
1071
      256
  0
STYLE
  5
197
330
3
100
AcDbSymbolTableRecord
100
AcDbTextStyleTableRecord
  2
DEFAULT-ANSITesto caratteri grandi
 70
     0
 40
0.0
 41
1.0
 50
0.0
 71
     0
 42
0.2
  3
ARIAL.TTF
  4

1001
ACAD
1000
Arial
1071
      256
  0
STYLE
  5
198
330
3
100
AcDbSymbolTableRecord
100
AcDbTextStyleTableRecord
  2
DEFAULT-BSI
 70
     0
 40
0.0
 41
1.0
 50
0.0
 71
     0
 42
0.2
  3
ARIAL.TTF
  4

1001
ACAD
1000
Arial
1071
      256
  0
STYLE
  5
199
330
3
100
AcDbSymbolTableRecord
100
AcDbTextStyleTableRecord
  2
DEFAULT-BSIDa layer
 70
     0
 40
0.0
 41
1.0
 50
0.0
 71
     0
 42
0.2
  3
ARIAL.TTF
  4

1001
ACAD
1000
Arial
1071
      256
  0
STYLE
  5
19A
330
3
100
AcDbSymbolTableRecord
100
AcDbTextStyleTableRecord
  2
DEFAULT-BSITesto caratteri grandi
 70
     0
 40
0.0
 41
1.0
 50
0.0
 71
     0
 42
0.2
  3
ARIAL.TTF
  4

1001
ACAD
1000
Arial
1071
      256
  0
STYLE
  5
19B
330
3
100
AcDbSymbolTableRecord
100
AcDbTextStyleTableRecord
  2
DEFAULT-DIN
 70
     0
 40
0.0
 41
1.0
 50
0.0
 71
     0
 42
0.2
  3
ARIAL.TTF
  4

1001
ACAD
1000
Arial
1071
      256
  0
STYLE
  5
19C
330
3
100
AcDbSymbolTableRecord
100
AcDbTextStyleTableRecord
  2
DEFAULT-DINDa layer
 70
     0
 40
0.0
 41
1.0
 50
0.0
 71
     0
 42
0.2
  3
ARIAL.TTF
  4

1001
ACAD
1000
Arial
1071
      256
  0
STYLE
  5
19D
330
3
100
AcDbSymbolTableRecord
100
AcDbTextStyleTableRecord
  2
DEFAULT-DINTesto caratteri grandi
 70
     0
 40
0.0
 41
1.0
 50
0.0
 71
     0
 42
0.2
  3
ARIAL.TTF
  4

1001
ACAD
1000
Arial
1071
      256
  0
STYLE
  5
19E
330
3
100
AcDbSymbolTableRecord
100
AcDbTextStyleTableRecord
  2
DEFAULT-GB
 70
     0
 40
0.0
 41
1.0
 50
0.0
 71
     0
 42
0.2
  3
ARIAL.TTF
  4

1001
ACAD
1000
Arial
1071
      256
  0
STYLE
  5
19F
330
3
100
AcDbSymbolTableRecord
100
AcDbTextStyleTableRecord
  2
DEFAULT-GBDa layer
 70
     0
 40
0.0
 41
1.0
 50
0.0
 71
     0
 42
0.2
  3
ARIAL.TTF
  4

1001
ACAD
1000
Arial
1071
      256
  0
STYLE
  5
1A0
330
3
100
AcDbSymbolTableRecord
100
AcDbTextStyleTableRecord
  2
DEFAULT-GBTesto caratteri grandi
 70
     0
 40
0.0
 41
1.0
 50
0.0
 71
     0
 42
0.2
  3
ARIAL.TTF
  4

1001
ACAD
1000
Arial
1071
      256
  0
STYLE
  5
1A1
330
3
100
AcDbSymbolTableRecord
100
AcDbTextStyleTableRecord
  2
DEFAULT-ISO
 70
     0
 40
0.0
 41
1.0
 50
0.0
 71
     0
 42
0.2
  3
ARIAL.TTF
  4

1001
ACAD
1000
Arial
1071
      256
  0
STYLE
  5
1A2
330
3
100
AcDbSymbolTableRecord
100
AcDbTextStyleTableRecord
  2
DEFAULT-ISO~0
 70
     0
 40
0.0
 41
1.0
 50
0.0
 71
     0
 42
0.2
  3
ARIAL.TTF
  4

1001
ACAD
1000
Arial
1071
      256
  0
STYLE
  5
1A3
330
3
100
AcDbSymbolTableRecord
100
AcDbTextStyleTableRecord
  2
DEFAULT-ISODa layer
 70
     0
 40
0.0
 41
1.0
 50
0.0
 71
     0
 42
0.2
  3
ARIAL.TTF
  4

1001
ACAD
1000
Arial
1071
      256
  0
STYLE
  5
1A4
330
3
100
AcDbSymbolTableRecord
100
AcDbTextStyleTableRecord
  2
DEFAULT-ISOTesto caratteri grandi
 70
     0
 40
0.0
 41
1.0
 50
0.0
 71
     0
 42
0.2
  3
ARIAL.TTF
  4

1001
ACAD
1000
Arial
1071
      256
  0
STYLE
  5
1A5
330
3
100
AcDbSymbolTableRecord
100
AcDbTextStyleTableRecord
  2
DEFAULT-JIS
 70
     0
 40
0.0
 41
1.0
 50
0.0
 71
     0
 42
0.2
  3
ARIAL.TTF
  4

1001
ACAD
1000
Arial
1071
      256
  0
STYLE
  5
1A6
330
3
100
AcDbSymbolTableRecord
100
AcDbTextStyleTableRecord
  2
DEFAULT-JIS~0
 70
     0
 40
0.0
 41
1.0
 50
0.0
 71
     0
 42
0.2
  3
ARIAL.TTF
  4

1001
ACAD
1000
Arial
1071
      256
  0
STYLE
  5
1A7
330
3
100
AcDbSymbolTableRecord
100
AcDbTextStyleTableRecord
  2
DEFAULT-JISDa layer
 70
     0
 40
0.0
 41
1.0
 50
0.0
 71
     0
 42
0.2
  3
ARIAL.TTF
  4

1001
ACAD
1000
Arial
1071
      256
  0
STYLE
  5
1A8
330
3
100
AcDbSymbolTableRecord
100
AcDbTextStyleTableRecord
  2
DEFAULT-JISTesto caratteri grandi
 70
     0
 40
0.0
 41
1.0
 50
0.0
 71
     0
 42
0.2
  3
ARIAL.TTF
  4

1001
ACAD
1000
Arial
1071
      256
  0
STYLE
  5
1A9
330
3
100
AcDbSymbolTableRecord
100
AcDbTextStyleTableRecord
  2
ISOCADMEC_1-1
 70
     0
 40
0.0
 41
1.064000010490417
 50
0.0
 71
     0
 42
0.2
  3
ARIAL.TTF
  4

1001
ACAD
1000
Arial
1071
      256
  0
STYLE
  5
1AA
330
3
100
AcDbSymbolTableRecord
100
AcDbTextStyleTableRecord
  2
MM-ANSI
 70
     0
 40
0.0
 41
1.0
 50
0.0
 71
     0
 42
0.2
  3
ARIAL.TTF
  4

1001
ACAD
1000
Arial
1071
      256
  0
STYLE
  5
1AB
330
3
100
AcDbSymbolTableRecord
100
AcDbTextStyleTableRecord
  2
STANDARDAM_ISO
 70
     0
 40
0.0
 41
1.064000010490417
 50
0.0
 71
     0
 42
0.2
  3
ISOCP.shx
  4

  0
STYLE
  5
1AC
330
3
100
AcDbSymbolTableRecord
100
AcDbTextStyleTableRecord
  2
STANDARDAM_ISO$3
 70
     0
 40
0.0
 41
1.064000010490417
 50
0.0
 71
     0
 42
0.2
  3
ISOCP.shx
  4

  0
STYLE
  5
1AD
330
3
100
AcDbSymbolTableRecord
100
AcDbTextStyleTableRecord
  2
STANDARDAM_ISO$4
 70
     0
 40
0.0
 41
1.064000010490417
 50
0.0
 71
     0
 42
0.2
  3
ISOCP.shx
  4

  0
STYLE
  5
1AE
330
3
100
AcDbSymbolTableRecord
100
AcDbTextStyleTableRecord
  2
STANDARDAM_ISO$6
 70
     0
 40
0.0
 41
1.064000010490417
 50
0.0
 71
     0
 42
0.2
  3
ISOCP.shx
  4

  0
STYLE
  5
1AF
330
3
100
AcDbSymbolTableRecord
100
AcDbTextStyleTableRecord
  2
STANDARDAM_ISO$7
 70
     0
 40
0.0
 41
1.064000010490417
 50
0.0
 71
     0
 42
0.2
  3
ISOCP.shx
  4

  0
STYLE
  5
1B0
330
3
100
AcDbSymbolTableRecord
100
AcDbTextStyleTableRecord
  2
STANDARDAM_ISO$SF
 70
     0
 40
0.0
 41
1.064000010490417
 50
0.0
 71
     0
 42
0.2
  3
ISOCP.shx
  4

  0
STYLE
  5
1B1
330
3
100
AcDbSymbolTableRecord
100
AcDbTextStyleTableRecord
  2
STANDARDAM_ISO$SH
 70
     0
 40
0.0
 41
1.064000010490417
 50
0.0
 71
     0
 42
0.2
  3
ISOCP.shx
  4

  0
STYLE
  5
1B2
330
3
100
AcDbSymbolTableRecord
100
AcDbTextStyleTableRecord
  2
STANDARDGEN-ISO
 70
     0
 40
0.0
 41
1.064000010490417
 50
0.0
 71
     0
 42
0.2
  3
ISOCP.shx
  4

  0
STYLE
  5
1B3
330
3
100
AcDbSymbolTableRecord
100
AcDbTextStyleTableRecord
  2
STANDARDGEN-ISO-AXE-F
 70
     0
 40
0.0
 41
1.064000010490417
 50
0.0
 71
     0
 42
0.2
  3
ISOCP.shx
  4

  0
STYLE
  5
1B4
330
3
100
AcDbSymbolTableRecord
100
AcDbTextStyleTableRecord
  2
STANDARDGEN-ISO-AXE-H
 70
     0
 40
0.0
 41
1.064000010490417
 50
0.0
 71
     0
 42
0.2
  3
ISOCP.shx
  4

  0
STYLE
  5
1B5
330
3
100
AcDbSymbolTableRecord
100
AcDbTextStyleTableRecord
  2
STANDARDGEN-ISO-POS
 70
     0
 40
0.0
 41
1.064000010490417
 50
0.0
 71
     0
 42
0.2
  3
ISOCP.shx
  4

  0
STYLE
  5
1B6
330
3
100
AcDbSymbolTableRecord
100
AcDbTextStyleTableRecord
  2
STANDARDGEN-ISO$3
 70
     0
 40
0.0
 41
1.064000010490417
 50
0.0
 71
     0
 42
0.2
  3
ISOCP.shx
  4

  0
STYLE
  5
1B7
330
3
100
AcDbSymbolTableRecord
100
AcDbTextStyleTableRecord
  2
STANDARDGEN-ISO$4
 70
     0
 40
0.0
 41
1.064000010490417
 50
0.0
 71
     0
 42
0.2
  3
ISOCP.shx
  4

  0
STYLE
  5
1B8
330
3
100
AcDbSymbolTableRecord
100
AcDbTextStyleTableRecord
  2
STANDARDGEN-ISO$6
 70
     0
 40
0.0
 41
1.064000010490417
 50
0.0
 71
     0
 42
0.2
  3
ISOCP.shx
  4

  0
STYLE
  5
1B9
330
3
100
AcDbSymbolTableRecord
100
AcDbTextStyleTableRecord
  2
STANDARDISO-25
 70
     0
 40
0.0
 41
1.064000010490417
 50
0.0
 71
     0
 42
0.2
  3
ISOCP.shx
  4

  0
STYLE
  5
1BA
330
3
100
AcDbSymbolTableRecord
100
AcDbTextStyleTableRecord
  2
STANDARDISO-35
 70
     0
 40
0.0
 41
1.064000010490417
 50
0.0
 71
     0
 42
0.2
  3
ISOCP.shx
  4

  0
STYLE
  5
1BB
330
3
100
AcDbSymbolTableRecord
100
AcDbTextStyleTableRecord
  2
STANDARDISO-5
 70
     0
 40
0.0
 41
1.064000010490417
 50
0.0
 71
     0
 42
0.2
  3
ISOCP.shx
  4

  0
STYLE
  5
1BC
330
3
100
AcDbSymbolTableRecord
100
AcDbTextStyleTableRecord
  2
STANDARDISO-7
 70
     0
 40
0.0
 41
1.064000010490417
 50
0.0
 71
     0
 42
0.2
  3
ISOCP.shx
  4

  0
STYLE
  5
1BD
330
3
100
AcDbSymbolTableRecord
100
AcDbTextStyleTableRecord
  2
STANDARDISO1
 70
     0
 40
0.0
 41
1.064000010490417
 50
0.0
 71
     0
 42
0.2
  3
ISOCP.shx
  4

  0
STYLE
  5
1BE
330
3
100
AcDbSymbolTableRecord
100
AcDbTextStyleTableRecord
  2
STANDARDISO1-4
 70
     0
 40
0.0
 41
1.064000010490417
 50
0.0
 71
     0
 42
0.2
  3
ISOCP.shx
  4

  0
STYLE
  5
1BF
330
3
100
AcDbSymbolTableRecord
100
AcDbTextStyleTableRecord
  2
STANDARDISO2
 70
     0
 40
0.0
 41
1.064000010490417
 50
0.0
 71
     0
 42
0.2
  3
ISOCP.shx
  4

  0
STYLE
  5
1C0
330
3
100
AcDbSymbolTableRecord
100
AcDbTextStyleTableRecord
  2
STANDARDSTANDARD
 70
     0
 40
0.0
 41
1.064000010490417
 50
0.0
 71
     0
 42
0.2
  3
ISOCP.shx
  4

  0
STYLE
  5
1C1
330
3
100
AcDbSymbolTableRecord
100
AcDbTextStyleTableRecord
  2
X . XXX
 70
     0
 40
0.0
 41
1.0
 50
0.0
 71
     0
 42
0.2
  3
ARIAL.TTF
  4

1001
ACAD
1000
Arial
1071
      256
  0
STYLE
  5
1C2
330
3
100
AcDbSymbolTableRecord
100
AcDbTextStyleTableRecord
  2
X.X spazio grande e testo
 70
     0
 40
0.0
 41
1.0
 50
0.0
 71
     0
 42
0.2
  3
ARIAL.TTF
  4

1001
ACAD
1000
Arial
1071
      256
  0
STYLE
  5
27E
330
3
100
AcDbSymbolTableRecord
100
AcDbTextStyleTableRecord
  2
Stile testo15
 70
     0
 40
0.0
 41
1.0
 50
0.0
 71
     0
 42
0.2
  3
ARIAL.TTF
  4

1001
ACAD
1000
Arial
1071
      256
  0
STYLE
  5
283
330
3
100
AcDbSymbolTableRecord
100
AcDbTextStyleTableRecord
  2
Stile testo116
 70
     0
 40
0.0
 41
0.899999976158142
 50
0.0
 71
     0
 42
0.2
  3
ARIAL.TTF
  4

1001
ACAD
1000
Arial
1071
      256
  0
STYLE
  5
285
330
3
100
AcDbSymbolTableRecord
100
AcDbTextStyleTableRecord
  2
Stile testo115
 70
     0
 40
0.0
 41
0.899999976158142
 50
0.0
 71
     0
 42
0.2
  3
ARIAL.TTF
  4

1001
ACAD
1000
Arial
1071
      256
  0
STYLE
  5
340
330
3
100
AcDbSymbolTableRecord
100
AcDbTextStyleTableRecord
  2
Stile testo6
 70
     0
 40
0.0
 41
1.0
 50
0.0
 71
     0
 42
0.2
  3
ARIAL.TTF
  4

1001
ACAD
1000
Arial
1071
      256
  0
STYLE
  5
343
330
3
100
AcDbSymbolTableRecord
100
AcDbTextStyleTableRecord
  2
Stile testo135
 70
     0
 40
0.0
 41
0.75
 50
0.0
 71
     0
 42
0.2
  3

  4

1001
ACAD
1000
Arial Black
1071
      256
  0
STYLE
  5
B83
330
3
100
AcDbSymbolTableRecord
100
AcDbTextStyleTableRecord
  2

 70
     1
 40
0.0
 41
1.0
 50
0.0
 71
     0
 42
0.2
  3
genltshp.shx
  4

  0
STYLE
  5
B86
330
3
100
AcDbSymbolTableRecord
100
AcDbTextStyleTableRecord
  2
ACISOTS
 70
     0
 40
1.0
 41
1.0
 50
0.0
 71
     0
 42
0.2
  3
isocp.shx
  4

  0
STYLE
  5
B87
330
3
100
AcDbSymbolTableRecord
100
AcDbTextStyleTableRecord
  2
ACISOGDT
 70
     0
 40
0.0
 41
1.0
 50
0.0
 71
     0
 42
0.2
  3
amgdt.shx
  4

  0
ENDTAB
  0
TABLE
  2
VIEW
  5
6
330
0
100
AcDbSymbolTable
 70
     0
  0
ENDTAB
  0
TABLE
  2
UCS
  5
7
330
0
100
AcDbSymbolTable
 70
     0
  0
ENDTAB
  0
TABLE
  2
APPID
  5
9
330
0
100
AcDbSymbolTable
 70
    13
  0
APPID
  5
61
330
9
100
AcDbSymbolTableRecord
100
AcDbRegAppTableRecord
  2
ACAD
 70
     0
  0
APPID
  5
69
330
9
100
AcDbSymbolTableRecord
100
AcDbRegAppTableRecord
  2
AcadAnnotative
 70
     0
  0
APPID
  5
281
330
9
100
AcDbSymbolTableRecord
100
AcDbRegAppTableRecord
  2
AcadAnnoPO
 70
     0
  0
APPID
  5
ACD
330
9
100
AcDbSymbolTableRecord
100
AcDbRegAppTableRecord
  2
ACAD_MLEADERVER
 70
     0
  0
APPID
  5
B08
330
9
100
AcDbSymbolTableRecord
100
AcDbRegAppTableRecord
  2
MCAD_NO_VIS
 70
     0
  0
APPID
  5
B09
330
9
100
AcDbSymbolTableRecord
100
AcDbRegAppTableRecord
  2
ACAD_TEMP_GRAPHIC
 70
     0
  0
APPID
  5
B36
330
9
100
AcDbSymbolTableRecord
100
AcDbRegAppTableRecord
  2
AD_DRAW
 70
     0
  0
APPID
  5
B39
330
9
100
AcDbSymbolTableRecord
100
AcDbRegAppTableRecord
  2
ACATTRIBSERVICES
 70
     0
  0
APPID
  5
B59
330
9
100
AcDbSymbolTableRecord
100
AcDbRegAppTableRecord
  2
DESIGNERASSEMBLIES
 70
     0
  0
APPID
  5
B5F
330
9
100
AcDbSymbolTableRecord
100
AcDbRegAppTableRecord
  2
ACADM_DIM_EDIT
 70
     0
  0
APPID
  5
B60
330
9
100
AcDbSymbolTableRecord
100
AcDbRegAppTableRecord
  2
AMDT_DM_ADJ
 70
     0
  0
APPID
  5
B78
330
9
100
AcDbSymbolTableRecord
100
AcDbRegAppTableRecord
  2
ACAD_DSTYLE_DIMBREAK
 70
     0
  0
APPID
  5
B79
330
9
100
AcDbSymbolTableRecord
100
AcDbRegAppTableRecord
  2
ACAD_DSTYLE_DIMJAG
 70
     0
  0
ENDTAB
  0
TABLE
  2
DIMSTYLE
  5
A
330
0
100
AcDbSymbolTable
 70
   100
100
AcDbDimStyleTable
 71
     2
340
1E7
340
63
  0
DIMSTYLE
105
63
330
A
100
AcDbSymbolTableRecord
100
AcDbDimStyleTableRecord
  2
Standard
 70
     0
 40
2.0
 41
2.5
340
60
342
1F0
  0
DIMSTYLE
105
64
330
A
100
AcDbSymbolTableRecord
100
AcDbDimStyleTableRecord
  2
Annotative
 70
     0
340
60
1001
AcadAnnotative
1000
AnnotativeData
1002
{
1070
     1
1070
     1
1002
}
  0
DIMSTYLE
105
1C3
330
A
100
AcDbSymbolTableRecord
100
AcDbDimStyleTableRecord
  2
BSI - Metodo 2
 70
     0
 40
2.0
 41
2.5
 42
0.5
 43
5.999999999999999
 44
2.999999999999999
 45
0.00000001
 46
10.0
 73
     0
 77
     1
 78
     8
 79
     2
140
3.5
143
0.03937
147
0.75
171
     3
172
     1
176
   250
177
   250
178
   250
179
     2
271
     2
272
     2
274
     3
278
    44
285
     8
340
1A2
371
    25
372
    25
  0
DIMSTYLE
105
1C4
330
A
100
AcDbSymbolTableRecord
100
AcDbDimStyleTableRecord
  2
BSI - Metodo 2$7
 70
     0
 40
2.0
 41
2.5
 42
0.5
 43
5.999999999999999
 44
2.999999999999999
 45
0.00000001
 46
10.0
 73
     0
 77
     1
 78
     8
 79
     2
140
3.5
143
0.03937
147
0.75
171
     3
172
     1
176
   179
177
   250
178
   250
179
     2
271
     2
272
     2
274
     3
278
    44
285
     8
340
1A2
371
    25
372
    25
  0
DIMSTYLE
105
1C5
330
A
100
AcDbSymbolTableRecord
100
AcDbDimStyleTableRecord
  2
BSI - Metodo 2Testo caratteri grandi
 70
     0
 40
2.0
 41
5.0
 42
0.5
 43
5.999999999999999
 44
2.999999999999999
 45
0.00000001
 46
10.0
 73
     0
 77
     1
 78
     8
 79
     2
140
5.25
143
0.03937
146
0.6666666666666666
147
0.75
171
     3
172
     1
176
   250
177
   250
178
   179
179
     2
271
     2
272
     2
274
     3
278
    44
285
     8
340
19A
371
    25
372
    25
  0
DIMSTYLE
105
1C6
330
A
100
AcDbSymbolTableRecord
100
AcDbDimStyleTableRecord
  2
BSI - Metodo 2Testo caratteri grandi$7
 70
     0
 40
2.0
 41
5.0
 42
0.5
 43
5.999999999999999
 44
2.999999999999999
 45
0.00000001
 46
10.0
 73
     0
 77
     1
 78
     8
 79
     2
140
5.25
143
0.03937
146
0.6666666666666666
147
0.75
171
     3
172
     1
176
   179
177
   250
178
   179
179
     2
271
     2
272
     2
274
     3
278
    44
285
     8
340
19A
371
    25
372
    25
  0
DIMSTYLE
105
1D5
330
A
100
AcDbSymbolTableRecord
100
AcDbDimStyleTableRecord
  2
DEFAULT-GB
 70
     0
 40
2.0
 41
4.0
 42
0.0
 43
5.999999999999999
 44
5.0
 45
0.00000001
 46
10.0
 73
     0
 74
     0
 77
     1
 78
     8
 79
     2
140
3.5
143
0.03937
147
0.75
171
     3
172
     1
176
   250
177
   250
178
   250
179
     3
271
     2
272
     2
274
     3
275
     1
285
     8
340
1A2
341
1C7
342
1C7
371
    25
372
    25
  0
DIMSTYLE
105
1D6
330
A
100
AcDbSymbolTableRecord
100
AcDbDimStyleTableRecord
  2
DEFAULT-GB$7
 70
     0
 40
2.0
 41
4.0
 42
0.0
 43
5.999999999999999
 44
5.0
 45
0.00000001
 46
10.0
 73
     0
 74
     0
 77
     1
 78
     8
 79
     2
140
3.5
143
0.03937
147
0.75
171
     3
172
     1
176
   179
177
   250
178
   250
179
     3
271
     2
272
     2
274
     3
275
     1
285
     8
340
1A2
341
1C7
342
1C7
371
    25
372
    25
  0
DIMSTYLE
105
1D7
330
A
100
AcDbSymbolTableRecord
100
AcDbDimStyleTableRecord
  2
DEFAULT-GBTesto caratteri grandi
 70
     0
 40
2.0
 41
8.0
 42
0.0
 43
5.999999999999999
 44
5.0
 45
0.00000001
 46
10.0
 73
     0
 74
     0
 77
     1
 78
     8
 79
     2
140
5.25
143
0.03937
146
0.6666666666666666
147
0.75
171
     3
172
     1
176
   250
177
   250
178
   179
179
     3
271
     2
272
     2
274
     3
275
     1
285
     8
340
1A0
341
1C7
342
1C7
371
    25
372
    25
  0
DIMSTYLE
105
1D8
330
A
100
AcDbSymbolTableRecord
100
AcDbDimStyleTableRecord
  2
DEFAULT-GBTesto caratteri grandi$7
 70
     0
 40
2.0
 41
8.0
 42
0.0
 43
5.999999999999999
 44
5.0
 45
0.00000001
 46
10.0
 73
     0
 74
     0
 77
     1
 78
     8
 79
     2
140
5.25
143
0.03937
146
0.6666666666666666
147
0.75
171
     3
172
     1
176
   179
177
   250
178
   179
179
     3
271
     2
272
     2
274
     3
275
     1
285
     8
340
1A0
341
1C7
342
1C7
371
    25
372
    25
  0
DIMSTYLE
105
1D9
330
A
100
AcDbSymbolTableRecord
100
AcDbDimStyleTableRecord
  2
DEFAULT-JIS - Metodo 2
 70
     0
 40
2.0
 41
2.5
 42
0.0
 43
5.999999999999999
 44
3.174999999999999
 45
0.00000001
 46
10.0
 77
     1
140
4.5
143
0.03937
147
0.8
171
     3
172
     1
176
   250
177
   250
178
   250
271
     2
272
     2
274
     3
340
1A6
341
1DA
342
1DA
371
    25
372
    25
  0
DIMSTYLE
105
1E0
330
A
100
AcDbSymbolTableRecord
100
AcDbDimStyleTableRecord
  2
DEFAULT-JIS - Metodo 2$7
 70
     0
 40
2.0
 41
2.5
 42
0.0
 43
5.999999999999999
 44
3.174999999999999
 45
0.00000001
 46
10.0
 77
     1
140
4.5
143
0.03937
147
0.8
171
     3
172
     1
176
   179
177
   250
178
   250
271
     2
272
     2
274
     3
340
1A6
341
1DA
342
1DA
371
    25
372
    25
  0
DIMSTYLE
105
1E1
330
A
100
AcDbSymbolTableRecord
100
AcDbDimStyleTableRecord
  2
DEFAULT-JIS - Metodo 2Testo caratteri grandi
 70
     0
 40
2.0
 41
5.0
 42
0.0
 43
5.999999999999999
 44
3.174999999999999
 45
0.00000001
 46
10.0
 77
     1
140
6.749999523162841
143
0.03937
146
0.666666713761698
147
0.8
171
     3
172
     1
176
   250
177
   250
178
   179
271
     2
272
     2
274
     3
340
1A8
341
1DA
342
1DA
371
    25
372
    25
  0
DIMSTYLE
105
1E2
330
A
100
AcDbSymbolTableRecord
100
AcDbDimStyleTableRecord
  2
DEFAULT-JIS - Metodo 2Testo caratteri grandi$7
 70
     0
 40
2.0
 41
5.0
 42
0.0
 43
5.999999999999999
 44
3.174999999999999
 45
0.00000001
 46
10.0
 77
     1
140
6.749999523162841
143
0.03937
146
0.666666713761698
147
0.8
171
     3
172
     1
176
   179
177
   250
178
   179
271
     2
272
     2
274
     3
340
1A8
341
1DA
342
1DA
371
    25
372
    25
  0
DIMSTYLE
105
1E3
330
A
100
AcDbSymbolTableRecord
100
AcDbDimStyleTableRecord
  2
DIN - Altro
 70
     0
 40
2.0
 41
2.5
 42
0.0
 43
5.999999999999999
 44
3.174999999999999
 45
0.00000001
 46
10.0
 77
     1
140
3.5
143
0.03937
147
0.8
171
     3
172
     1
176
   250
177
   250
178
   250
271
     2
272
     2
274
     3
278
    44
340
1A2
371
    25
372
    25
  0
DIMSTYLE
105
1E4
330
A
100
AcDbSymbolTableRecord
100
AcDbDimStyleTableRecord
  2
DIN - Altro$7
 70
     0
 40
2.0
 41
2.5
 42
0.0
 43
5.999999999999999
 44
3.174999999999999
 45
0.00000001
 46
10.0
 77
     1
140
3.5
143
0.03937
147
0.8
171
     3
172
     1
176
   179
177
   250
178
   250
271
     2
272
     2
274
     3
278
    44
340
1A2
371
    25
372
    25
  0
DIMSTYLE
105
1E5
330
A
100
AcDbSymbolTableRecord
100
AcDbDimStyleTableRecord
  2
DIN - AltroTesto caratteri grandi
 70
     0
 40
2.0
 41
5.0
 42
0.0
 43
5.999999999999999
 44
3.174999999999999
 45
0.00000001
 46
10.0
 77
     1
140
5.25
143
0.03937
146
0.6666666666666666
147
0.8
171
     3
172
     1
176
   250
177
   250
178
   179
271
     2
272
     2
274
     3
278
    44
340
19D
371
    25
372
    25
  0
DIMSTYLE
105
1E6
330
A
100
AcDbSymbolTableRecord
100
AcDbDimStyleTableRecord
  2
DIN - AltroTesto caratteri grandi$7
 70
     0
 40
2.0
 41
5.0
 42
0.0
 43
5.999999999999999
 44
3.174999999999999
 45
0.00000001
 46
10.0
 77
     1
140
5.25
143
0.03937
146
0.6666666666666666
147
0.8
171
     3
172
     1
176
   179
177
   250
178
   179
271
     2
272
     2
274
     3
278
    44
340
19D
371
    25
372
    25
  0
DIMSTYLE
105
1E7
102
{ACAD_REACTORS
330
469
330
55C
330
64D
330
72F
330
817
330
90A
102
}
330
A
100
AcDbSymbolTableRecord
100
AcDbDimStyleTableRecord
  2
MAURO
 70
     0
 40
2.0
 41
2.5
 42
1.0
 43
10.0
 44
1.0
 45
0.00000001
 46
10.0
 73
     0
 77
     1
 78
     8
 79
     2
140
3.5
143
0.03937
146
0.7142857142857144
147
0.762
171
     3
172
     1
176
    96
177
    96
178
     7
179
     3
271
     3
272
     3
274
     3
284
     8
286
     8
340
192
371
    25
372
    25
  0
DIMSTYLE
105
1E8
330
A
100
AcDbSymbolTableRecord
100
AcDbDimStyleTableRecord
  2
MAURO$7
 70
     0
 40
2.0
 41
2.5
 42
1.0
 43
10.0
 44
1.0
 45
0.00000001
 46
10.0
 73
     0
 77
     1
 78
     8
 79
     2
140
3.5
143
0.03937
146
0.7142857142857144
147
0.762
171
     3
172
     1
176
   179
177
    96
178
     7
179
     3
271
     3
272
     3
274
     3
284
     8
286
     8
340
192
371
    15
372
    25
  0
DIMSTYLE
105
1E9
330
A
100
AcDbSymbolTableRecord
100
AcDbDimStyleTableRecord
  2
MAUROTesto caratteri grandi
 70
     0
 40
2.0
 41
5.0
 42
1.0
 43
10.0
 44
1.0
 45
0.00000001
 46
10.0
 73
     0
 77
     1
 78
     8
 79
     2
140
5.25
143
0.03937
146
0.4761904761904762
147
0.762
171
     3
172
     1
176
    96
177
    96
178
   179
179
     3
271
     3
272
     3
274
     3
284
     8
286
     8
340
1A4
371
    25
372
    25
  0
DIMSTYLE
105
1EA
330
A
100
AcDbSymbolTableRecord
100
AcDbDimStyleTableRecord
  2
MAUROTesto caratteri grandi$7
 70
     0
 40
2.0
 41
5.0
 42
1.0
 43
10.0
 44
1.0
 45
0.00000001
 46
10.0
 73
     0
 77
     1
 78
     8
 79
     2
140
5.25
143
0.03937
146
0.4761904761904762
147
0.762
171
     3
172
     1
176
   179
177
    96
178
   179
179
     3
271
     3
272
     3
274
     3
284
     8
286
     8
340
1A4
371
    15
372
    25
  0
DIMSTYLE
105
1EB
330
A
100
AcDbSymbolTableRecord
100
AcDbDimStyleTableRecord
  2
X.XX pollici [mm]
 70
     0
  4
 mm
 40
2.0
 41
2.5
 42
2.387599999999999
 43
6.349999999999999
 44
3.174999999999999
 45
0.00000001
 46
10.0
 73
     0
140
3.04800009727478
144
0.0393700787401575
147
1.600199999999999
170
     1
176
     7
177
     7
178
     7
179
     1
271
     3
272
     2
340
1C1
371
    25
372
    25
  0
DIMSTYLE
105
1EC
330
A
100
AcDbSymbolTableRecord
100
AcDbDimStyleTableRecord
  2
X.XX pollici [mm]$7
 70
     0
  4
 mm
 40
2.0
 41
2.5
 42
2.387599999999999
 43
6.349999999999999
 44
3.174999999999999
 45
0.00000001
 46
10.0
 73
     0
140
3.04800009727478
144
0.0393700787401575
147
1.600199999999999
170
     1
176
   179
177
     7
178
     7
179
     1
271
     3
272
     2
340
1C1
371
    25
372
    25
  0
DIMSTYLE
105
1ED
330
A
100
AcDbSymbolTableRecord
100
AcDbDimStyleTableRecord
  2
X.XX pollici [mm]Testo caratteri grandi
 70
     0
  4
 mm
 40
2.0
 41
5.0
 42
2.387599999999999
 43
6.349999999999999
 44
3.174999999999999
 45
0.00000001
 46
10.0
 73
     0
140
4.57200002670288
144
0.0393700787401575
146
0.6666666840491819
147
1.600199999999999
170
     1
176
     7
177
     7
178
   179
179
     1
271
     3
272
     2
340
197
371
    25
372
    25
  0
DIMSTYLE
105
1EE
330
A
100
AcDbSymbolTableRecord
100
AcDbDimStyleTableRecord
  2
X.XX pollici [mm]Testo caratteri grandi$7
 70
     0
  4
 mm
 40
2.0
 41
5.0
 42
2.387599999999999
 43
6.349999999999999
 44
3.174999999999999
 45
0.00000001
 46
10.0
 73
     0
140
4.57200002670288
144
0.0393700787401575
146
0.6666666840491819
147
1.600199999999999
170
     1
176
   179
177
     7
178
   179
179
     1
271
     3
272
     2
340
197
371
    25
372
    25
  0
DIMSTYLE
105
1EF
330
A
100
AcDbSymbolTableRecord
100
AcDbDimStyleTableRecord
  2
1_32 FRAZIONE
 70
     0
 40
2.0
 41
2.5
340
60
342
1F0
  0
DIMSTYLE
105
1F7
330
A
100
AcDbSymbolTableRecord
100
AcDbDimStyleTableRecord
  2
1_64 FRAZIONE
 70
     0
 40
2.0
 41
2.5
340
60
342
1F0
  0
DIMSTYLE
105
1F8
102
{ACAD_REACTORS
330
B67
102
}
330
A
100
AcDbSymbolTableRecord
100
AcDbDimStyleTableRecord
  2
AM_ISO
 70
     0
 40
2.0
 41
2.5
340
60
342
1F0
  0
DIMSTYLE
105
1F9
330
A
100
AcDbSymbolTableRecord
100
AcDbDimStyleTableRecord
  2
AM_ISO$3
 70
     0
 40
2.0
 41
2.5
340
60
342
1F0
  0
DIMSTYLE
105
1FA
330
A
100
AcDbSymbolTableRecord
100
AcDbDimStyleTableRecord
  2
AM_ISO$4
 70
     0
 40
2.0
 41
2.5
340
60
342
1F0
  0
DIMSTYLE
105
1FB
330
A
100
AcDbSymbolTableRecord
100
AcDbDimStyleTableRecord
  2
AM_ISO$6
 70
     0
 40
2.0
 41
2.5
340
60
342
1F0
  0
DIMSTYLE
105
1FC
330
A
100
AcDbSymbolTableRecord
100
AcDbDimStyleTableRecord
  2
AM_ISO$7
 70
     0
 40
2.0
 41
2.5
340
60
342
1F0
  0
DIMSTYLE
105
1FD
330
A
100
AcDbSymbolTableRecord
100
AcDbDimStyleTableRecord
  2
AM_ISO$SF
 70
     0
 40
2.0
 41
2.5
340
60
342
1F0
  0
DIMSTYLE
105
1FE
330
A
100
AcDbSymbolTableRecord
100
AcDbDimStyleTableRecord
  2
AM_ISO$SH
 70
     0
 40
2.0
 41
2.5
340
60
342
1F0
  0
DIMSTYLE
105
1FF
330
A
100
AcDbSymbolTableRecord
100
AcDbDimStyleTableRecord
  2
ANSI ALLINEATI
 70
     0
 40
2.0
 41
2.5
340
60
342
1F0
  0
DIMSTYLE
105
200
330
A
100
AcDbSymbolTableRecord
100
AcDbDimStyleTableRecord
  2
ANSI FRAZIONE - ALLINEATI
 70
     0
 40
2.0
 41
2.5
340
60
342
1F0
  0
DIMSTYLE
105
201
330
A
100
AcDbSymbolTableRecord
100
AcDbDimStyleTableRecord
  2
CADMEC_1-1
 70
     0
 40
2.0
 41
2.5
340
60
342
1F0
  0
DIMSTYLE
105
202
330
A
100
AcDbSymbolTableRecord
100
AcDbDimStyleTableRecord
  2
DEFAULT-ANSI
 70
     0
 40
2.0
 41
2.5
340
60
342
1F0
  0
DIMSTYLE
105
203
330
A
100
AcDbSymbolTableRecord
100
AcDbDimStyleTableRecord
  2
DEFAULT-ANSI FRAZIONE
 70
     0
 40
2.0
 41
2.5
340
60
342
1F0
  0
DIMSTYLE
105
204
330
A
100
AcDbSymbolTableRecord
100
AcDbDimStyleTableRecord
  2
DEFAULT-BSI
 70
     0
 40
2.0
 41
2.5
340
60
342
1F0
  0
DIMSTYLE
105
205
330
A
100
AcDbSymbolTableRecord
100
AcDbDimStyleTableRecord
  2
DEFAULT-DIN
 70
     0
 40
2.0
 41
2.5
340
60
342
1F0
  0
DIMSTYLE
105
206
330
A
100
AcDbSymbolTableRecord
100
AcDbDimStyleTableRecord
  2
DEFAULT-DIN - Metodo 2a
 70
     0
 40
2.0
 41
2.5
340
60
342
1F0
  0
DIMSTYLE
105
207
330
A
100
AcDbSymbolTableRecord
100
AcDbDimStyleTableRecord
  2
DEFAULT-DIN - Metodo 2b
 70
     0
 40
2.0
 41
2.5
340
60
342
1F0
  0
DIMSTYLE
105
208
330
A
100
AcDbSymbolTableRecord
100
AcDbDimStyleTableRecord
  2
DEFAULT-ISO
 70
     0
 40
2.0
 41
2.5
340
60
342
1F0
  0
DIMSTYLE
105
209
330
A
100
AcDbSymbolTableRecord
100
AcDbDimStyleTableRecord
  2
DEFAULT-ISO-Metodo 1b
 70
     0
 40
2.0
 41
2.5
340
60
342
1F0
  0
DIMSTYLE
105
20A
330
A
100
AcDbSymbolTableRecord
100
AcDbDimStyleTableRecord
  2
DEFAULT-ISO-Metodo 2a
 70
     0
 40
2.0
 41
2.5
340
60
342
1F0
  0
DIMSTYLE
105
20B
330
A
100
AcDbSymbolTableRecord
100
AcDbDimStyleTableRecord
  2
DEFAULT-ISO-Metodo 2b
 70
     0
 40
2.0
 41
2.5
340
60
342
1F0
  0
DIMSTYLE
105
20C
330
A
100
AcDbSymbolTableRecord
100
AcDbDimStyleTableRecord
  2
DEFAULT-JIS
 70
     0
 40
2.0
 41
2.5
340
60
342
1F0
  0
DIMSTYLE
105
20D
330
A
100
AcDbSymbolTableRecord
100
AcDbDimStyleTableRecord
  2
DEFAULT-JIS - Metodo 1b
 70
     0
 40
2.0
 41
2.5
340
60
342
1F0
  0
DIMSTYLE
105
20E
330
A
100
AcDbSymbolTableRecord
100
AcDbDimStyleTableRecord
  2
Direttrice-Indicatore origine(ANSI)
 70
     0
 40
2.0
 41
2.5
340
60
342
1F0
  0
DIMSTYLE
105
20F
330
A
100
AcDbSymbolTableRecord
100
AcDbDimStyleTableRecord
  2
Direttrice-Indicatore origine(BSI)
 70
     0
 40
2.0
 41
2.5
340
60
342
1F0
  0
DIMSTYLE
105
210
330
A
100
AcDbSymbolTableRecord
100
AcDbDimStyleTableRecord
  2
Direttrice-Indicatore origine(DIN)
 70
     0
 40
2.0
 41
2.5
340
60
342
1F0
  0
DIMSTYLE
105
211
330
A
100
AcDbSymbolTableRecord
100
AcDbDimStyleTableRecord
  2
Direttrice-Indicatore origine(GB)
 70
     0
 40
2.0
 41
4.0
340
60
342
1F0
  0
DIMSTYLE
105
212
330
A
100
AcDbSymbolTableRecord
100
AcDbDimStyleTableRecord
  2
Direttrice-Indicatore origine(ISO)
 70
     0
 40
2.0
 41
2.5
340
60
342
1F0
  0
DIMSTYLE
105
213
330
A
100
AcDbSymbolTableRecord
100
AcDbDimStyleTableRecord
  2
Direttrice-Indicatore origine(JIS)
 70
     0
 40
2.0
 41
2.5
340
60
342
1F0
  0
DIMSTYLE
105
214
330
A
100
AcDbSymbolTableRecord
100
AcDbDimStyleTableRecord
  2
Direttrice-punto(ANSI)
 70
     0
 40
2.0
 41
2.5
340
60
342
1F0
  0
DIMSTYLE
105
215
330
A
100
AcDbSymbolTableRecord
100
AcDbDimStyleTableRecord
  2
Direttrice-punto(BSI)
 70
     0
 40
2.0
 41
2.5
340
60
342
1F0
  0
DIMSTYLE
105
216
330
A
100
AcDbSymbolTableRecord
100
AcDbDimStyleTableRecord
  2
Direttrice-punto(DIN)
 70
     0
 40
2.0
 41
2.5
340
60
342
1F0
  0
DIMSTYLE
105
217
330
A
100
AcDbSymbolTableRecord
100
AcDbDimStyleTableRecord
  2
Direttrice-punto(GB)
 70
     0
 40
2.0
 41
4.0
340
60
342
1F0
  0
DIMSTYLE
105
218
330
A
100
AcDbSymbolTableRecord
100
AcDbDimStyleTableRecord
  2
Direttrice-punto(ISO)
 70
     0
 40
2.0
 41
2.5
340
60
342
1F0
  0
DIMSTYLE
105
219
330
A
100
AcDbSymbolTableRecord
100
AcDbDimStyleTableRecord
  2
Direttrice-punto(JIS)
 70
     0
 40
2.0
 41
2.5
340
60
342
1F0
  0
DIMSTYLE
105
224
330
A
100
AcDbSymbolTableRecord
100
AcDbDimStyleTableRecord
  2
Direttrice-riferimento(ANSI)
 70
     0
 40
2.0
 41
2.5
340
60
342
1F0
  0
DIMSTYLE
105
225
330
A
100
AcDbSymbolTableRecord
100
AcDbDimStyleTableRecord
  2
Direttrice-riferimento(BSI)
 70
     0
 40
2.0
 41
2.5
340
60
342
1F0
  0
DIMSTYLE
105
226
330
A
100
AcDbSymbolTableRecord
100
AcDbDimStyleTableRecord
  2
Direttrice-riferimento(DIN)
 70
     0
 40
2.0
 41
2.5
340
60
342
1F0
  0
DIMSTYLE
105
248
330
A
100
AcDbSymbolTableRecord
100
AcDbDimStyleTableRecord
  2
Direttrice-riferimento(GB)
 70
     0
 40
2.0
 41
4.0
340
60
342
1F0
  0
DIMSTYLE
105
249
330
A
100
AcDbSymbolTableRecord
100
AcDbDimStyleTableRecord
  2
Direttrice-riferimento(ISO)
 70
     0
 40
2.0
 41
2.5
340
60
342
1F0
  0
DIMSTYLE
105
24A
330
A
100
AcDbSymbolTableRecord
100
AcDbDimStyleTableRecord
  2
Direttrice-riferimento(JIS)
 70
     0
 40
2.0
 41
2.5
340
60
342
1F0
  0
DIMSTYLE
105
24B
330
A
100
AcDbSymbolTableRecord
100
AcDbDimStyleTableRecord
  2
Direttrice(ANSI)
 70
     0
 40
2.0
 41
2.5
340
60
342
1F0
  0
DIMSTYLE
105
24C
330
A
100
AcDbSymbolTableRecord
100
AcDbDimStyleTableRecord
  2
Direttrice(BSI)
 70
     0
 40
2.0
 41
2.5
340
60
342
1F0
  0
DIMSTYLE
105
24D
330
A
100
AcDbSymbolTableRecord
100
AcDbDimStyleTableRecord
  2
Direttrice(DIN)
 70
     0
 40
2.0
 41
2.5
340
60
342
1F0
  0
DIMSTYLE
105
24E
330
A
100
AcDbSymbolTableRecord
100
AcDbDimStyleTableRecord
  2
Direttrice(GB)
 70
     0
 40
2.0
 41
4.0
340
60
342
1F0
  0
DIMSTYLE
105
24F
330
A
100
AcDbSymbolTableRecord
100
AcDbDimStyleTableRecord
  2
Direttrice(ISO)
 70
     0
 40
2.0
 41
2.5
340
60
342
1F0
  0
DIMSTYLE
105
250
330
A
100
AcDbSymbolTableRecord
100
AcDbDimStyleTableRecord
  2
Direttrice(JIS)
 70
     0
 40
2.0
 41
2.5
340
60
342
1F0
  0
DIMSTYLE
105
251
330
A
100
AcDbSymbolTableRecord
100
AcDbDimStyleTableRecord
  2
GEN-ISO
 70
     0
 40
2.0
 41
2.5
340
60
342
1F0
  0
DIMSTYLE
105
252
330
A
100
AcDbSymbolTableRecord
100
AcDbDimStyleTableRecord
  2
GEN-ISO-AXE-F
 70
     0
 40
2.0
 41
2.5
340
60
342
1F0
  0
DIMSTYLE
105
253
330
A
100
AcDbSymbolTableRecord
100
AcDbDimStyleTableRecord
  2
GEN-ISO-AXE-H
 70
     0
 40
2.0
 41
2.5
340
60
342
1F0
  0
DIMSTYLE
105
254
330
A
100
AcDbSymbolTableRecord
100
AcDbDimStyleTableRecord
  2
GEN-ISO-POS
 70
     0
 40
2.0
 41
2.5
340
60
342
1F0
  0
DIMSTYLE
105
255
330
A
100
AcDbSymbolTableRecord
100
AcDbDimStyleTableRecord
  2
GEN-ISO$3
 70
     0
 40
2.0
 41
2.5
340
60
342
1F0
  0
DIMSTYLE
105
256
330
A
100
AcDbSymbolTableRecord
100
AcDbDimStyleTableRecord
  2
GEN-ISO$4
 70
     0
 40
2.0
 41
2.5
340
60
342
1F0
  0
DIMSTYLE
105
257
330
A
100
AcDbSymbolTableRecord
100
AcDbDimStyleTableRecord
  2
GEN-ISO$6
 70
     0
 40
2.0
 41
2.5
340
60
342
1F0
  0
DIMSTYLE
105
258
330
A
100
AcDbSymbolTableRecord
100
AcDbDimStyleTableRecord
  2
ISO-25
 70
     0
 40
2.0
 41
2.5
340
60
342
1F0
  0
DIMSTYLE
105
259
330
A
100
AcDbSymbolTableRecord
100
AcDbDimStyleTableRecord
  2
ISO-35
 70
     0
 40
2.0
 41
2.5
340
60
342
1F0
  0
DIMSTYLE
105
25A
330
A
100
AcDbSymbolTableRecord
100
AcDbDimStyleTableRecord
  2
ISO-5
 70
     0
 40
2.0
 41
2.5
340
60
342
1F0
  0
DIMSTYLE
105
25B
330
A
100
AcDbSymbolTableRecord
100
AcDbDimStyleTableRecord
  2
ISO-7
 70
     0
 40
2.0
 41
2.5
340
60
342
1F0
  0
DIMSTYLE
105
25C
330
A
100
AcDbSymbolTableRecord
100
AcDbDimStyleTableRecord
  2
ISO1
 70
     0
 40
2.0
 41
2.5
340
60
342
1F0
  0
DIMSTYLE
105
25D
330
A
100
AcDbSymbolTableRecord
100
AcDbDimStyleTableRecord
  2
ISO1-4
 70
     0
 40
2.0
 41
2.5
340
60
342
1F0
  0
DIMSTYLE
105
25E
330
A
100
AcDbSymbolTableRecord
100
AcDbDimStyleTableRecord
  2
ISO2
 70
     0
 40
2.0
 41
2.5
340
60
342
1F0
  0
DIMSTYLE
105
25F
330
A
100
AcDbSymbolTableRecord
100
AcDbDimStyleTableRecord
  2
MM-ANSI
 70
     0
 40
2.0
 41
2.5
340
60
342
1F0
  0
DIMSTYLE
105
260
330
A
100
AcDbSymbolTableRecord
100
AcDbDimStyleTableRecord
  2
X . XXX
 70
     0
 40
2.0
 41
2.5
340
60
342
1F0
  0
DIMSTYLE
105
261
330
A
100
AcDbSymbolTableRecord
100
AcDbDimStyleTableRecord
  2
X.X spazio grande e testo
 70
     0
 40
2.0
 41
2.5
340
60
342
1F0
  0
DIMSTYLE
105
262
330
A
100
AcDbSymbolTableRecord
100
AcDbDimStyleTableRecord
  2
X.XX mm [pollici]
 70
     0
 40
2.0
 41
2.5
340
60
342
1F0
  0
DIMSTYLE
105
263
330
A
100
AcDbSymbolTableRecord
100
AcDbDimStyleTableRecord
  2
X.XX Tol. di scostamento
 70
     0
 40
2.0
 41
2.5
340
60
342
1F0
  0
DIMSTYLE
105
264
330
A
100
AcDbSymbolTableRecord
100
AcDbDimStyleTableRecord
  2
X.XXX
 70
     0
 40
2.0
 41
2.5
340
60
342
1F0
  0
DIMSTYLE
105
265
330
A
100
AcDbSymbolTableRecord
100
AcDbDimStyleTableRecord
  2
X.XXX +_- tolleranza
 70
     0
 40
2.0
 41
2.5
340
60
342
1F0
  0
DIMSTYLE
105
266
330
A
100
AcDbSymbolTableRecord
100
AcDbDimStyleTableRecord
  2
X.XXX +tolleranza_-tolleranza
 70
     0
 40
2.0
 41
2.5
340
60
342
1F0
  0
DIMSTYLE
105
267
330
A
100
AcDbSymbolTableRecord
100
AcDbDimStyleTableRecord
  2
X.XXX Limiti - Impilati
 70
     0
 40
2.0
 41
2.5
340
60
342
1F0
  0
DIMSTYLE
105
268
330
A
100
AcDbSymbolTableRecord
100
AcDbDimStyleTableRecord
  2
X.XXX mm [pollici]
 70
     0
 40
2.0
 41
2.5
340
60
342
1F0
  0
DIMSTYLE
105
269
330
A
100
AcDbSymbolTableRecord
100
AcDbDimStyleTableRecord
  2
X.XXX piccola tolleranza
 70
     0
 40
2.0
 41
2.5
340
60
342
1F0
  0
DIMSTYLE
105
26A
330
A
100
AcDbSymbolTableRecord
100
AcDbDimStyleTableRecord
  2
X.XXX radiale
 70
     0
 40
2.0
 41
2.5
340
60
342
1F0
  0
ENDTAB
  0
TABLE
  2
BLOCK_RECORD
  5
1
330
0
100
AcDbSymbolTable
 70
    17
  0
BLOCK_RECORD
  5
77
330
1
100
AcDbSymbolTableRecord
100
AcDbBlockTableRecord
  2
*Model_Space
340
7A
  0
BLOCK_RECORD
  5
73
330
1
100
AcDbSymbolTableRecord
100
AcDbBlockTableRecord
  2
*Paper_Space
340
76
  0
BLOCK_RECORD
  5
7B
330
1
100
AcDbSymbolTableRecord
100
AcDbBlockTableRecord
  2
*Paper_Space0
340
7E
  0
BLOCK_RECORD
  5
1C7
330
1
100
AcDbSymbolTableRecord
100
AcDbBlockTableRecord
  2
Filled-1
340
0
  0
BLOCK_RECORD
  5
1DA
330
1
100
AcDbSymbolTableRecord
100
AcDbBlockTableRecord
  2
_Open
340
0
  0
BLOCK_RECORD
  5
1F0
330
1
100
AcDbSymbolTableRecord
100
AcDbBlockTableRecord
  2
_Closed
340
0
  0
BLOCK_RECORD
  5
21A
330
1
100
AcDbSymbolTableRecord
100
AcDbBlockTableRecord
  2
DatumFilled45
340
0
  0
BLOCK_RECORD
  5
227
330
1
100
AcDbSymbolTableRecord
100
AcDbBlockTableRecord
  2
DatumThickLine
340
0
  0
BLOCK_RECORD
  5
26B
330
1
100
AcDbSymbolTableRecord
100
AcDbBlockTableRecord
  2
REVISIONE
340
0
  0
BLOCK_RECORD
  5
28A
330
1
100
AcDbSymbolTableRecord
100
AcDbBlockTableRecord
  2
TIMBRO PER APPROVAZIONE
340
0
  0
BLOCK_RECORD
  5
299
330
1
100
AcDbSymbolTableRecord
100
AcDbBlockTableRecord
  2
Bordi Default Border
340
0
  0
BLOCK_RECORD
  5
2C0
330
1
100
AcDbSymbolTableRecord
100
AcDbBlockTableRecord
  2
Cartigli COMUNELLO
340
0
  0
BLOCK_RECORD
  5
46B
330
1
100
AcDbSymbolTableRecord
100
AcDbBlockTableRecord
  2
*D10
340
0
  0
BLOCK_RECORD
  5
55D
330
1
100
AcDbSymbolTableRecord
100
AcDbBlockTableRecord
  2
*D11
340
0
  0
BLOCK_RECORD
  5
64E
330
1
100
AcDbSymbolTableRecord
100
AcDbBlockTableRecord
  2
*D12
340
0
  0
BLOCK_RECORD
  5
730
330
1
100
AcDbSymbolTableRecord
100
AcDbBlockTableRecord
  2
*D13
340
0
  0
BLOCK_RECORD
  5
818
330
1
100
AcDbSymbolTableRecord
100
AcDbBlockTableRecord
  2
*D14
340
0
  0
BLOCK_RECORD
  5
90B
330
1
100
AcDbSymbolTableRecord
100
AcDbBlockTableRecord
  2
*D15
340
0
  0
ENDTAB
  0
ENDSEC
  0
SECTION
  2
BLOCKS
  0
BLOCK
  5
78
330
77
100
AcDbEntity
  8
0
100
AcDbBlockBegin
  2
*Model_Space
 70
     0
 10
0.0
 20
0.0
 30
0.0
  3
*Model_Space
  1

  0
ENDBLK
  5
79
330
77
100
AcDbEntity
  8
0
100
AcDbBlockEnd
  0
BLOCK
  5
74
330
73
100
AcDbEntity
 67
     1
  8
0
100
AcDbBlockBegin
  2
*Paper_Space
 70
     0
 10
0.0
 20
0.0
 30
0.0
  3
*Paper_Space
  1

  0
ENDBLK
  5
75
330
73
100
AcDbEntity
 67
     1
  8
0
100
AcDbBlockEnd
  0
BLOCK
  5
7C
330
7B
100
AcDbEntity
 67
     1
  8
0
100
AcDbBlockBegin
  2
*Paper_Space0
 70
     0
 10
0.0
 20
0.0
 30
0.0
  3
*Paper_Space0
  1

  0
ENDBLK
  5
7D
330
7B
100
AcDbEntity
 67
     1
  8
0
100
AcDbBlockEnd
  0
BLOCK
  5
1C8
330
1C7
100
AcDbEntity
  8
0
100
AcDbBlockBegin
  2
Filled-1
 70
     0
 10
0.0
 20
0.0
 30
0.0
  3
Filled-1
  1

  0
LINE
  5
1CA
330
1C7
100
AcDbEntity
  8
0
 62
     0
100
AcDbLine
 10
-1.0
 20
0.0
 30
0.0
 11
0.0
 21
0.0
 31
0.0
  0
POLYLINE
  5
1CB
330
1C7
100
AcDbEntity
  8
0
 62
     0
100
AcDb2dPolyline
 66
     1
 10
0.0
 20
0.0
 30
0.0
 70
   128
  0
VERTEX
  5
1CC
330
1CB
100
AcDbEntity
  8
0
 62
     0
100
AcDbVertex
100
AcDb2dVertex
 10
-1.0
 20
-0.125
 30
0.0
  0
VERTEX
  5
1CD
330
1CB
100
AcDbEntity
  8
0
 62
     0
100
AcDbVertex
100
AcDb2dVertex
 10
0.0
 20
0.0
 30
0.0
  0
VERTEX
  5
1CF
330
1CB
100
AcDbEntity
  8
0
 62
     0
100
AcDbVertex
100
AcDb2dVertex
 10
-1.0
 20
0.125
 30
0.0
  0
VERTEX
  5
1D0
330
1CB
100
AcDbEntity
  8
0
 62
     0
100
AcDbVertex
100
AcDb2dVertex
 10
-1.0
 20
-0.125
 30
0.0
  0
SEQEND
  5
1CE
330
1CB
100
AcDbEntity
  8
0
 62
     0
  0
SOLID
  5
1D1
330
1C7
100
AcDbEntity
  8
0
 62
     0
100
AcDbTrace
 10
-1.0
 20
-0.125
 30
0.0
 11
0.0
 21
0.0
 31
0.0
 12
-1.0
 22
0.125
 32
0.0
 13
-1.0
 23
-0.125
 33
0.0
  0
LINE
  5
1D2
330
1C7
100
AcDbEntity
  8
0
 62
     0
100
AcDbLine
 10
-1.0
 20
-0.125
 30
0.0
 11
0.0
 21
0.0
 31
0.0
  0
LINE
  5
1D3
330
1C7
100
AcDbEntity
  8
0
 62
     0
100
AcDbLine
 10
0.0
 20
0.0
 30
0.0
 11
-1.0
 21
0.125
 31
0.0
  0
LINE
  5
1D4
330
1C7
100
AcDbEntity
  8
0
 62
     0
100
AcDbLine
 10
-1.0
 20
0.125
 30
0.0
 11
-1.0
 21
-0.125
 31
0.0
  0
ENDBLK
  5
1C9
330
1C7
100
AcDbEntity
  8
0
100
AcDbBlockEnd
  0
BLOCK
  5
1DE
330
1DA
100
AcDbEntity
  8
0
100
AcDbBlockBegin
  2
_Open
 70
     0
 10
0.0
 20
0.0
 30
0.0
  3
_Open
  1

  0
LINE
  5
1DB
330
1DA
100
AcDbEntity
  8
0
  6
ByBlock
 62
     0
370
    -2
100
AcDbLine
 10
-1.0
 20
0.1666666666666666
 30
0.0
 11
0.0
 21
0.0
 31
0.0
  0
LINE
  5
1DC
330
1DA
100
AcDbEntity
  8
0
  6
ByBlock
 62
     0
370
    -2
100
AcDbLine
 10
-1.0
 20
-0.1666666666666666
 30
0.0
 11
0.0
 21
0.0
 31
0.0
  0
LINE
  5
1DD
330
1DA
100
AcDbEntity
  8
0
  6
ByBlock
 62
     0
370
    -2
100
AcDbLine
 10
0.0
 20
0.0
 30
0.0
 11
-1.0
 21
0.0
 31
0.0
  0
ENDBLK
  5
1DF
330
1DA
100
AcDbEntity
  8
0
100
AcDbBlockEnd
  0
BLOCK
  5
1F5
330
1F0
100
AcDbEntity
  8
0
100
AcDbBlockBegin
  2
_Closed
 70
     0
 10
0.0
 20
0.0
 30
0.0
  3
_Closed
  1

  0
LINE
  5
1F1
330
1F0
100
AcDbEntity
  8
0
  6
ByBlock
 62
     0
370
    -2
100
AcDbLine
 10
-1.0
 20
0.1666666666666666
 30
0.0
 11
0.0
 21
0.0
 31
0.0
  0
LINE
  5
1F2
330
1F0
100
AcDbEntity
  8
0
  6
ByBlock
 62
     0
370
    -2
100
AcDbLine
 10
0.0
 20
0.0
 30
0.0
 11
-1.0
 21
-0.1666666666666666
 31
0.0
  0
LINE
  5
1F3
330
1F0
100
AcDbEntity
  8
0
  6
ByBlock
 62
     0
370
    -2
100
AcDbLine
 10
-1.0
 20
0.1666666666666666
 30
0.0
 11
-1.0
 21
-0.1666666666666666
 31
0.0
  0
LINE
  5
1F4
330
1F0
100
AcDbEntity
  8
0
  6
ByBlock
 62
     0
370
    -2
100
AcDbLine
 10
0.0
 20
0.0
 30
0.0
 11
-1.0
 21
0.0
 31
0.0
  0
ENDBLK
  5
1F6
330
1F0
100
AcDbEntity
  8
0
100
AcDbBlockEnd
  0
BLOCK
  5
21B
330
21A
100
AcDbEntity
  8
0
100
AcDbBlockBegin
  2
DatumFilled45
 70
     0
 10
0.0
 20
0.0
 30
0.0
  3
DatumFilled45
  1

  0
POLYLINE
  5
21D
330
21A
100
AcDbEntity
  8
0
 62
     0
100
AcDb2dPolyline
 66
     1
 10
0.0
 20
0.0
 30
0.0
 70
   128
  0
VERTEX
  5
21E
330
21D
100
AcDbEntity
  8
0
 62
     0
100
AcDbVertex
100
AcDb2dVertex
 10
0.0
 20
1.0
 30
0.0
  0
VERTEX
  5
21F
330
21D
100
AcDbEntity
  8
0
 62
     0
100
AcDbVertex
100
AcDb2dVertex
 10
0.0
 20
-1.0
 30
0.0
  0
VERTEX
  5
221
330
21D
100
AcDbEntity
  8
0
 62
     0
100
AcDbVertex
100
AcDb2dVertex
 10
-1.0
 20
0.0
 30
0.0
  0
VERTEX
  5
222
330
21D
100
AcDbEntity
  8
0
 62
     0
100
AcDbVertex
100
AcDb2dVertex
 10
0.0
 20
1.0
 30
0.0
  0
SEQEND
  5
220
330
21D
100
AcDbEntity
  8
0
 62
     0
  0
SOLID
  5
223
330
21A
100
AcDbEntity
  8
0
 62
     0
100
AcDbTrace
 10
0.0
 20
1.0
 30
0.0
 11
0.0
 21
-1.0
 31
0.0
 12
-1.0
 22
0.0
 32
0.0
 13
0.0
 23
1.0
 33
0.0
  0
ENDBLK
  5
21C
330
21A
100
AcDbEntity
  8
0
100
AcDbBlockEnd
  0
BLOCK
  5
228
330
227
100
AcDbEntity
  8
0
100
AcDbBlockBegin
  2
DatumThickLine
 70
     0
 10
0.0
 20
0.0
 30
0.0
  3
DatumThickLine
  1

  0
POLYLINE
  5
22A
330
227
100
AcDbEntity
  8
0
 62
     0
100
AcDb2dPolyline
 66
     1
 10
0.0
 20
0.0
 30
0.0
 70
   128
  0
VERTEX
  5
22B
330
22A
100
AcDbEntity
  8
0
 62
     0
100
AcDbVertex
100
AcDb2dVertex
 10
-0.25
 20
1.0
 30
0.0
  0
VERTEX
  5
22C
330
22A
100
AcDbEntity
  8
0
 62
     0
100
AcDbVertex
100
AcDb2dVertex
 10
-0.25
 20
-1.0
 30
0.0
  0
VERTEX
  5
22E
330
22A
100
AcDbEntity
  8
0
 62
     0
100
AcDbVertex
100
AcDb2dVertex
 10
-0.5
 20
-1.0
 30
0.0
  0
VERTEX
  5
22F
330
22A
100
AcDbEntity
  8
0
 62
     0
100
AcDbVertex
100
AcDb2dVertex
 10
-0.25
 20
1.0
 30
0.0
  0
SEQEND
  5
22D
330
22A
100
AcDbEntity
  8
0
 62
     0
  0
SOLID
  5
230
330
227
100
AcDbEntity
  8
0
 62
     0
100
AcDbTrace
 10
-0.25
 20
1.0
 30
0.0
 11
-0.25
 21
-1.0
 31
0.0
 12
-0.5
 22
-1.0
 32
0.0
 13
-0.25
 23
1.0
 33
0.0
  0
POLYLINE
  5
231
330
227
100
AcDbEntity
  8
0
 62
     0
100
AcDb2dPolyline
 66
     1
 10
0.0
 20
0.0
 30
0.0
 70
   128
  0
VERTEX
  5
232
330
231
100
AcDbEntity
  8
0
 62
     0
100
AcDbVertex
100
AcDb2dVertex
 10
-0.25
 20
1.0
 30
0.0
  0
VERTEX
  5
233
330
231
100
AcDbEntity
  8
0
 62
     0
100
AcDbVertex
100
AcDb2dVertex
 10
-0.5
 20
-1.0
 30
0.0
  0
VERTEX
  5
235
330
231
100
AcDbEntity
  8
0
 62
     0
100
AcDbVertex
100
AcDb2dVertex
 10
-0.5
 20
-1.0
 30
0.0
  0
VERTEX
  5
236
330
231
100
AcDbEntity
  8
0
 62
     0
100
AcDbVertex
100
AcDb2dVertex
 10
-0.25
 20
1.0
 30
0.0
  0
SEQEND
  5
234
330
231
100
AcDbEntity
  8
0
 62
     0
  0
SOLID
  5
237
330
227
100
AcDbEntity
  8
0
 62
     0
100
AcDbTrace
 10
-0.25
 20
1.0
 30
0.0
 11
-0.5
 21
-1.0
 31
0.0
 12
-0.5
 22
-1.0
 32
0.0
 13
-0.25
 23
1.0
 33
0.0
  0
POLYLINE
  5
238
330
227
100
AcDbEntity
  8
0
 62
     0
100
AcDb2dPolyline
 66
     1
 10
0.0
 20
0.0
 30
0.0
 70
   128
  0
VERTEX
  5
239
330
238
100
AcDbEntity
  8
0
 62
     0
100
AcDbVertex
100
AcDb2dVertex
 10
-0.25
 20
1.0
 30
0.0
  0
VERTEX
  5
23A
330
238
100
AcDbEntity
  8
0
 62
     0
100
AcDbVertex
100
AcDb2dVertex
 10
-0.5
 20
-1.0
 30
0.0
  0
VERTEX
  5
23C
330
238
100
AcDbEntity
  8
0
 62
     0
100
AcDbVertex
100
AcDb2dVertex
 10
-0.5
 20
1.0
 30
0.0
  0
VERTEX
  5
23D
330
238
100
AcDbEntity
  8
0
 62
     0
100
AcDbVertex
100
AcDb2dVertex
 10
-0.25
 20
1.0
 30
0.0
  0
SEQEND
  5
23B
330
238
100
AcDbEntity
  8
0
 62
     0
  0
SOLID
  5
23E
330
227
100
AcDbEntity
  8
0
 62
     0
100
AcDbTrace
 10
-0.25
 20
1.0
 30
0.0
 11
-0.5
 21
-1.0
 31
0.0
 12
-0.5
 22
1.0
 32
0.0
 13
-0.25
 23
1.0
 33
0.0
  0
POLYLINE
  5
23F
330
227
100
AcDbEntity
  8
0
 62
     0
100
AcDb2dPolyline
 66
     1
 10
0.0
 20
0.0
 30
0.0
 70
   128
  0
VERTEX
  5
240
330
23F
100
AcDbEntity
  8
0
 62
     0
100
AcDbVertex
100
AcDb2dVertex
 10
-0.25
 20
1.0
 30
0.0
  0
VERTEX
  5
241
330
23F
100
AcDbEntity
  8
0
 62
     0
100
AcDbVertex
100
AcDb2dVertex
 10
-0.5
 20
1.0
 30
0.0
  0
VERTEX
  5
243
330
23F
100
AcDbEntity
  8
0
 62
     0
100
AcDbVertex
100
AcDb2dVertex
 10
-0.25
 20
1.0
 30
0.0
  0
VERTEX
  5
244
330
23F
100
AcDbEntity
  8
0
 62
     0
100
AcDbVertex
100
AcDb2dVertex
 10
-0.25
 20
1.0
 30
0.0
  0
SEQEND
  5
242
330
23F
100
AcDbEntity
  8
0
 62
     0
  0
SOLID
  5
245
330
227
100
AcDbEntity
  8
0
 62
     0
100
AcDbTrace
 10
-0.25
 20
1.0
 30
0.0
 11
-0.5
 21
1.0
 31
0.0
 12
-0.25
 22
1.0
 32
0.0
 13
-0.25
 23
1.0
 33
0.0
  0
LINE
  5
246
330
227
100
AcDbEntity
  8
0
 62
     0
100
AcDbLine
 10
-1.0
 20
0.0
 30
0.0
 11
-0.5
 21
0.0
 31
0.0
  0
LINE
  5
247
330
227
100
AcDbEntity
  8
0
 62
     0
100
AcDbLine
 10
-0.5
 20
0.0
 30
0.0
 11
-1.0
 21
0.0
 31
0.0
  0
ENDBLK
  5
229
330
227
100
AcDbEntity
  8
0
100
AcDbBlockEnd
  0
BLOCK
  5
26C
330
26B
100
AcDbEntity
  8
0
100
AcDbBlockBegin
  2
REVISIONE
 70
     2
 10
0.0
 20
0.0
 30
0.0
  3
REVISIONE
  1

  0
LINE
  5
26E
330
26B
100
AcDbEntity
  8
Geometria schizzo(ISO)
100
AcDbLine
 10
-95.0
 20
-6.499999999999994
 30
0.0
 11
-95.0
 21
6.49999999999995
 31
0.0
  0
LINE
  5
26F
330
26B
100
AcDbEntity
  8
Geometria schizzo(ISO)
100
AcDbLine
 10
-95.00000000000001
 20
6.49999999999995
 30
0.0
 11
94.99999999999998
 21
6.500000000000003
 31
0.0
  0
LINE
  5
270
330
26B
100
AcDbEntity
  8
Geometria schizzo(ISO)
100
AcDbLine
 10
95.0
 20
6.500000000000003
 30
0.0
 11
95.0
 21
-6.499999999999985
 31
0.0
  0
LINE
  5
271
330
26B
100
AcDbEntity
  8
Geometria schizzo(ISO)
100
AcDbLine
 10
95.0
 20
-6.499999999999985
 30
0.0
 11
-95.0
 21
-6.499999999999994
 31
0.0
  0
LINE
  5
272
330
26B
100
AcDbEntity
  8
Geometria schizzo(ISO)
100
AcDbLine
 10
14.28199999999996
 20
6.500000000000003
 30
0.0
 11
14.28199999999996
 21
-6.499999999999994
 31
0.0
  0
LINE
  5
273
330
26B
100
AcDbEntity
  8
Geometria schizzo(ISO)
100
AcDbLine
 10
20.14999999999997
 20
6.500000000000003
 30
0.0
 11
20.14999999999997
 21
-6.499999999999994
 31
0.0
  0
LINE
  5
274
330
26B
100
AcDbEntity
  8
Geometria schizzo(ISO)
100
AcDbLine
 10
45.09999999999998
 20
6.500000000000003
 30
0.0
 11
45.09999999999998
 21
-6.499999999999985
 31
0.0
  0
LINE
  5
275
330
26B
100
AcDbEntity
  8
Geometria schizzo(ISO)
100
AcDbLine
 10
70.04999999999999
 20
6.500000000000003
 30
0.0
 11
70.04999999999999
 21
-6.499999999999985
 31
0.0
  0
LINE
  5
276
330
26B
100
AcDbEntity
  8
Geometria schizzo(ISO)
100
AcDbLine
 10
-95.0
 20
-1.500000000000021
 30
0.0
 11
95.0
 21
-1.499999999999976
 31
0.0
  0
LINE
  5
277
330
26B
100
AcDbEntity
  8
Geometria schizzo(ISO)
100
AcDbLine
 10
20.14999999999997
 20
2.499999999999982
 30
0.0
 11
95.0
 21
2.500000000000017
 31
0.0
  0
MTEXT
  5
278
330
26B
100
AcDbEntity
  8
Simboli(ISO)
 62
    96
100
AcDbMText
 10
-40.24999999999997
 20
-4.249999999999989
 30
0.0
 40
2.489199936389923
 41
109.5
 71
     5
 72
     1
  1
\fArial|b0|i0;\H2.4892;Descrizione Revisione
  7
Corrente-ISO
 73
     1
 44
1.0
1001
ACAD
1000
MTEXTBEGIN
1070
    73
1070
     1
1070
    44
1040
1.0
1070
    74
1070
     0
1000
MTEXTEND
  0
MTEXT
  5
27A
330
26B
100
AcDbEntity
  8
Simboli(ISO)
 62
    96
100
AcDbMText
 10
17.20910565308934
 20
-4.010830382627901
 30
0.0
 40
2.489199936389923
 41
5.876843529209256
 71
     5
 72
     1
  1
\fArial|b0|i0;\W0.90;\H2.4892;Rev
  7
Corrente-ISO
 73
     1
 44
1.0
1001
ACAD
1000
MTEXTBEGIN
1070
    73
1070
     1
1070
    44
1040
1.0
1070
    74
1070
     0
1000
MTEXTEND
  0
MTEXT
  5
27B
330
26B
100
AcDbEntity
  8
Simboli(ISO)
 62
    96
100
AcDbMText
 10
32.68356521178614
 20
-4.036669839269944
 30
0.0
 40
2.489199936389923
 41
24.96635793550775
 71
     5
 72
     1
  1
\fArial|b0|i0;\H2.4892;Disegnato
  7
Corrente-ISO
 73
     1
 44
1.0
1001
ACAD
1000
MTEXTBEGIN
1070
    73
1070
     1
1070
    44
1040
1.0
1070
    74
1070
     0
1000
MTEXTEND
  0
MTEXT
  5
27C
330
26B
100
AcDbEntity
  8
Simboli(ISO)
 62
    96
100
AcDbMText
 10
57.57373402865312
 20
-4.00232928281115
 30
0.0
 40
2.489199936389923
 41
24.92816610583702
 71
     5
 72
     1
  1
\fArial|b0|i0;\H2.4892;Verificato
  7
Corrente-ISO
 73
     1
 44
1.0
1001
ACAD
1000
MTEXTBEGIN
1070
    73
1070
     1
1070
    44
1040
1.0
1070
    74
1070
     0
1000
MTEXTEND
  0
MTEXT
  5
27D
330
26B
100
AcDbEntity
  8
Simboli(ISO)
 62
    96
100
AcDbMText
 10
82.5334947683379
 20
-4.033923917081256
 30
0.0
 40
2.489199936389923
 41
24.9913553735324
 71
     5
 72
     1
  1
\fArial|b0|i0;\H2.4892;Approvato
  7
Corrente-ISO
 73
     1
 44
1.0
1001
ACAD
1000
MTEXTBEGIN
1070
    73
1070
     1
1070
    44
1040
1.0
1070
    74
1070
     0
1000
MTEXTEND
  0
ATTDEF
  5
27F
102
{ACAD_XDICTIONARY
360
9FB
102
}
330
26B
100
AcDbEntity
  8
Simboli(ISO)
 62
     7
100
AcDbText
 10
-93.74928292882428
 20
2.972124334461173
 30
0.0
 40
2.489199936389923
  1
MODIFICATO QUOTA DA 20 A 25
  7
Stile testo15
100
AcDbAttributeDefinition
  3
DESCRIZIONE 1
  2
DESCRIZIONE_1_001
 70
     0
  0
ATTDEF
  5
282
102
{ACAD_XDICTIONARY
360
9FE
102
}
330
26B
100
AcDbEntity
  8
Simboli(ISO)
 62
     7
100
AcDbText
 10
-93.82699530276289
 20
-0.595967676708459
 30
0.0
 40
2.489199936389923
  1
MODIFICATO INTERASSE DA 80 A 90
  7
Stile testo15
100
AcDbAttributeDefinition
  3
DESCRIZIONE 2
  2
DESCRIZIONE_2_001
 70
     0
  0
ATTDEF
  5
284
102
{ACAD_XDICTIONARY
360
A01
102
}
330
26B
100
AcDbEntity
  8
Simboli(ISO)
 62
     7
100
AcDbText
 10
15.07942979937668
 20
0.7317788596934767
 30
0.0
 40
3.499999940395355
  1
01
 41
0.9
  7
Stile testo116
100
AcDbAttributeDefinition
  3
NR.REV
  2
NR.REV_001
 70
     0
  0
ATTDEF
  5
286
102
{ACAD_XDICTIONARY
360
A06
102
}
330
26B
100
AcDbEntity
  8
Simboli(ISO)
 62
     7
100
AcDbText
 10
24.69266896187769
 20
5.319801944745019
 30
0.0
 40
2.489199936389923
  1
FRIGETTO
 41
0.9
  7
Stile testo115
100
AcDbAttributeDefinition
  3
DISEGNATO
  2
DISEGNATO_001
 70
     0
  0
ATTDEF
  5
287
102
{ACAD_XDICTIONARY
360
A09
102
}
330
26B
100
AcDbEntity
  8
Simboli(ISO)
 62
     7
100
AcDbText
 10
25.77243061391258
 20
-0.7581010970848934
 30
0.0
 40
2.489199936389923
  1
12-12-01
  7
Stile testo15
100
AcDbAttributeDefinition
  3
DATA
  2
DATA_001
 70
     0
  0
ATTDEF
  5
288
102
{ACAD_XDICTIONARY
360
A0C
102
}
330
26B
100
AcDbEntity
  8
Simboli(ISO)
 62
     7
100
AcDbText
 10
50.77760502093152
 20
-0.743400818037856
 30
0.0
 40
2.489199936389923
  1
12-12-01
  7
Stile testo15
100
AcDbAttributeDefinition
  3
DATA
  2
DATA_001
 70
     0
  0
ATTDEF
  5
289
102
{ACAD_XDICTIONARY
360
A0F
102
}
330
26B
100
AcDbEntity
  8
Simboli(ISO)
 62
     7
100
AcDbText
 10
75.72397831235503
 20
-0.7581010970848579
 30
0.0
 40
2.489199936389923
  1
12-12-01
  7
Stile testo15
100
AcDbAttributeDefinition
  3
DATA
  2
DATA_001
 70
     0
  0
ATTDEF
  5
BA0
102
{ACAD_XDICTIONARY
360
BA1
102
}
330
26B
100
AcDbEntity
  8
Simboli(ISO)
 62
     7
100
AcDbText
 10
26.79083019066148
 20
1.126988591226022
 30
0.0
 40
2.489199936389923
  1
MAURO
 41
0.9
  7
Stile testo115
100
AcDbAttributeDefinition
  3
DISEGNATO
  2
DISEGNATO_002
 70
     0
  0
ENDBLK
  5
26D
330
26B
100
AcDbEntity
  8
0
100
AcDbBlockEnd
  0
BLOCK
  5
28B
330
28A
100
AcDbEntity
  8
0
100
AcDbBlockBegin
  2
TIMBRO PER APPROVAZIONE
 70
     0
 10
0.0
 20
0.0
 30
0.0
  3
TIMBRO PER APPROVAZIONE
  1

  0
LINE
  5
28D
330
28A
100
AcDbEntity
  8
Geometria schizzo(ISO)
 62
     7
100
AcDbLine
 10
34.85000000000001
 20
-9.100000000000004
 30
0.0
 11
-34.84999999999999
 21
-9.099999999999997
 31
0.0
  0
LINE
  5
28E
330
28A
100
AcDbEntity
  8
Geometria schizzo(ISO)
 62
     7
100
AcDbLine
 10
35.25
 20
-16.5
 30
0.0
 11
-35.24999999999999
 21
-16.5
 31
0.0
  0
LINE
  5
28F
330
28A
100
AcDbEntity
  8
Geometria schizzo(ISO)
 62
     7
100
AcDbLine
 10
-35.24999999999999
 20
-16.5
 30
0.0
 11
-35.25
 21
16.5
 31
0.0
  0
LINE
  5
290
330
28A
100
AcDbEntity
  8
Geometria schizzo(ISO)
 62
     7
100
AcDbLine
 10
-35.25
 20
16.5
 30
0.0
 11
35.25000000000001
 21
16.5
 31
0.0
  0
LINE
  5
291
330
28A
100
AcDbEntity
  8
Geometria schizzo(ISO)
 62
     7
100
AcDbLine
 10
35.25
 20
16.5
 30
0.0
 11
35.25
 21
-16.5
 31
0.0
  0
MTEXT
  5
292
330
28A
100
AcDbEntity
  8
Simboli(ISO)
 62
     7
100
AcDbMText
 10
-33.7105069207141
 20
-14.19215346071146
 30
0.0
 40
2.5
 41
0.0
 71
     7
 72
     1
  1
\fSwis721 BT|b0|i0;\H2.5000;DATA.........................FIRMA..........................
  7
Corrente-ISO
 73
     1
 44
1.25
1001
ACAD
1000
MTEXTBEGIN
1070
    73
1070
     1
1070
    44
1040
1.25
1070
    74
1070
     0
1000
MTEXTEND
  0
MTEXT
  5
293
330
28A
100
AcDbEntity
  8
Simboli(ISO)
 62
     7
100
AcDbMText
 10
-25.72449588474212
 20
11.13847904581678
 30
0.0
 40
3.499999940395355
 41
0.0
 71
     7
 72
     1
  1
\fSwis721 BT|b0|i0;\H3.5000;RESTITUIRE FIRMATO
  7
Corrente-ISO
 73
     1
 44
1.25
1001
ACAD
1000
MTEXTBEGIN
1070
    73
1070
     1
1070
    44
1040
1.25
1070
    74
1070
     0
1000
MTEXTEND
  0
MTEXT
  5
294
330
28A
100
AcDbEntity
  8
Simboli(ISO)
 62
     7
100
AcDbMText
 10
-28.95171691808511
 20
7.316396977395109
 30
0.0
 40
2.000000029802322
 41
0.0
 71
     7
 72
     1
  1
\fSwis721 BT|b0|i0;\H2.0000;L'APPROVAZIONE DEL DISEGNO DEFINISCE
  7
Corrente-ISO
 73
     1
 44
1.25
1001
ACAD
1000
MTEXTBEGIN
1070
    73
1070
     1
1070
    44
1040
1.25
1070
    74
1070
     0
1000
MTEXTEND
  0
MTEXT
  5
295
330
28A
100
AcDbEntity
  8
Simboli(ISO)
 62
     7
100
AcDbMText
 10
-25.76940871751251
 20
4.544968949952115
 30
0.0
 40
2.000000029802322
 41
0.0
 71
     7
 72
     1
  1
\fSwis721 BT|b0|i0;\H2.0000;L'ORDINE ED IL SUO PROSEGUIMENTO
  7
Corrente-ISO
 73
     1
 44
1.25
1001
ACAD
1000
MTEXTBEGIN
1070
    73
1070
     1
1070
    44
1040
1.25
1070
    74
1070
     0
1000
MTEXTEND
  0
MTEXT
  5
296
330
28A
100
AcDbEntity
  8
Simboli(ISO)
 62
     7
100
AcDbMText
 10
-31.13563506443334
 20
-5.098775396401857
 30
0.0
 40
2.000000029802322
 41
0.0
 71
     7
 72
     1
  1
\fSwis721 BT|b0|i0;\H2.0000;THE APPROVAL OF THE DRAWING DETERMINES
  7
Corrente-ISO
 73
     1
 44
1.25
1001
ACAD
1000
MTEXTBEGIN
1070
    73
1070
     1
1070
    44
1040
1.25
1070
    74
1070
     0
1000
MTEXTEND
  0
MTEXT
  5
297
330
28A
100
AcDbEntity
  8
Simboli(ISO)
 62
     7
100
AcDbMText
 10
-24.30740641391715
 20
-7.870204115351859
 30
0.0
 40
2.000000029802322
 41
0.0
 71
     7
 72
     1
  1
\fSwis721 BT|b0|i0;\H2.0000;THE ORDER AND ITS PROSECUTION
  7
Corrente-ISO
 73
     1
 44
1.25
1001
ACAD
1000
MTEXTBEGIN
1070
    73
1070
     1
1070
    44
1040
1.25
1070
    74
1070
     0
1000
MTEXTEND
  0
MTEXT
  5
298
330
28A
100
AcDbEntity
  8
Simboli(ISO)
 62
     7
100
AcDbMText
 10
-19.82985272453558
 20
-2.084089723680357
 30
0.0
 40
3.499999940395355
 41
0.0
 71
     7
 72
     1
  1
\fSwis721 BT|b0|i0;\H3.5000;RETURN SIGNED
  7
Corrente-ISO
 73
     1
 44
1.25
1001
ACAD
1000
MTEXTBEGIN
1070
    73
1070
     1
1070
    44
1040
1.25
1070
    74
1070
     0
1000
MTEXTEND
  0
ENDBLK
  5
28C
330
28A
100
AcDbEntity
  8
0
100
AcDbBlockEnd
  0
BLOCK
  5
29A
330
299
100
AcDbEntity
  8
0
100
AcDbBlockBegin
  2
Bordi Default Border
 70
     0
 10
0.0
 20
0.0
 30
0.0
  3
Bordi Default Border
  1

  0
POLYLINE
  5
29C
330
299
100
AcDbEntity
  8
Bordo_0
100
AcDb2dPolyline
 66
     1
 10
0.0
 20
0.0
 30
0.0
 70
   128
  0
VERTEX
  5
29D
330
29C
100
AcDbEntity
  8
Bordo_0
100
AcDbVertex
100
AcDb2dVertex
 10
10.0
 20
10.0
 30
0.0
  0
VERTEX
  5
29E
330
29C
100
AcDbEntity
  8
Bordo_0
100
AcDbVertex
100
AcDb2dVertex
 10
10.0
 20
287.0000076293946
 30
0.0
  0
VERTEX
  5
2A0
330
29C
100
AcDbEntity
  8
Bordo_0
100
AcDbVertex
100
AcDb2dVertex
 10
200.0
 20
287.0000076293946
 30
0.0
  0
VERTEX
  5
2A1
330
29C
100
AcDbEntity
  8
Bordo_0
100
AcDbVertex
100
AcDb2dVertex
 10
200.0
 20
10.0
 30
0.0
  0
VERTEX
  5
2A2
330
29C
100
AcDbEntity
  8
Bordo_0
100
AcDbVertex
100
AcDb2dVertex
 10
10.0
 20
10.0
 30
0.0
  0
SEQEND
  5
29F
330
29C
100
AcDbEntity
  8
Bordo_0
  0
POLYLINE
  5
2A3
330
299
100
AcDbEntity
  8
Bordo_0
100
AcDb2dPolyline
 66
     1
 10
0.0
 20
0.0
 30
0.0
 70
   128
  0
VERTEX
  5
2A4
330
2A3
100
AcDbEntity
  8
Bordo_0
100
AcDbVertex
100
AcDb2dVertex
 10
105.0
 20
0.0
 30
0.0
  0
VERTEX
  5
2A5
330
2A3
100
AcDbEntity
  8
Bordo_0
100
AcDbVertex
100
AcDb2dVertex
 10
105.0
 20
10.0
 30
0.0
  0
VERTEX
  5
2A7
330
2A3
100
AcDbEntity
  8
Bordo_0
100
AcDbVertex
100
AcDb2dVertex
 10
102.1132469177246
 20
5.0
 30
0.0
  0
VERTEX
  5
2A8
330
2A3
100
AcDbEntity
  8
Bordo_0
100
AcDbVertex
100
AcDb2dVertex
 10
107.8867530822754
 20
5.0
 30
0.0
  0
VERTEX
  5
2A9
330
2A3
100
AcDbEntity
  8
Bordo_0
100
AcDbVertex
100
AcDb2dVertex
 10
105.0
 20
10.0
 30
0.0
  0
SEQEND
  5
2A6
330
2A3
100
AcDbEntity
  8
Bordo_0
  0
POLYLINE
  5
2AA
330
299
100
AcDbEntity
  8
Bordo_0
100
AcDb2dPolyline
 66
     1
 10
0.0
 20
0.0
 30
0.0
 70
   128
  0
VERTEX
  5
2AB
330
2AA
100
AcDbEntity
  8
Bordo_0
100
AcDbVertex
100
AcDb2dVertex
 10
105.0
 20
297.0000076293946
 30
0.0
  0
VERTEX
  5
2AC
330
2AA
100
AcDbEntity
  8
Bordo_0
100
AcDbVertex
100
AcDb2dVertex
 10
105.0
 20
287.0000076293946
 30
0.0
  0
VERTEX
  5
2AE
330
2AA
100
AcDbEntity
  8
Bordo_0
100
AcDbVertex
100
AcDb2dVertex
 10
102.1132469177246
 20
292.0000076293945
 30
0.0
  0
VERTEX
  5
2AF
330
2AA
100
AcDbEntity
  8
Bordo_0
100
AcDbVertex
100
AcDb2dVertex
 10
107.8867530822754
 20
292.0000076293945
 30
0.0
  0
VERTEX
  5
2B0
330
2AA
100
AcDbEntity
  8
Bordo_0
100
AcDbVertex
100
AcDb2dVertex
 10
105.0
 20
287.0000076293946
 30
0.0
  0
SEQEND
  5
2AD
330
2AA
100
AcDbEntity
  8
Bordo_0
  0
POLYLINE
  5
2B1
330
299
100
AcDbEntity
  8
Bordo_0
100
AcDb2dPolyline
 66
     1
 10
0.0
 20
0.0
 30
0.0
 70
   128
  0
VERTEX
  5
2B2
330
2B1
100
AcDbEntity
  8
Bordo_0
100
AcDbVertex
100
AcDb2dVertex
 10
0.0
 20
148.5000038146973
 30
0.0
  0
VERTEX
  5
2B3
330
2B1
100
AcDbEntity
  8
Bordo_0
100
AcDbVertex
100
AcDb2dVertex
 10
10.0
 20
148.5000038146973
 30
0.0
  0
VERTEX
  5
2B5
330
2B1
100
AcDbEntity
  8
Bordo_0
100
AcDbVertex
100
AcDb2dVertex
 10
5.0
 20
151.3867473602295
 30
0.0
  0
VERTEX
  5
2B6
330
2B1
100
AcDbEntity
  8
Bordo_0
100
AcDbVertex
100
AcDb2dVertex
 10
5.0
 20
145.6132507324219
 30
0.0
  0
VERTEX
  5
2B7
330
2B1
100
AcDbEntity
  8
Bordo_0
100
AcDbVertex
100
AcDb2dVertex
 10
10.0
 20
148.5000038146973
 30
0.0
  0
SEQEND
  5
2B4
330
2B1
100
AcDbEntity
  8
Bordo_0
  0
POLYLINE
  5
2B8
330
299
100
AcDbEntity
  8
Bordo_0
100
AcDb2dPolyline
 66
     1
 10
0.0
 20
0.0
 30
0.0
 70
   128
  0
VERTEX
  5
2B9
330
2B8
100
AcDbEntity
  8
Bordo_0
100
AcDbVertex
100
AcDb2dVertex
 10
210.0
 20
148.5000038146973
 30
0.0
  0
VERTEX
  5
2BA
330
2B8
100
AcDbEntity
  8
Bordo_0
100
AcDbVertex
100
AcDb2dVertex
 10
200.0
 20
148.5000038146973
 30
0.0
  0
VERTEX
  5
2BC
330
2B8
100
AcDbEntity
  8
Bordo_0
100
AcDbVertex
100
AcDb2dVertex
 10
205.0
 20
151.3867473602295
 30
0.0
  0
VERTEX
  5
2BD
330
2B8
100
AcDbEntity
  8
Bordo_0
100
AcDbVertex
100
AcDb2dVertex
 10
205.0
 20
145.6132507324219
 30
0.0
  0
VERTEX
  5
2BE
330
2B8
100
AcDbEntity
  8
Bordo_0
100
AcDbVertex
100
AcDb2dVertex
 10
200.0
 20
148.5000038146973
 30
0.0
  0
SEQEND
  5
2BB
330
2B8
100
AcDbEntity
  8
Bordo_0
  0
ENDBLK
  5
29B
330
299
100
AcDbEntity
  8
0
100
AcDbBlockEnd
  0
BLOCK
  5
2C1
330
2C0
100
AcDbEntity
  8
0
100
AcDbBlockBegin
  2
Cartigli COMUNELLO
 70
     2
 10
0.0
 20
0.0
 30
0.0
  3
Cartigli COMUNELLO
  1

  0
HATCH
  5
2CF
330
2C0
100
AcDbEntity
  8
Tratteggio
 62
     7
100
AcDbHatch
 10
0.0
 20
0.0
 30
0.0
210
0.0
220
0.0
230
1.0
  2
SOLID
 70
     1
 71
     0
 91
        2
 92
        0
 93
        6
 72
     1
 10
13.50007588364672
 20
19.89302050081428
 11
30.89993084866332
 21
19.89302050081416
 72
     1
 10
30.89993084866332
 20
19.89302050081416
 11
30.89993084866332
 21
23.04299424448097
 72
     1
 10
30.89993084866332
 20
23.04299424448097
 11
27.77220960581477
 21
23.04299424448103
 72
     2
 10
22.20000336615506
 20
37.30358966223789
 40
15.31058666564578
 50
68.65735037136855
 51
111.3426496286315
 73
     0
 72
     1
 10
16.62779712649531
 20
23.04299424448104
 11
13.50007588364672
 21
23.04299424448097
 72
     1
 10
13.50007588364672
 20
23.04299424448097
 11
13.50007588364672
 21
19.89302050081428
 97
        0
 92
        1
 93
        6
 72
     1
 10
32.69991584504435
 20
18.09303550443317
 11
32.69991584504435
 21
24.84297924086209
 72
     1
 10
32.69991584504435
 20
24.84297924086208
 11
27.42202839407664
 21
24.84297924086206
 72
     2
 10
22.20000336615506
 20
37.30358966223789
 40
13.51060166926475
 50
67.26229019813374
 51
112.7377098018664
 73
     0
 72
     1
 10
16.97797833823344
 20
24.84297924086206
 11
11.70009088726569
 21
24.84297924086208
 72
     1
 10
11.70009088726569
 20
24.84297924086208
 11
11.70009088726569
 21
18.09303550443317
 72
     1
 10
11.70009088726569
 20
18.09303550443317
 11
32.69991584504435
 21
18.09303550443317
 97
        0
 75
     0
 76
     1
 98
        1
 10
0.0
 20
0.0
  0
HATCH
  5
2D8
330
2C0
100
AcDbEntity
  8
Tratteggio
 62
     7
100
AcDbHatch
 10
0.0
 20
0.0
 30
0.0
210
0.0
220
0.0
230
1.0
  2
SOLID
 70
     1
 71
     0
 91
        1
 92
        1
 93
        8
 72
     1
 10
95.05771295395282
 20
26.74999998775002
 11
27.77386600155343
 21
26.74999998775007
 72
     2
 10
22.20000336615506
 20
39.84359466344421
 40
14.23060667047108
 50
66.94084417726135
 51
113.0591558227387
 73
     0
 72
     1
 10
16.62614073075666
 20
26.74999998775004
 11
10.0
 21
26.74999998775003
 72
     1
 10
10.0
 20
26.74999998775003
 11
10.00000000000025
 21
26.24999998775003
 72
     1
 10
10.00000000000025
 20
26.24999998775003
 11
16.52506224989093
 21
26.24999998775001
 72
     2
 10
22.20000336615506
 20
39.84359466344421
 40
14.73060667047108
 50
247.3408443660875
 51
292.6591556339125
 73
     1
 72
     1
 10
27.87494448241919
 20
26.24999998775003
 11
95.05771295395282
 21
26.24999998775003
 72
     1
 10
95.05771295395282
 20
26.24999998775003
 11
95.05771295395282
 21
26.74999998775002
 97
        0
 75
     0
 76
     1
 98
        1
 10
0.0
 20
0.0
  0
HATCH
  5
2E5
330
2C0
100
AcDbEntity
  8
Tratteggio
 62
     7
100
AcDbHatch
 10
0.0
 20
0.0
 30
0.0
210
0.0
220
0.0
230
1.0
  2
SOLID
 70
     1
 71
     0
 91
        2
 92
        0
 93
        6
 72
     1
 10
30.90009088726564
 20
32.93297924086207
 11
30.90009088726564
 21
29.78297924086208
 72
     1
 10
30.90009088726564
 20
29.78297924086208
 11
26.91257430898715
 21
29.78297924086208
 72
     2
 10
22.20009088726563
 20
39.83297924086207
 40
11.1
 50
64.87793981336809
 51
115.1220601866318
 73
     0
 72
     1
 10
17.48760746554413
 20
29.78297924086206
 11
13.50009088726564
 21
29.78297924086206
 72
     1
 10
13.50009088726564
 20
29.78297924086206
 11
13.50009088726564
 21
32.93297924086207
 72
     1
 10
13.50009088726564
 20
32.93297924086207
 11
30.90009088726564
 21
32.93297924086207
 97
        0
 92
        1
 93
        6
 72
     1
 10
11.70009088726567
 20
34.7329792408621
 11
32.70009088726567
 21
34.73297924086214
 72
     1
 10
32.70009088726567
 20
34.73297924086214
 11
32.70009088726565
 21
27.98297924086213
 72
     1
 10
32.70009088726565
 20
27.98297924086213
 11
27.30247474189664
 21
27.98297924086202
 72
     2
 10
22.20009088726567
 20
39.84297924086207
 40
12.911
 50
66.72176127080208
 51
113.2782387291978
 73
     0
 72
     1
 10
17.09770703263471
 20
27.98297924086201
 11
11.70009088726569
 21
27.98297924086199
 72
     1
 10
11.70009088726569
 20
27.98297924086199
 11
11.70009088726567
 21
34.7329792408621
 97
        0
 75
     0
 76
     1
 98
        1
 10
0.0
 20
0.0
  0
LINE
  5
2E6
330
2C0
100
AcDbEntity
  8
Geometria schizzo(ISO)
  6
Continuous
 62
     7
370
    50
100
AcDbLine
 10
200.0
 20
67.5
 30
0.0
 11
10.0
 21
67.5
 31
0.0
  0
LINE
  5
2E7
330
2C0
100
AcDbEntity
  8
Geometria schizzo(ISO)
  6
Continuous
 62
     7
370
    50
100
AcDbLine
 10
10.0
 20
59.5
 30
0.0
 11
200.0
 21
59.5
 31
0.0
  0
LINE
  5
2E8
330
2C0
100
AcDbEntity
  8
Geometria schizzo(ISO)
  6
Continuous
 62
     7
370
    50
100
AcDbLine
 10
10.0
 20
54.5
 30
0.0
 11
200.0000000000002
 21
54.5
 31
0.0
  0
LINE
  5
2E9
330
2C0
100
AcDbEntity
  8
Geometria schizzo(ISO)
  6
Continuous
 62
     7
370
    50
100
AcDbLine
 10
9.999999999999998
 20
46.49999997550015
 30
0.0
 11
200.0000000000002
 21
46.49999997550015
 31
0.0
  0
LINE
  5
2EA
330
2C0
100
AcDbEntity
  8
Geometria schizzo(ISO)
  6
Continuous
 62
     7
370
    50
100
AcDbLine
 10
10.0
 20
38.49999997550006
 30
0.0
 11
200.0000000000002
 21
38.49999997550006
 31
0.0
  0
LINE
  5
2EB
330
2C0
100
AcDbEntity
  8
Geometria schizzo(ISO)
  6
Continuous
 62
     7
370
    50
100
AcDbLine
 10
10.0
 20
14.5
 30
0.0
 11
200.0
 21
14.5
 31
0.0
  0
LINE
  5
2EC
330
2C0
100
AcDbEntity
  8
Geometria schizzo(ISO)
  6
Continuous
 62
     7
370
    50
100
AcDbLine
 10
10.0
 20
10.0
 30
0.0
 11
200.0
 21
10.0
 31
0.0
  0
LINE
  5
2ED
330
2C0
100
AcDbEntity
  8
Geometria schizzo(ISO)
  6
Continuous
 62
     7
370
    50
100
AcDbLine
 10
126.5003211145929
 20
30.50000000000001
 30
0.0
 11
200.0
 21
30.50000000000001
 31
0.0
  0
LINE
  5
2EE
330
2C0
100
AcDbEntity
  8
Geometria schizzo(ISO)
  6
Continuous
 62
     7
370
    50
100
AcDbLine
 10
126.5003211145929
 20
22.5
 30
0.0
 11
200.0
 21
22.5
 31
0.0
  0
LINE
  5
2EF
330
2C0
100
AcDbEntity
  8
Geometria schizzo(ISO)
  6
Continuous
 62
     7
370
    50
100
AcDbLine
 10
10.0
 20
10.0
 30
0.0
 11
9.999999999999998
 21
67.5
 31
0.0
  0
LINE
  5
2F0
330
2C0
100
AcDbEntity
  8
Geometria schizzo(ISO)
  6
Continuous
 62
     7
370
    50
100
AcDbLine
 10
82.71476190476196
 20
67.5
 30
0.0
 11
82.71476190476199
 21
38.49999997550006
 31
0.0
  0
LINE
  5
2F1
330
2C0
100
AcDbEntity
  8
Geometria schizzo(ISO)
  6
Continuous
 62
     7
370
    50
100
AcDbLine
 10
34.23825396825403
 20
46.49999997550015
 30
0.0
 11
34.23825396825403
 21
38.49999997550006
 31
0.0
  0
LINE
  5
2F2
330
2C0
100
AcDbEntity
  8
Geometria schizzo(ISO)
  6
Continuous
 62
     7
370
    50
100
AcDbLine
 10
58.47650793650799
 20
46.49999997550015
 30
0.0
 11
58.47650793650799
 21
38.49999997550003
 31
0.0
  0
LINE
  5
2F3
330
2C0
100
AcDbEntity
  8
Geometria schizzo(ISO)
  6
Continuous
 62
     7
370
    50
100
AcDbLine
 10
111.6495238095238
 20
67.5
 30
0.0
 11
111.6495238095238
 21
38.4999999755002
 31
0.0
  0
LINE
  5
2F4
330
2C0
100
AcDbEntity
  8
Geometria schizzo(ISO)
  6
Continuous
 62
     7
370
    50
100
AcDbLine
 10
126.5003211145929
 20
46.49999997550015
 30
0.0
 11
126.5003211145929
 21
14.5
 31
0.0
  0
LINE
  5
2F5
330
2C0
100
AcDbEntity
  8
Geometria schizzo(ISO)
  6
Continuous
 62
     7
370
    50
100
AcDbLine
 10
159.8068536898258
 20
46.49999997550015
 30
0.0
 11
159.8068536898258
 21
22.5
 31
0.0
  0
LINE
  5
2F6
330
2C0
100
AcDbEntity
  8
Geometria schizzo(ISO)
  6
Continuous
 62
     7
370
    50
100
AcDbLine
 10
176.9329761904763
 20
67.5
 30
0.0
 11
176.9329761904763
 21
22.5
 31
0.0
  0
LINE
  5
2F7
330
2C0
100
AcDbEntity
  8
Geometria schizzo(ISO)
  6
Continuous
 62
     7
370
    50
100
AcDbLine
 10
200.0
 20
67.5
 30
0.0
 11
200.0
 21
10.0
 31
0.0
  0
LINE
  5
2F8
330
2C0
100
AcDbEntity
  8
Geometria schizzo(ISO)
  6
Continuous
 62
     7
370
    50
100
AcDbLine
 10
32.69991584504435
 20
18.09303550443317
 30
0.0
 11
32.69991584504435
 21
24.84297924086208
 31
0.0
  0
LINE
  5
2F9
330
2C0
100
AcDbEntity
  8
Geometria schizzo(ISO)
  6
Continuous
 62
     7
370
    50
100
AcDbLine
 10
30.89993084866332
 20
19.89302050081416
 30
0.0
 11
30.89993084866332
 21
23.04299424448097
 31
0.0
  0
LINE
  5
2FA
330
2C0
100
AcDbEntity
  8
Geometria schizzo(ISO)
  6
Continuous
 62
     7
370
    50
100
AcDbLine
 10
11.70009088726569
 20
18.09303550443317
 30
0.0
 11
11.70009088726569
 21
24.84297924086208
 31
0.0
  0
LINE
  5
2FB
330
2C0
100
AcDbEntity
  8
Geometria schizzo(ISO)
  6
Continuous
 62
     7
370
    50
100
AcDbLine
 10
13.50007588364672
 20
19.89302050081428
 30
0.0
 11
13.50007588364672
 21
23.04299424448097
 31
0.0
  0
LINE
  5
2FC
330
2C0
100
AcDbEntity
  8
Geometria schizzo(ISO)
  6
Continuous
 62
     7
370
    50
100
AcDbLine
 10
32.69991584504435
 20
18.09303550443317
 30
0.0
 11
11.70009088726569
 21
18.09303550443317
 31
0.0
  0
LINE
  5
2FD
330
2C0
100
AcDbEntity
  8
Geometria schizzo(ISO)
  6
Continuous
 62
     7
370
    50
100
AcDbLine
 10
30.89993084866332
 20
19.89302050081416
 30
0.0
 11
13.50007588364672
 21
19.89302050081428
 31
0.0
  0
ARC
  5
2FE
330
2C0
100
AcDbEntity
  8
Geometria schizzo(ISO)
  6
Continuous
 62
     7
370
    50
100
AcDbCircle
 10
22.20000336615506
 20
37.30358966223789
 30
0.0
 40
15.31058666564578
100
AcDbArc
 50
248.6573503713684
 51
291.3426496286315
  0
ARC
  5
2FF
330
2C0
100
AcDbEntity
  8
Geometria schizzo(ISO)
  6
Continuous
 62
     7
370
    50
100
AcDbCircle
 10
22.20000336615506
 20
37.30358966223789
 30
0.0
 40
13.51060166926475
100
AcDbArc
 50
247.2622901981336
 51
292.7377098018663
  0
LINE
  5
300
330
2C0
100
AcDbEntity
  8
Geometria schizzo(ISO)
  6
Continuous
 62
     7
370
    50
100
AcDbLine
 10
11.70009088726569
 20
24.84297924086208
 30
0.0
 11
16.97797833823344
 21
24.84297924086206
 31
0.0
  0
LINE
  5
301
330
2C0
100
AcDbEntity
  8
Geometria schizzo(ISO)
  6
Continuous
 62
     7
370
    50
100
AcDbLine
 10
13.50007588364672
 20
23.04299424448097
 30
0.0
 11
16.62779712649531
 21
23.04299424448104
 31
0.0
  0
LINE
  5
302
330
2C0
100
AcDbEntity
  8
Geometria schizzo(ISO)
  6
Continuous
 62
     7
370
    50
100
AcDbLine
 10
27.42202839407664
 20
24.84297924086206
 30
0.0
 11
32.69991584504435
 21
24.84297924086208
 31
0.0
  0
LINE
  5
303
330
2C0
100
AcDbEntity
  8
Geometria schizzo(ISO)
  6
Continuous
 62
     7
370
    50
100
AcDbLine
 10
27.77220960581477
 20
23.04299424448103
 30
0.0
 11
30.89993084866332
 21
23.04299424448097
 31
0.0
  0
LINE
  5
304
330
2C0
100
AcDbEntity
  8
Geometria schizzo(ISO)
  6
Continuous
 62
     7
370
    50
100
AcDbLine
 10
95.05771295395282
 20
26.74999998775002
 30
0.0
 11
95.05771295395282
 21
26.24999998775003
 31
0.0
  0
LINE
  5
305
330
2C0
100
AcDbEntity
  8
Geometria schizzo(ISO)
  6
Continuous
 62
     7
370
    50
100
AcDbLine
 10
16.62614073075666
 20
26.74999998775004
 30
0.0
 11
10.0
 21
26.74999998775003
 31
0.0
  0
ARC
  5
306
330
2C0
100
AcDbEntity
  8
Geometria schizzo(ISO)
  6
Continuous
 62
     7
370
    50
100
AcDbCircle
 10
22.20000336615506
 20
39.84359466344421
 30
0.0
 40
14.23060667047107
100
AcDbArc
 50
246.9408441772613
 51
293.0591558227387
  0
LINE
  5
307
330
2C0
100
AcDbEntity
  8
Geometria schizzo(ISO)
  6
Continuous
 62
     7
370
    50
100
AcDbLine
 10
27.77386600155342
 20
26.74999998775007
 30
0.0
 11
95.05771295395282
 21
26.74999998775002
 31
0.0
  0
LINE
  5
308
330
2C0
100
AcDbEntity
  8
Geometria schizzo(ISO)
  6
Continuous
 62
     7
370
    50
100
AcDbLine
 10
27.87494448241919
 20
26.24999998775003
 30
0.0
 11
95.05771295395282
 21
26.24999998775003
 31
0.0
  0
ARC
  5
309
330
2C0
100
AcDbEntity
  8
Geometria schizzo(ISO)
  6
Continuous
 62
     7
370
    50
100
AcDbCircle
 10
22.20000336615506
 20
39.84359466344421
 30
0.0
 40
14.73060667047108
100
AcDbArc
 50
247.3408443660875
 51
292.6591556339125
  0
LINE
  5
30A
330
2C0
100
AcDbEntity
  8
Geometria schizzo(ISO)
  6
Continuous
 62
     7
370
    50
100
AcDbLine
 10
16.52506224989093
 20
26.24999998775001
 30
0.0
 11
10.00000000000025
 21
26.24999998775003
 31
0.0
  0
LINE
  5
30B
330
2C0
100
AcDbEntity
  8
Geometria schizzo(ISO)
  6
Continuous
 62
     7
370
    50
100
AcDbLine
 10
10.0
 20
26.74999998775003
 30
0.0
 11
10.00000000000025
 21
26.24999998775003
 31
0.0
  0
LINE
  5
30C
330
2C0
100
AcDbEntity
  8
Geometria schizzo(ISO)
  6
Continuous
 62
     7
370
    50
100
AcDbLine
 10
70.09301344488737
 20
40.10977632401654
 30
0.0
 11
70.06166132979082
 21
45.19999997550015
 31
0.0
  0
LINE
  5
30D
330
2C0
100
AcDbEntity
  8
Geometria schizzo(ISO)
  6
Continuous
 62
     7
370
    50
100
AcDbLine
 10
62.715217801343
 20
44.2999999755001
 30
0.0
 11
70.06166132979082
 21
45.19999997550015
 31
0.0
  0
LINE
  5
30E
330
2C0
100
AcDbEntity
  8
Geometria schizzo(ISO)
  6
Continuous
 62
     7
370
    50
100
AcDbLine
 10
62.715217801343
 20
40.69999997550009
 30
0.0
 11
70.09301344488737
 21
40.10977632401654
 31
0.0
  0
LINE
  5
30F
330
2C0
100
AcDbEntity
  8
Geometria schizzo(ISO)
  6
Continuous
 62
     7
370
    50
100
AcDbLine
 10
62.715217801343
 20
40.69999997550009
 30
0.0
 11
62.715217801343
 21
44.2999999755001
 31
0.0
  0
LINE
  5
310
330
2C0
100
AcDbEntity
  8
Geometria schizzo(ISO)
  6
LONG_DASH_DOTTED
 62
     7
 48
25.40819931030274
370
    25
100
AcDbLine
 10
61.89509347490513
 20
42.4999999755001
 30
0.0
 11
79.03957443821731
 21
42.4999999755001
 31
0.0
  0
CIRCLE
  5
311
330
2C0
100
AcDbEntity
  8
Geometria schizzo(ISO)
  6
Continuous
 62
     7
370
    50
100
AcDbCircle
 10
75.61970665301604
 20
42.4999999755001
 30
0.0
 40
2.835161292266829
  0
CIRCLE
  5
312
330
2C0
100
AcDbEntity
  8
Geometria schizzo(ISO)
  6
Continuous
 62
     7
370
    50
100
AcDbCircle
 10
75.61970665301604
 20
42.4999999755001
 30
0.0
 40
1.8
  0
LINE
  5
313
330
2C0
100
AcDbEntity
  8
Geometria schizzo(ISO)
  6
DASH_DOT
 62
     7
 48
25.41209030151367
370
    25
100
AcDbLine
 10
75.61970665301604
 20
45.98912961192912
 30
0.0
 11
75.61970665301604
 21
39.01126421122319
 31
0.0
  0
LINE
  5
314
330
2C0
100
AcDbEntity
  8
Geometria schizzo(ISO)
100
AcDbLine
 10
13.50009088726564
 20
32.93297924086207
 30
0.0
 11
30.90009088726564
 21
32.93297924086207
 31
0.0
  0
LINE
  5
315
330
2C0
100
AcDbEntity
  8
Geometria schizzo(ISO)
100
AcDbLine
 10
30.90009088726564
 20
32.93297924086207
 30
0.0
 11
30.90009088726564
 21
29.78297924086208
 31
0.0
  0
LINE
  5
316
330
2C0
100
AcDbEntity
  8
Geometria schizzo(ISO)
100
AcDbLine
 10
30.90009088726564
 20
29.78297924086208
 30
0.0
 11
26.91257430898715
 21
29.78297924086208
 31
0.0
  0
LINE
  5
317
330
2C0
100
AcDbEntity
  8
Geometria schizzo(ISO)
100
AcDbLine
 10
13.50009088726564
 20
32.93297924086207
 30
0.0
 11
13.50009088726564
 21
29.78297924086206
 31
0.0
  0
LINE
  5
318
330
2C0
100
AcDbEntity
  8
Geometria schizzo(ISO)
100
AcDbLine
 10
13.50009088726564
 20
29.78297924086206
 30
0.0
 11
17.48760746554413
 21
29.78297924086206
 31
0.0
  0
ARC
  5
319
330
2C0
100
AcDbEntity
  8
Geometria schizzo(ISO)
100
AcDbCircle
 10
22.20009088726563
 20
39.83297924086207
 30
0.0
 40
11.1
100
AcDbArc
 50
244.8779398133681
 51
295.122060186632
  0
LINE
  5
31A
330
2C0
100
AcDbEntity
  8
Geometria schizzo(ISO)
100
AcDbLine
 10
11.70009088726567
 20
34.7329792408621
 30
0.0
 11
32.70009088726567
 21
34.73297924086214
 31
0.0
  0
LINE
  5
31B
330
2C0
100
AcDbEntity
  8
Geometria schizzo(ISO)
100
AcDbLine
 10
32.70009088726567
 20
34.73297924086214
 30
0.0
 11
32.70009088726565
 21
27.98297924086213
 31
0.0
  0
LINE
  5
31C
330
2C0
100
AcDbEntity
  8
Geometria schizzo(ISO)
100
AcDbLine
 10
32.70009088726565
 20
27.98297924086213
 30
0.0
 11
27.30247474189664
 21
27.98297924086202
 31
0.0
  0
LINE
  5
31D
330
2C0
100
AcDbEntity
  8
Geometria schizzo(ISO)
100
AcDbLine
 10
11.70009088726567
 20
34.7329792408621
 30
0.0
 11
11.70009088726569
 21
27.98297924086199
 31
0.0
  0
LINE
  5
31E
330
2C0
100
AcDbEntity
  8
Geometria schizzo(ISO)
100
AcDbLine
 10
11.70009088726569
 20
27.98297924086199
 30
0.0
 11
17.09770703263471
 21
27.98297924086201
 31
0.0
  0
ARC
  5
31F
330
2C0
100
AcDbEntity
  8
Geometria schizzo(ISO)
100
AcDbCircle
 10
22.20009088726567
 20
39.84297924086207
 30
0.0
 40
12.911
100
AcDbArc
 50
246.7217612708022
 51
293.2782387291979
  0
CIRCLE
  5
320
330
2C0
100
AcDbEntity
  8
Geometria schizzo(ISO)
  6
Continuous
370
    25
100
AcDbCircle
 10
94.17107124803315
 20
30.38071944555288
 30
0.0
 40
1.196319387325194
  0
LINE
  5
321
330
2C0
100
AcDbEntity
  8
Geometria schizzo(ISO)
100
AcDbLine
 10
0.0
 20
10.0
 30
0.0
 11
0.0
 21
12.0
 31
0.0
  0
LINE
  5
322
330
2C0
100
AcDbEntity
  8
Geometria schizzo(ISO)
100
AcDbLine
 10
200.0
 20
297.0
 30
0.0
 11
198.0000000000001
 21
297.0
 31
0.0
  0
MTEXT
  5
323
330
2C0
100
AcDbEntity
  8
Simboli(ISO)
 62
    96
100
AcDbMText
 10
46.375
 20
57.00000000000001
 30
0.0
 40
2.489199936389923
 41
72.75
 71
     5
 72
     1
  1
\fArial|b0|i0;\H2.4892;Denominazione
  7
Corrente-ISO
 73
     1
 44
1.0
1001
ACAD
1000
MTEXTBEGIN
1070
    73
1070
     1
1070
    44
1040
1.0
1070
    74
1070
     0
1000
MTEXTEND
  0
MTEXT
  5
324
330
2C0
100
AcDbEntity
  8
Simboli(ISO)
 62
    96
100
AcDbMText
 10
97.25000000000001
 20
57.00000000000001
 30
0.0
 40
2.489199936389923
 41
29.0
 71
     5
 72
     1
  1
\fArial|b0|i0;\H2.4892;Codice Disegno
  7
Corrente-ISO
 73
     1
 44
1.0
1001
ACAD
1000
MTEXTBEGIN
1070
    73
1070
     1
1070
    44
1040
1.0
1070
    74
1070
     0
1000
MTEXTEND
  0
MTEXT
  5
325
330
2C0
100
AcDbEntity
  8
Simboli(ISO)
 62
    96
100
AcDbMText
 10
144.375
 20
57.00000000000001
 30
0.0
 40
2.489199936389923
 41
65.24999999999998
 71
     5
 72
     1
  1
\fArial|b0|i0;\H2.4892;Materiale-UNI
  7
Corrente-ISO
 73
     1
 44
1.0
1001
ACAD
1000
MTEXTBEGIN
1070
    73
1070
     1
1070
    44
1040
1.0
1070
    74
1070
     0
1000
MTEXTEND
  0
MTEXT
  5
326
330
2C0
100
AcDbEntity
  8
Simboli(ISO)
 62
    96
100
AcDbMText
 10
188.5
 20
57.00000000000001
 30
0.0
 40
2.489199936389923
 41
23.00000000000001
 71
     5
 72
     1
  1
\fArial|b0|i0;\H2.4892;Codice Mater.
  7
Corrente-ISO
 73
     1
 44
1.0
1001
ACAD
1000
MTEXTBEGIN
1070
    73
1070
     1
1070
    44
1040
1.0
1070
    74
1070
     0
1000
MTEXTEND
  0
MTEXT
  5
327
330
2C0
100
AcDbEntity
  8
Simboli(ISO)
 62
    96
100
AcDbMText
 10
11.03637498653142
 20
53.62542943640336
 30
0.0
 40
2.489199936389923
 41
0.0
 71
     1
 72
     1
  1
\fArial|b0|i0;\H2.4892;Tolleranze Generali
  7
Corrente-ISO
 73
     1
 44
1.0
1001
ACAD
1000
MTEXTBEGIN
1070
    73
1070
     1
1070
    44
1040
1.0
1070
    74
1070
     0
1000
MTEXTEND
  0
MTEXT
  5
328
330
2C0
100
AcDbEntity
  8
Simboli(ISO)
 62
    96
100
AcDbMText
 10
22.0
 20
45.62331331753725
 30
0.0
 40
2.489199936389923
 41
22.0
 71
     2
 72
     1
  1
\fArial|b0|i0;\H2.4892;Sostituisce il
  7
Corrente-ISO
 73
     1
 44
1.0
1001
ACAD
1000
MTEXTBEGIN
1070
    73
1070
     1
1070
    44
1040
1.0
1070
    74
1070
     0
1000
MTEXTEND
  0
MTEXT
  5
329
330
2C0
100
AcDbEntity
  8
Simboli(ISO)
 62
    96
100
AcDbMText
 10
46.5
 20
45.57392268569088
 30
0.0
 40
2.489199936389923
 41
23.0
 71
     2
 72
     1
  1
\fArial|b0|i0;\H2.4892;Sostituito dal
  7
Corrente-ISO
 73
     1
 44
1.0
1001
ACAD
1000
MTEXTBEGIN
1070
    73
1070
     1
1070
    44
1040
1.0
1070
    74
1070
     0
1000
MTEXTEND
  0
MTEXT
  5
32A
330
2C0
100
AcDbEntity
  8
Simboli(ISO)
 62
    96
100
AcDbMText
 10
84.0
 20
45.52415962817554
 30
0.0
 40
2.489199936389923
 41
20.0
 71
     1
 72
     1
  1
\fArial|b0|i0;\H2.4892;Scala
  7
Corrente-ISO
 73
     1
 44
1.0
1001
ACAD
1000
MTEXTBEGIN
1070
    73
1070
     1
1070
    44
1040
1.0
1070
    74
1070
     0
1000
MTEXTEND
  0
MTEXT
  5
32B
330
2C0
100
AcDbEntity
  8
Simboli(ISO)
 62
    96
100
AcDbMText
 10
119.2198163354513
 20
45.48687767908593
 30
0.0
 40
2.489199936389923
 41
12.5
 71
     2
 72
     1
  1
\fArial|b0|i0;\H2.4892;Foglio\P 
  7
Corrente-ISO
 73
     2
 44
0.9442214369773864
1001
ACAD
1000
MTEXTBEGIN
1070
    73
1070
     2
1070
    44
1040
0.9442214369773864
1070
    74
1070
     0
1000
MTEXTEND
  0
MTEXT
  5
32C
330
2C0
100
AcDbEntity
  8
Simboli(ISO)
 62
    96
100
AcDbMText
 10
97.44767410410688
 20
52.26743745909543
 30
0.0
 40
2.489199936389923
 41
27.00000000000001
 71
     5
 72
     1
  1
\fArial|b0|i0;\H2.4892;Peso Unit.(Kg)
  7
Corrente-ISO
 73
     1
 44
1.0
1001
ACAD
1000
MTEXTBEGIN
1070
    73
1070
     1
1070
    44
1040
1.0
1070
    74
1070
     0
1000
MTEXTEND
  0
MTEXT
  5
32D
330
2C0
100
AcDbEntity
  8
Simboli(ISO)
 62
    96
100
AcDbMText
 10
113.0
 20
53.52906693798992
 30
0.0
 40
2.489199936389923
 41
41.5
 71
     1
 72
     1
  1
\fArial|b0|i0;\H2.4892;Trattamento
  7
Corrente-ISO
 73
     1
 44
1.0
1001
ACAD
1000
MTEXTBEGIN
1070
    73
1070
     1
1070
    44
1040
1.0
1070
    74
1070
     0
1000
MTEXTEND
  0
MTEXT
  5
32E
330
2C0
100
AcDbEntity
  8
Simboli(ISO)
 62
    96
100
AcDbMText
 10
188.6268379764541
 20
52.23897215805649
 30
0.0
 40
2.489199936389923
 41
21.64389610290527
 71
     5
 72
     1
  1
\fArial|b0|i0;\H2.4892;Coeff.Impiego
  7
Corrente-ISO
 73
     1
 44
1.0
1001
ACAD
1000
MTEXTBEGIN
1070
    73
1070
     1
1070
    44
1040
1.0
1070
    74
1070
     0
1000
MTEXTEND
  0
MTEXT
  5
32F
330
2C0
100
AcDbEntity
  8
Simboli(ISO)
 62
    96
100
AcDbMText
 10
127.0
 20
45.54724501095818
 30
0.0
 40
2.489199936389923
 41
32.5
 71
     1
 72
     1
  1
\fArial|b0|i0;\H2.4892;Disegnato
  7
Corrente-ISO
 73
     1
 44
1.0
1001
ACAD
1000
MTEXTBEGIN
1070
    73
1070
     1
1070
    44
1040
1.0
1070
    74
1070
     0
1000
MTEXTEND
  0
MTEXT
  5
330
330
2C0
100
AcDbEntity
  8
Simboli(ISO)
 62
    96
100
AcDbMText
 10
127.1130530408996
 20
37.43473480983361
 30
0.0
 40
2.489199936389923
 41
31.99999999999999
 71
     1
 72
     1
  1
\fArial|b0|i0;\H2.4892;Verificato
  7
Corrente-ISO
 73
     1
 44
1.0
1001
ACAD
1000
MTEXTBEGIN
1070
    73
1070
     1
1070
    44
1040
1.0
1070
    74
1070
     0
1000
MTEXTEND
  0
MTEXT
  5
331
330
2C0
100
AcDbEntity
  8
Simboli(ISO)
 62
    96
100
AcDbMText
 10
127.0565265204498
 20
29.43473480983361
 30
0.0
 40
2.489199936389923
 41
31.99999999999999
 71
     1
 72
     1
  1
\fArial|b0|i0;\H2.4892;Approvato
  7
Corrente-ISO
 73
     1
 44
1.0
1001
ACAD
1000
MTEXTBEGIN
1070
    73
1070
     1
1070
    44
1040
1.0
1070
    74
1070
     0
1000
MTEXTEND
  0
MTEXT
  5
332
330
2C0
100
AcDbEntity
  8
Simboli(ISO)
 62
     7
100
AcDbMText
 10
33.90115953460973
 20
31.79652138804769
 30
0.0
 40
3.50519984960556
 41
58.00000000000001
 71
     1
 72
     1
  1
\fArial Black|b1|i0;\H3.5052;Fratelli Comunello 
  7
Corrente-ISO
 73
     1
 44
1.0
1001
ACAD
1000
MTEXTBEGIN
1070
    73
1070
     1
1070
    44
1040
1.0
1070
    74
1070
     0
1000
MTEXTEND
  0
MTEXT
  5
333
330
2C0
100
AcDbEntity
  8
Simboli(ISO)
 62
     7
100
AcDbMText
 10
83.87549784754645
 20
30.17629441918698
 30
0.0
 40
2.006599903106689
 41
8.000000000000007
 71
     1
 72
     1
  1
\fArial Black|b1|i0;\H2.0066;S.p.A
  7
Corrente-ISO
 73
     1
 44
1.0
1001
ACAD
1000
MTEXTBEGIN
1070
    73
1070
     1
1070
    44
1040
1.0
1070
    74
1070
     0
1000
MTEXTEND
  0
MTEXT
  5
334
330
2C0
100
AcDbEntity
  8
Simboli(ISO)
 62
     7
100
AcDbMText
 10
34.0
 20
24.5
 30
0.0
 40
2.489199936389923
 41
61.00000000000001
 71
     1
 72
     1
  1
\fEuroRoman|b0|i0;\W1.75;\H2.4892;Accessories for fittings
  7
Corrente-ISO
 73
     1
 44
1.0
1001
ACAD
1000
MTEXTBEGIN
1070
    73
1070
     1
1070
    44
1040
1.0
1070
    74
1070
     0
1000
MTEXTEND
  0
MTEXT
  5
335
102
{ACAD_XDICTIONARY
360
C0A
102
}
330
2C0
100
AcDbEntity
  8
Simboli(ISO)
 62
     7
100
AcDbMText
 10
99.38145982981417
 20
35.34883259221208
 30
0.0
 40
2.006599903106689
 41
27.99999999999999
 71
     1
 72
     1
  1
\fArial|b0|i0;\H2.0066;Via Cassola , 64\P36027 Ros\U+00E0 (VI)\PITALY\PTel.0424/585111\PFax.0424/533417\Pwww.comunello.com
  7
Corrente-ISO
 73
     2
 44
0.9442214965820312
1001
ACAD
1000
MTEXTBEGIN
1070
    73
1070
     2
1070
    44
1040
0.9442214965820312
1070
    74
1070
     0
1000
MTEXTEND
  0
MTEXT
  5
336
330
2C0
100
AcDbEntity
  8
Simboli(ISO)
 62
     7
100
AcDbMText
 10
105.0
 20
12.1031239376365
 30
0.0
 40
2.006599903106689
 41
190.0
 71
     5
 72
     1
  1
\fArial Black|b1|i0;\W0.75;\H2.0066;La Fratelli Comunello S.p.A. si riserva a termini di legge la proprieta' del presente disegno con divieto di riprodurlo o comunicarlo a terzi senza sua autorizzazione
  7
Corrente-ISO
 73
     1
 44
1.0
1001
ACAD
1000
MTEXTBEGIN
1070
    73
1070
     1
1070
    44
1040
1.0
1070
    74
1070
     0
1000
MTEXTEND
  0
MTEXT
  5
337
330
2C0
100
AcDbEntity
  8
Simboli(ISO)
 62
    96
100
AcDbMText
 10
127.0
 20
21.49126132885024
 30
0.0
 40
2.489199936389923
 41
14.0
 71
     1
 72
     1
  1
\fArial|b0|i0;\H2.4892;Nr.Art.
  7
Corrente-ISO
 73
     1
 44
1.0
1001
ACAD
1000
MTEXTBEGIN
1070
    73
1070
     1
1070
    44
1040
1.0
1070
    74
1070
     0
1000
MTEXTEND
  0
MTEXT
  5
338
330
2C0
100
AcDbEntity
  8
Simboli(ISO)
 62
    96
100
AcDbMText
 10
160.1920425734282
 20
45.54306374702739
 30
0.0
 40
2.489199936389923
 41
13.99999999999998
 71
     1
 72
     1
  1
\fArial|b0|i0;\H2.4892;Data
  7
Corrente-ISO
 73
     1
 44
1.0
1001
ACAD
1000
MTEXTBEGIN
1070
    73
1070
     1
1070
    44
1040
1.0
1070
    74
1070
     0
1000
MTEXTEND
  0
MTEXT
  5
339
330
2C0
100
AcDbEntity
  8
Simboli(ISO)
 62
    96
100
AcDbMText
 10
160.145574392169
 20
37.49970139293061
 30
0.0
 40
2.489199936389923
 41
13.50000000000001
 71
     1
 72
     1
  1
\fArial|b0|i0;\H2.4892;Data
  7
Corrente-ISO
 73
     1
 44
1.0
1001
ACAD
1000
MTEXTBEGIN
1070
    73
1070
     1
1070
    44
1040
1.0
1070
    74
1070
     0
1000
MTEXTEND
  0
MTEXT
  5
33A
330
2C0
100
AcDbEntity
  8
Simboli(ISO)
 62
    96
100
AcDbMText
 10
160.1269413643238
 20
29.66759768010355
 30
0.0
 40
2.489199936389923
 41
11.99999999999999
 71
     1
 72
     1
  1
\fArial|b0|i0;\H2.4892;Data
  7
Corrente-ISO
 73
     1
 44
1.0
1001
ACAD
1000
MTEXTBEGIN
1070
    73
1070
     1
1070
    44
1040
1.0
1070
    74
1070
     0
1000
MTEXTEND
  0
MTEXT
  5
33B
330
2C0
100
AcDbEntity
  8
Simboli(ISO)
 62
    96
100
AcDbMText
 10
188.433042920287
 20
44.22190362458245
 30
0.0
 40
2.489199936389923
 41
21.64389610290527
 71
     5
 72
     1
  1
\fArial|b0|i0;\H2.4892;Attrezzatura 1
  7
Corrente-ISO
 73
     1
 44
1.0
1001
ACAD
1000
MTEXTBEGIN
1070
    73
1070
     1
1070
    44
1040
1.0
1070
    74
1070
     0
1000
MTEXTEND
  0
MTEXT
  5
33C
330
2C0
100
AcDbEntity
  8
Simboli(ISO)
 62
    96
100
AcDbMText
 10
188.0837249836041
 20
36.34533462143185
 30
0.0
 40
2.489199936389923
 41
20.54728269577026
 71
     5
 72
     1
  1
\fArial|b0|i0;\W0.95;\H2.4892;Attrezzatura 2
  7
Corrente-ISO
 73
     1
 44
1.0
1001
ACAD
1000
MTEXTBEGIN
1070
    73
1070
     1
1070
    44
1040
1.0
1070
    74
1070
     0
1000
MTEXTEND
  0
MTEXT
  5
33D
330
2C0
100
AcDbEntity
  8
Simboli(ISO)
 62
    96
100
AcDbMText
 10
188.3141272195963
 20
28.3675383381331
 30
0.0
 40
2.489199936389923
 41
21.64389610290527
 71
     5
 72
     1
  1
\fArial|b0|i0;\H2.4892;Attrezzatura 3
  7
Corrente-ISO
 73
     1
 44
1.0
1001
ACAD
1000
MTEXTBEGIN
1070
    73
1070
     1
1070
    44
1040
1.0
1070
    74
1070
     0
1000
MTEXTEND
  0
MTEXT
  5
33E
330
2C0
100
AcDbEntity
  8
Simboli(ISO)
 62
     7
100
AcDbMText
 10
11.5
 20
50.09709167610179
 30
0.0
 40
2.489199936389923
 41
43.0
 71
     1
 72
     1
  1
\fArial|b0|i0;\H2.4892;UNI ISO 2768-m
  7
Corrente-ISO
 73
     1
 44
1.0
1001
ACAD
1000
MTEXTBEGIN
1070
    73
1070
     1
1070
    44
1040
1.0
1070
    74
1070
     0
1000
MTEXTEND
  0
MTEXT
  5
33F
330
2C0
100
AcDbEntity
  8
Simboli(ISO)
 62
     7
100
AcDbMText
 10
93.43312134410579
 20
31.15001179156206
 30
0.0
 40
1.49859994649887
 41
0.0
 71
     1
 72
     1
  1
\fArial|b0|i0;\H1.4986;R
  7
Corrente-ISO
 73
     1
 44
1.0
1001
ACAD
1000
MTEXTBEGIN
1070
    73
1070
     1
1070
    44
1040
1.0
1070
    74
1070
     0
1000
MTEXTEND
  0
ATTDEF
  5
341
102
{ACAD_XDICTIONARY
360
A15
102
}
330
2C0
100
AcDbEntity
  8
Simboli(ISO)
 62
     7
100
AcDbText
 10
11.0
 20
64.45781237692007
 30
0.0
 40
2.006599903106689
  1
ANCORANTE M20
  7
Stile testo6
100
AcDbAttributeDefinition
  3
Denominazione  1
  2
Denominazione__1_001
 70
     0
  0
ATTDEF
  5
342
102
{ACAD_XDICTIONARY
360
A18
102
}
330
2C0
100
AcDbEntity
  8
Simboli(ISO)
 62
     7
100
AcDbText
 10
11.0
 20
60.99340009689331
 30
0.0
 40
2.006599903106689
  1

  7
Stile testo6
 11
11.0
 21
63.0
 31
0.0
100
AcDbAttributeDefinition
  3
Denominazione 2
  2
Denominazione_2
 70
     0
 74
     3
  0
ATTDEF
  5
344
102
{ACAD_XDICTIONARY
360
A1B
102
}
330
2C0
100
AcDbEntity
  8
Simboli(ISO)
 62
     7
100
AcDbText
 10
86.9334508519198
 20
61.74740007519723
 30
0.0
 40
3.50519984960556
  1
CG-348-20
 41
0.75
  7
Stile testo135
100
AcDbAttributeDefinition
  3
CODICE DISEGNO
  2
CODICE_DISEGNO_001
 70
     0
  0
ATTDEF
  5
346
102
{ACAD_XDICTIONARY
360
A1E
102
}
330
2C0
100
AcDbEntity
  8
Simboli(ISO)
 62
     7
100
AcDbText
 10
135.1796408441187
 20
64.24233972190191
 30
0.0
 40
2.006599903106689
  1
ACCIAIO INOX
  7
Stile testo6
100
AcDbAttributeDefinition
  3
Materiale 1
  2
Materiale_1_001
 70
     0
  0
ATTDEF
  5
347
102
{ACAD_XDICTIONARY
360
A21
102
}
330
2C0
100
AcDbEntity
  8
Simboli(ISO)
 62
     7
100
AcDbText
 10
144.809961390817
 20
60.49670004844665
 30
0.0
 40
2.006599903106689
  1

  7
Stile testo6
 72
     1
 11
144.809961390817
 21
61.5
 31
0.0
100
AcDbAttributeDefinition
  3
Materiale 2
  2
Materiale_2
 70
     0
 74
     2
  0
ATTDEF
  5
348
102
{ACAD_XDICTIONARY
360
A24
102
}
330
2C0
100
AcDbEntity
  8
Simboli(ISO)
 62
     7
100
AcDbText
 10
188.5
 20
62.49670004844666
 30
0.0
 40
2.006599903106689
  1

  7
Stile testo6
 72
     1
 11
188.5
 21
63.5
 31
0.0
100
AcDbAttributeDefinition
  3
CODICE MATERIALE
  2
CODICE_MATERIALE
 70
     0
 74
     2
  0
ATTDEF
  5
349
102
{ACAD_XDICTIONARY
360
A27
102
}
330
2C0
100
AcDbEntity
  8
Simboli(ISO)
 62
     7
100
AcDbText
 10
97.05039695754834
 20
47.24746089643153
 30
0.0
 40
2.489199936389923
  1

  7
Stile testo15
 72
     1
 11
97.05039695754834
 21
48.4920608646265
 31
0.0
100
AcDbAttributeDefinition
  3
PESO UNITARIO KG
  2
PESO_UNITARIO_KG
 70
     0
 74
     2
  0
ATTDEF
  5
34A
102
{ACAD_XDICTIONARY
360
A2A
102
}
330
2C0
100
AcDbEntity
  8
Simboli(ISO)
 62
     7
100
AcDbText
 10
132.6521050609213
 20
50.99169272765512
 30
0.0
 40
2.489199936389923
  1

  7
Stile testo15
 11
132.6521050609213
 21
53.48089266404504
 31
0.0
100
AcDbAttributeDefinition
  3
TRATTAMENTO 1
  2
TRATTAMENTO_1
 70
     0
 74
     3
  0
ATTDEF
  5
34B
102
{ACAD_XDICTIONARY
360
A2D
102
}
330
2C0
100
AcDbEntity
  8
Simboli(ISO)
 62
     7
100
AcDbText
 10
113.0632687693352
 20
47.49849971798101
 30
0.0
 40
2.489199936389923
  1

  7
Stile testo15
 11
113.0632687693352
 21
49.98769965437094
 31
0.0
100
AcDbAttributeDefinition
  3
TRATTAMENTO 2
  2
TRATTAMENTO_2
 70
     0
 74
     3
  0
ATTDEF
  5
34C
102
{ACAD_XDICTIONARY
360
A30
102
}
330
2C0
100
AcDbEntity
  8
Simboli(ISO)
 62
     7
100
AcDbText
 10
188.5523258958931
 20
47.38184462506182
 30
0.0
 40
2.489199936389923
  1

  7
Stile testo15
 72
     1
 11
188.5523258958931
 21
48.62644459325678
 31
0.0
100
AcDbAttributeDefinition
  3
COEFFICIENTE D'IMPEGO
  2
COEFFICIENTE_D'IMPEGO
 70
     0
 74
     2
  0
ATTDEF
  5
34D
102
{ACAD_XDICTIONARY
360
A33
102
}
330
2C0
100
AcDbEntity
  8
Simboli(ISO)
 62
     7
100
AcDbText
 10
93.76919517762665
 20
39.75115514787532
 30
0.0
 40
2.489199936389923
  1
1 : 2
  7
Stile testo15
100
AcDbAttributeDefinition
  3
SCALA
  2
SCALA_001
 70
     0
  0
ATTDEF
  5
34E
102
{ACAD_XDICTIONARY
360
A36
102
}
330
2C0
100
AcDbEntity
  8
Simboli(ISO)
 62
     7
100
AcDbText
 10
117.1550359571239
 20
39.15834221229631
 30
0.0
 40
2.489199936389923
  1
A4
  7
Stile testo15
100
AcDbAttributeDefinition
  3
FOGLIO
  2
FOGLIO_001
 70
     0
  0
ATTDEF
  5
34F
102
{ACAD_XDICTIONARY
360
A39
102
}
330
2C0
100
AcDbEntity
  8
Simboli(ISO)
 62
     7
100
AcDbText
 10
127.2419110570728
 20
38.96835122431284
 30
0.0
 40
2.489199936389923
  1
MENEGHINI
  7
Stile testo15
100
AcDbAttributeDefinition
  3
DISEGNATO
  2
DISEGNATO_001
 70
     0
  0
ATTDEF
  5
350
102
{ACAD_XDICTIONARY
360
A3C
102
}
330
2C0
100
AcDbEntity
  8
Simboli(ISO)
 62
     7
100
AcDbText
 10
161.3189535195473
 20
39.271530590738
 30
0.0
 40
2.489199936389923
  1
24-07-06
  7
Stile testo15
100
AcDbAttributeDefinition
  3
DATA
  2
DATA_001
 70
     0
  0
ATTDEF
  5
351
102
{ACAD_XDICTIONARY
360
A3F
102
}
330
2C0
100
AcDbEntity
  8
Simboli(ISO)
 62
     7
100
AcDbText
 10
161.3189535195473
 20
31.52153059073799
 30
0.0
 40
2.489199936389923
  1
24-07-06
  7
Stile testo15
100
AcDbAttributeDefinition
  3
DATA
  2
DATA_001
 70
     0
  0
ATTDEF
  5
352
102
{ACAD_XDICTIONARY
360
A42
102
}
330
2C0
100
AcDbEntity
  8
Simboli(ISO)
 62
     7
100
AcDbText
 10
161.3189535195473
 20
23.52153059073799
 30
0.0
 40
2.489199936389923
  1
24-07-06
  7
Stile testo15
100
AcDbAttributeDefinition
  3
DATA
  2
DATA_001
 70
     0
  0
ATTDEF
  5
353
102
{ACAD_XDICTIONARY
360
A45
102
}
330
2C0
100
AcDbEntity
  8
Simboli(ISO)
 62
     7
100
AcDbText
 10
137.8158294861797
 20
19.04984984195285
 30
0.0
 40
2.489199936389923
  1

  7
Stile testo15
 11
137.8158294861797
 21
21.53904977834278
 31
0.0
100
AcDbAttributeDefinition
  3
NUMERO ARTICOLO
  2
NUMERO_ARTICOLO
 70
     0
 74
     3
  0
ATTDEF
  5
354
102
{ACAD_XDICTIONARY
360
A48
102
}
330
2C0
100
AcDbEntity
  8
Simboli(ISO)
 62
     7
100
AcDbText
 10
127.1848152468796
 20
15.15058891438324
 30
0.0
 40
2.489199936389923
  1

  7
Stile testo15
 11
127.1848152468796
 21
17.63978885077316
 31
0.0
100
AcDbAttributeDefinition
  3
NUMERO ARTICOLO
  2
NUMERO_ARTICOLO
 70
     0
 74
     3
  0
ATTDEF
  5
355
102
{ACAD_XDICTIONARY
360
A4B
102
}
330
2C0
100
AcDbEntity
  8
Simboli(ISO)
 62
     7
100
AcDbText
 10
188.5
 20
39.25540003180504
 30
0.0
 40
2.489199936389923
  1

  7
Stile testo15
 72
     1
 11
188.5
 21
40.5
 31
0.0
100
AcDbAttributeDefinition
  3
ATTREZZAT. 1
  2
ATTREZZAT._1
 70
     0
 74
     2
  0
ATTDEF
  5
356
102
{ACAD_XDICTIONARY
360
A4E
102
}
330
2C0
100
AcDbEntity
  8
Simboli(ISO)
 62
     7
100
AcDbText
 10
188.5
 20
31.25540003180504
 30
0.0
 40
2.489199936389923
  1

  7
Stile testo15
 72
     1
 11
188.5
 21
32.5
 31
0.0
100
AcDbAttributeDefinition
  3
ATTREZZAT.2
  2
ATTREZZAT.2
 70
     0
 74
     2
  0
ATTDEF
  5
357
102
{ACAD_XDICTIONARY
360
A51
102
}
330
2C0
100
AcDbEntity
  8
Simboli(ISO)
 62
     7
100
AcDbText
 10
188.5
 20
23.25540003180504
 30
0.0
 40
2.489199936389923
  1

  7
Stile testo15
 72
     1
 11
188.5
 21
24.5
 31
0.0
100
AcDbAttributeDefinition
  3
ATTREZZAT.3
  2
ATTREZZAT.3
 70
     0
 74
     2
  0
ATTDEF
  5
358
102
{ACAD_XDICTIONARY
360
A54
102
}
330
2C0
100
AcDbEntity
  8
Simboli(ISO)
 62
     7
100
AcDbText
 10
22.0
 20
39.75540003180504
 30
0.0
 40
2.489199936389923
  1

  7
Stile testo15
 72
     1
 11
22.0
 21
41.0
 31
0.0
100
AcDbAttributeDefinition
  3
SOSTITUISCE IL
  2
SOSTITUISCE_IL
 70
     0
 74
     2
  0
ATTDEF
  5
359
102
{ACAD_XDICTIONARY
360
A57
102
}
330
2C0
100
AcDbEntity
  8
Simboli(ISO)
 62
     7
100
AcDbText
 10
46.5
 20
39.75540003180504
 30
0.0
 40
2.489199936389923
  1

  7
Stile testo15
 72
     1
 11
46.5
 21
41.0
 31
0.0
100
AcDbAttributeDefinition
  3
SOSTITUITO DAL
  2
SOSTITUITO_DAL
 70
     0
 74
     2
  0
ENDBLK
  5
2C2
330
2C0
100
AcDbEntity
  8
0
100
AcDbBlockEnd
  0
BLOCK
  5
46C
330
46B
100
AcDbEntity
  8
0
100
AcDbBlockBegin
  2
*D10
 70
     1
 10
0.0
 20
0.0
 30
0.0
  3
*D10
  1

  0
LINE
  5
551
330
46B
100
AcDbEntity
  8
Quote(ISO)
  6
Continuous
 62
    96
370
    25
100
AcDbLine
 10
211.9334687973895
 20
542.578736348795
 30
0.0
 11
211.9334687973895
 21
557.7942457239235
 31
0.0
  0
LINE
  5
552
330
46B
100
AcDbEntity
  8
Quote(ISO)
  6
Continuous
 62
    96
370
    25
100
AcDbLine
 10
231.9334687973896
 20
542.578736348795
 30
0.0
 11
231.9334687973896
 21
557.7942457239235
 31
0.0
  0
LINE
  5
553
330
46B
100
AcDbEntity
  8
Quote(ISO)
  6
Continuous
 62
    96
370
    25
100
AcDbLine
 10
236.9334687973895
 20
555.7942457239234
 30
0.0
 11
241.9334687973895
 21
555.7942457239234
 31
0.0
  0
LINE
  5
554
330
46B
100
AcDbEntity
  8
Quote(ISO)
  6
Continuous
 62
    96
370
    25
100
AcDbLine
 10
206.9334687973895
 20
555.7942457239234
 30
0.0
 11
177.613299629586
 21
555.7942457239234
 31
0.0
  0
LINE
  5
555
330
46B
100
AcDbEntity
  8
Quote(ISO)
  6
Continuous
 62
    96
370
    25
100
AcDbLine
 10
231.9334687973896
 20
555.7942457239234
 30
0.0
 11
211.9334687973895
 21
555.7942457239234
 31
0.0
  0
SOLID
  5
556
330
46B
100
AcDbEntity
  8
Quote(ISO)
  6
Continuous
 62
    96
100
AcDbTrace
 10
236.9334687973895
 20
556.6275790572568
 30
0.0
 11
236.9334687973895
 21
554.9609123905901
 31
0.0
 12
231.9334687973896
 22
555.7942457239234
 32
0.0
 13
231.9334687973896
 23
555.7942457239234
 33
0.0
  0
SOLID
  5
557
330
46B
100
AcDbEntity
  8
Quote(ISO)
  6
Continuous
 62
    96
100
AcDbTrace
 10
206.9334687973895
 20
556.6275790572568
 30
0.0
 11
206.9334687973895
 21
554.9609123905901
 31
0.0
 12
211.9334687973895
 22
555.7942457239234
 32
0.0
 13
211.9334687973895
 23
555.7942457239234
 33
0.0
  0
MTEXT
  5
558
330
46B
100
AcDbEntity
  8
Quote(ISO)
  6
Continuous
 62
     7
370
    25
100
AcDbMText
 10
179.1372996295859
 20
564.4662675520272
 30
0.0
 40
7.0
 41
0.0
 71
     1
 72
     1
  1
\A1; M20
  7
Corrente-ISO
 73
     1
 44
1.0
1001
ACAD
1000
MTEXTBEGIN
1070
    73
1070
     1
1070
    44
1040
1.0
1070
    74
1070
     0
1000
MTEXTEND
  0
POINT
  5
559
330
46B
100
AcDbEntity
  8
Defpoints
  6
Continuous
 62
     0
100
AcDbPoint
 10
211.9334687973895
 20
540.578736348795
 30
0.0
  0
POINT
  5
55A
330
46B
100
AcDbEntity
  8
Defpoints
  6
Continuous
 62
     0
100
AcDbPoint
 10
231.9334687973896
 20
540.578736348795
 30
0.0
  0
POINT
  5
55B
330
46B
100
AcDbEntity
  8
Defpoints
  6
Continuous
 62
     0
100
AcDbPoint
 10
231.9334687973896
 20
555.7942457239234
 30
0.0
  0
ENDBLK
  5
46D
330
46B
100
AcDbEntity
  8
0
100
AcDbBlockEnd
  0
BLOCK
  5
55E
330
55D
100
AcDbEntity
  8
0
100
AcDbBlockBegin
  2
*D11
 70
     1
 10
0.0
 20
0.0
 30
0.0
  3
*D11
  1

  0
LINE
  5
644
330
55D
100
AcDbEntity
  8
Quote(ISO)
  6
Continuous
 62
    96
370
    25
100
AcDbLine
 10
232.9334687973895
 20
541.5787363487949
 30
0.0
 11
265.6252011258035
 21
541.5787363487948
 31
0.0
  0
LINE
  5
645
330
55D
100
AcDbEntity
  8
Quote(ISO)
  6
Continuous
 62
    96
370
    25
100
AcDbLine
 10
233.1334687973896
 20
356.0293475568402
 30
0.0
 11
265.6252011258034
 21
356.0293475568402
 31
0.0
  0
LINE
  5
646
330
55D
100
AcDbEntity
  8
Quote(ISO)
  6
Continuous
 62
    96
370
    25
100
AcDbLine
 10
263.6252011258035
 20
536.5787363487949
 30
0.0
 11
263.6252011258034
 21
361.0293475568402
 31
0.0
  0
SOLID
  5
647
330
55D
100
AcDbEntity
  8
Quote(ISO)
  6
Continuous
 62
    96
100
AcDbTrace
 10
262.7918677924701
 20
536.5787363487949
 30
0.0
 11
264.4585344591368
 21
536.5787363487949
 31
0.0
 12
263.6252011258035
 22
541.5787363487948
 32
0.0
 13
263.6252011258035
 23
541.5787363487948
 33
0.0
  0
SOLID
  5
648
330
55D
100
AcDbEntity
  8
Quote(ISO)
  6
Continuous
 62
    96
100
AcDbTrace
 10
262.7918677924701
 20
361.0293475568402
 30
0.0
 11
264.4585344591367
 21
361.0293475568402
 31
0.0
 12
263.6252011258034
 22
356.0293475568402
 32
0.0
 13
263.6252011258034
 23
356.0293475568402
 33
0.0
  0
MTEXT
  5
649
330
55D
100
AcDbEntity
  8
Quote(ISO)
  6
Continuous
 62
     7
370
    25
100
AcDbMText
 10
254.9484044000189
 20
441.0854198518626
 30
0.0
 40
7.0
 41
0.0
 71
     1
 72
     1
  1
\A1;300
  7
Corrente-ISO
 11
0.0000000000000001
 21
1.0
 31
0.0
 73
     1
 44
1.0
1001
ACAD
1000
MTEXTBEGIN
1070
    73
1070
     1
1070
    44
1040
1.0
1070
    74
1070
     0
1000
MTEXTEND
  0
POINT
  5
64A
330
55D
100
AcDbEntity
  8
Defpoints
  6
Continuous
 62
     0
100
AcDbPoint
 10
230.9334687973895
 20
541.5787363487949
 30
0.0
  0
POINT
  5
64B
330
55D
100
AcDbEntity
  8
Defpoints
  6
Continuous
 62
     0
100
AcDbPoint
 10
231.1334687973896
 20
356.0293475568402
 30
0.0
  0
POINT
  5
64C
330
55D
100
AcDbEntity
  8
Defpoints
  6
Continuous
 62
     0
100
AcDbPoint
 10
263.6252011258034
 20
356.0293475568402
 30
0.0
  0
ENDBLK
  5
55F
330
55D
100
AcDbEntity
  8
0
100
AcDbBlockEnd
  0
BLOCK
  5
64F
330
64E
100
AcDbEntity
  8
0
100
AcDbBlockBegin
  2
*D12
 70
     1
 10
0.0
 20
0.0
 30
0.0
  3
*D12
  1

  0
LINE
  5
726
330
64E
100
AcDbEntity
  8
Quote(ISO)
  6
Continuous
 62
    96
370
    25
100
AcDbLine
 10
231.0584687973896
 20
304.0293475568401
 30
0.0
 11
231.0584687973896
 21
248.3191435841496
 31
0.0
  0
LINE
  5
727
330
64E
100
AcDbEntity
  8
Quote(ISO)
  6
Continuous
 62
    96
370
    25
100
AcDbLine
 10
161.3084687973896
 20
304.0293475568401
 30
0.0
 11
161.3084687973896
 21
248.3191435841496
 31
0.0
  0
LINE
  5
728
330
64E
100
AcDbEntity
  8
Quote(ISO)
  6
Continuous
 62
    96
370
    25
100
AcDbLine
 10
226.0584687973896
 20
250.3191435841496
 30
0.0
 11
166.3084687973896
 21
250.3191435841496
 31
0.0
  0
SOLID
  5
729
330
64E
100
AcDbEntity
  8
Quote(ISO)
  6
Continuous
 62
    96
100
AcDbTrace
 10
226.0584687973896
 20
251.1524769174829
 30
0.0
 11
226.0584687973896
 21
249.4858102508162
 31
0.0
 12
231.0584687973896
 22
250.3191435841496
 32
0.0
 13
231.0584687973896
 23
250.3191435841496
 33
0.0
  0
SOLID
  5
72A
330
64E
100
AcDbEntity
  8
Quote(ISO)
  6
Continuous
 62
    96
100
AcDbTrace
 10
166.3084687973896
 20
251.1524769174829
 30
0.0
 11
166.3084687973896
 21
249.4858102508162
 31
0.0
 12
161.3084687973896
 22
250.3191435841496
 32
0.0
 13
161.3084687973896
 23
250.3191435841496
 33
0.0
  0
MTEXT
  5
72B
330
64E
100
AcDbEntity
  8
Quote(ISO)
  6
Continuous
 62
     7
370
    25
100
AcDbMText
 10
184.3273978560526
 20
258.9911654122533
 30
0.0
 40
7.0
 41
0.0
 71
     1
 72
     1
  1
\A1;69.75
  7
Corrente-ISO
 73
     1
 44
1.0
1001
ACAD
1000
MTEXTBEGIN
1070
    73
1070
     1
1070
    44
1040
1.0
1070
    74
1070
     0
1000
MTEXTEND
  0
POINT
  5
72C
330
64E
100
AcDbEntity
  8
Defpoints
  6
Continuous
 62
     0
100
AcDbPoint
 10
231.0584687973896
 20
306.0293475568401
 30
0.0
  0
POINT
  5
72D
330
64E
100
AcDbEntity
  8
Defpoints
  6
Continuous
 62
     0
100
AcDbPoint
 10
161.3084687973896
 20
306.0293475568401
 30
0.0
  0
POINT
  5
72E
330
64E
100
AcDbEntity
  8
Defpoints
  6
Continuous
 62
     0
100
AcDbPoint
 10
161.3084687973896
 20
250.3191435841496
 30
0.0
  0
ENDBLK
  5
650
330
64E
100
AcDbEntity
  8
0
100
AcDbBlockEnd
  0
BLOCK
  5
731
330
730
100
AcDbEntity
  8
0
100
AcDbBlockBegin
  2
*D13
 70
     1
 10
0.0
 20
0.0
 30
0.0
  3
*D13
  1

  0
LINE
  5
80E
330
730
100
AcDbEntity
  8
Quote(ISO)
  6
Continuous
 62
    96
370
    25
100
AcDbLine
 10
159.3084687973895
 20
356.0293475568401
 30
0.0
 11
131.8870701690607
 21
356.0293475568401
 31
0.0
  0
LINE
  5
80F
330
730
100
AcDbEntity
  8
Quote(ISO)
  6
Continuous
 62
    96
370
    25
100
AcDbLine
 10
194.1834687973896
 20
271.1543475568401
 30
0.0
 11
131.8870701690607
 21
271.1543475568401
 31
0.0
  0
LINE
  5
810
330
730
100
AcDbEntity
  8
Quote(ISO)
  6
Continuous
 62
    96
370
    25
100
AcDbLine
 10
133.8870701690607
 20
351.0293475568401
 30
0.0
 11
133.8870701690607
 21
276.1543475568401
 31
0.0
  0
SOLID
  5
811
330
730
100
AcDbEntity
  8
Quote(ISO)
  6
Continuous
 62
    96
100
AcDbTrace
 10
133.0537368357274
 20
351.0293475568401
 30
0.0
 11
134.7204035023941
 21
351.0293475568401
 31
0.0
 12
133.8870701690607
 22
356.0293475568401
 32
0.0
 13
133.8870701690607
 23
356.0293475568401
 33
0.0
  0
SOLID
  5
812
330
730
100
AcDbEntity
  8
Quote(ISO)
  6
Continuous
 62
    96
100
AcDbTrace
 10
133.0537368357274
 20
276.1543475568401
 30
0.0
 11
134.720403502394
 21
276.1543475568401
 31
0.0
 12
133.8870701690607
 22
271.1543475568401
 32
0.0
 13
133.8870701690607
 23
271.1543475568401
 33
0.0
  0
MTEXT
  5
813
330
730
100
AcDbEntity
  8
Quote(ISO)
  6
Continuous
 62
     7
370
    25
100
AcDbMText
 10
125.215048340957
 20
300.1934846646163
 30
0.0
 40
7.0
 41
0.0
 71
     1
 72
     1
  1
\A1; 84.75
  7
Corrente-ISO
 11
0.0000000000000001
 21
1.0
 31
0.0
 73
     1
 44
1.0
1001
ACAD
1000
MTEXTBEGIN
1070
    73
1070
     1
1070
    44
1040
1.0
1070
    74
1070
     0
1000
MTEXTEND
  0
POINT
  5
814
330
730
100
AcDbEntity
  8
Defpoints
  6
Continuous
 62
     0
100
AcDbPoint
 10
161.3084687973895
 20
356.0293475568401
 30
0.0
  0
POINT
  5
815
330
730
100
AcDbEntity
  8
Defpoints
  6
Continuous
 62
     0
100
AcDbPoint
 10
196.1834687973896
 20
271.1543475568401
 30
0.0
  0
POINT
  5
816
330
730
100
AcDbEntity
  8
Defpoints
  6
Continuous
 62
     0
100
AcDbPoint
 10
133.8870701690607
 20
271.1543475568401
 30
0.0
  0
ENDBLK
  5
732
330
730
100
AcDbEntity
  8
0
100
AcDbBlockEnd
  0
BLOCK
  5
819
330
818
100
AcDbEntity
  8
0
100
AcDbBlockBegin
  2
*D14
 70
     1
 10
0.0
 20
0.0
 30
0.0
  3
*D14
  1

  0
LINE
  5
8FF
330
818
100
AcDbEntity
  8
Quote(ISO)
  6
Continuous
 62
    96
370
    25
100
AcDbLine
 10
179.5584687973896
 20
358.0293475568401
 30
0.0
 11
179.5584687973896
 21
384.58706501881
 31
0.0
  0
LINE
  5
900
330
818
100
AcDbEntity
  8
Quote(ISO)
  6
Continuous
 62
    96
370
    25
100
AcDbLine
 10
161.3084687973895
 20
358.0293475568401
 30
0.0
 11
161.3084687973895
 21
384.58706501881
 31
0.0
  0
LINE
  5
901
330
818
100
AcDbEntity
  8
Quote(ISO)
  6
Continuous
 62
    96
370
    25
100
AcDbLine
 10
184.5584687973896
 20
382.5870650188099
 30
0.0
 11
189.5584687973896
 21
382.5870650188099
 31
0.0
  0
LINE
  5
902
330
818
100
AcDbEntity
  8
Quote(ISO)
  6
Continuous
 62
    96
370
    25
100
AcDbLine
 10
156.3084687973895
 20
382.5870650188099
 30
0.0
 11
116.2863889282322
 21
382.5870650188099
 31
0.0
  0
LINE
  5
903
330
818
100
AcDbEntity
  8
Quote(ISO)
  6
Continuous
 62
    96
370
    25
100
AcDbLine
 10
179.5584687973896
 20
382.5870650188099
 30
0.0
 11
161.3084687973895
 21
382.5870650188099
 31
0.0
  0
SOLID
  5
904
330
818
100
AcDbEntity
  8
Quote(ISO)
  6
Continuous
 62
    96
100
AcDbTrace
 10
184.5584687973896
 20
383.4203983521433
 30
0.0
 11
184.5584687973896
 21
381.7537316854766
 31
0.0
 12
179.5584687973896
 22
382.5870650188099
 32
0.0
 13
179.5584687973896
 23
382.5870650188099
 33
0.0
  0
SOLID
  5
905
330
818
100
AcDbEntity
  8
Quote(ISO)
  6
Continuous
 62
    96
100
AcDbTrace
 10
156.3084687973895
 20
383.4203983521433
 30
0.0
 11
156.3084687973895
 21
381.7537316854766
 31
0.0
 12
161.3084687973895
 22
382.5870650188099
 32
0.0
 13
161.3084687973895
 23
382.5870650188099
 33
0.0
  0
MTEXT
  5
906
330
818
100
AcDbEntity
  8
Quote(ISO)
  6
Continuous
 62
     7
370
    25
100
AcDbMText
 10
117.8103889282322
 20
394.6432594997561
 30
0.0
 40
7.0
 41
0.0
 71
     1
 72
     1
  1
\A1;{\fAIGDT|b0|i0;\H7.0000;\ln\fArial|b0|i0;\H7.0000;}18.25
  7
Corrente-ISO
 73
     1
 44
1.0
1001
ACAD
1000
MTEXTBEGIN
1070
    73
1070
     1
1070
    44
1040
1.0
1070
    74
1070
     0
1000
MTEXTEND
  0
POINT
  5
907
330
818
100
AcDbEntity
  8
Defpoints
  6
Continuous
 62
     0
100
AcDbPoint
 10
179.5584687973896
 20
356.0293475568401
 30
0.0
  0
POINT
  5
908
330
818
100
AcDbEntity
  8
Defpoints
  6
Continuous
 62
     0
100
AcDbPoint
 10
161.3084687973895
 20
356.0293475568401
 30
0.0
  0
POINT
  5
909
330
818
100
AcDbEntity
  8
Defpoints
  6
Continuous
 62
     0
100
AcDbPoint
 10
161.3084687973895
 20
382.5870650188099
 30
0.0
  0
ENDBLK
  5
81A
330
818
100
AcDbEntity
  8
0
100
AcDbBlockEnd
  0
BLOCK
  5
90C
330
90B
100
AcDbEntity
  8
0
100
AcDbBlockBegin
  2
*D15
 70
     1
 10
0.0
 20
0.0
 30
0.0
  3
*D15
  1

  0
LINE
  5
9EC
330
90B
100
AcDbEntity
  8
Quote(ISO)
  6
Continuous
 62
    96
370
    25
100
AcDbLine
 10
232.9334687973895
 20
541.5787363487949
 30
0.0
 11
286.8642156273556
 21
541.5787363487948
 31
0.0
  0
LINE
  5
9ED
330
90B
100
AcDbEntity
  8
Quote(ISO)
  6
Continuous
 62
    96
370
    25
100
AcDbLine
 10
198.1834687973896
 20
271.1543475568401
 30
0.0
 11
286.8642156273556
 21
271.1543475568401
 31
0.0
  0
LINE
  5
9EE
330
90B
100
AcDbEntity
  8
Quote(ISO)
  6
Continuous
 62
    96
370
    25
100
AcDbLine
 10
284.8642156273556
 20
536.5787363487949
 30
0.0
 11
284.8642156273556
 21
276.1543475568401
 31
0.0
  0
SOLID
  5
9EF
330
90B
100
AcDbEntity
  8
Quote(ISO)
  6
Continuous
 62
    96
100
AcDbTrace
 10
284.0308822940223
 20
536.5787363487949
 30
0.0
 11
285.697548960689
 21
536.5787363487949
 31
0.0
 12
284.8642156273556
 22
541.5787363487948
 32
0.0
 13
284.8642156273556
 23
541.5787363487948
 33
0.0
  0
SOLID
  5
9F0
330
90B
100
AcDbEntity
  8
Quote(ISO)
  6
Continuous
 62
    96
100
AcDbTrace
 10
284.0308822940222
 20
276.1543475568401
 30
0.0
 11
285.6975489606889
 21
276.1543475568401
 31
0.0
 12
284.8642156273556
 22
271.1543475568401
 32
0.0
 13
284.8642156273556
 23
271.1543475568401
 33
0.0
  0
MTEXT
  5
9F1
330
90B
100
AcDbEntity
  8
Quote(ISO)
  6
Continuous
 62
     7
370
    25
100
AcDbMText
 10
276.187418901571
 20
397.0865283102527
 30
0.0
 40
7.0
 41
0.0
 71
     1
 72
     1
  1
\A1; 384
  7
Corrente-ISO
 11
0.0000000000000001
 21
1.0
 31
0.0
 73
     1
 44
1.0
1001
ACAD
1000
MTEXTBEGIN
1070
    73
1070
     1
1070
    44
1040
1.0
1070
    74
1070
     0
1000
MTEXTEND
  0
POINT
  5
9F2
330
90B
100
AcDbEntity
  8
Defpoints
  6
Continuous
 62
     0
100
AcDbPoint
 10
230.9334687973895
 20
541.5787363487949
 30
0.0
  0
POINT
  5
9F3
330
90B
100
AcDbEntity
  8
Defpoints
  6
Continuous
 62
     0
100
AcDbPoint
 10
196.1834687973896
 20
271.1543475568401
 30
0.0
  0
POINT
  5
9F4
330
90B
100
AcDbEntity
  8
Defpoints
  6
Continuous
 62
     0
100
AcDbPoint
 10
284.8642156273556
 20
271.1543475568401
 30
0.0
  0
ENDBLK
  5
90D
330
90B
100
AcDbEntity
  8
0
100
AcDbBlockEnd
  0
ENDSEC
  0
SECTION
  2
ENTITIES
  0
CIRCLE
  5
374
330
77
100
AcDbEntity
  8
Spigoli visibili(ISO)
100
AcDbCircle
 10
221.933468796643
 20
192.7812586095406
 30
0.0
 40
18.50000000000001
  0
ARC
  5
375
330
77
100
AcDbEntity
  8
Spigoli visibili(ISO)
100
AcDbCircle
 10
221.933468796643
 20
192.7812586095405
 30
0.0
 40
16.79999999999995
100
AcDbArc
 50
183.234499423242
 51
236.7655005767576
  0
ARC
  5
376
330
77
100
AcDbEntity
  8
Spigoli visibili(ISO)
100
AcDbCircle
 10
221.933468796643
 20
192.7812586095405
 30
0.0
 40
16.79999999999989
100
AcDbArc
 50
243.2344994232405
 51
296.7655005767593
  0
ARC
  5
377
330
77
100
AcDbEntity
  8
Spigoli visibili(ISO)
100
AcDbCircle
 10
221.9334687966429
 20
192.7812586095406
 30
0.0
 40
16.8
100
AcDbArc
 50
303.2344994232422
 51
356.7655005767575
  0
ARC
  5
378
330
77
100
AcDbEntity
  8
Spigoli visibili(ISO)
100
AcDbCircle
 10
221.9334687966429
 20
192.7812586095405
 30
0.0
 40
16.80000000000002
100
AcDbArc
 50
3.234499423245177
 51
56.76550057675417
  0
ARC
  5
379
330
77
100
AcDbEntity
  8
Spigoli visibili(ISO)
100
AcDbCircle
 10
221.933468796643
 20
192.7812586095406
 30
0.0
 40
16.79999999999995
100
AcDbArc
 50
63.23449942324646
 51
116.765500576753
  0
ARC
  5
37A
330
77
100
AcDbEntity
  8
Spigoli visibili(ISO)
100
AcDbCircle
 10
221.933468796643
 20
192.7812586095405
 30
0.0
 40
16.79999999999994
100
AcDbArc
 50
123.2344994232452
 51
176.7655005767547
  0
CIRCLE
  5
37B
330
77
100
AcDbEntity
  8
Spigoli visibili(ISO)
100
AcDbCircle
 10
221.933468796643
 20
192.7812586095407
 30
0.0
 40
10.0
  0
CIRCLE
  5
37C
330
77
100
AcDbEntity
  8
Spigoli visibili(ISO)
100
AcDbCircle
 10
221.933468796643
 20
192.7812586095407
 30
0.0
 40
9.0
  0
CIRCLE
  5
37D
330
77
100
AcDbEntity
  8
Spigoli visibili(ISO)
100
AcDbCircle
 10
170.4334687966431
 20
192.7812586095407
 30
0.0
 40
9.125
  0
LINE
  5
37E
330
77
100
AcDbEntity
  8
Spigoli visibili(ISO)
100
AcDbLine
 10
170.4334687966431
 20
183.6562586095407
 30
0.0
 11
205.8404773096635
 21
183.6562586095407
 31
0.0
  0
LINE
  5
37F
330
77
100
AcDbEntity
  8
Spigoli visibili(ISO)
100
AcDbLine
 10
205.8404773096635
 20
201.9062586095407
 30
0.0
 11
170.4334687966431
 21
201.9062586095407
 31
0.0
  0
CIRCLE
  5
380
330
77
100
AcDbEntity
  8
Spigoli visibili(ISO)
100
AcDbCircle
 10
221.933468796643
 20
192.7812586095406
 30
0.0
 40
14.09550807568875
  0
LINE
  5
381
330
77
100
AcDbEntity
  8
Spigoli visibili(ISO)
100
AcDbLine
 10
239.2539767946136
 20
192.781258474929
 30
0.0
 11
230.5937229122055
 21
177.7812587441525
 31
0.0
  0
LINE
  5
382
330
77
100
AcDbEntity
  8
Spigoli visibili(ISO)
100
AcDbLine
 10
230.5937226790512
 20
207.7812583403172
 30
0.0
 11
239.2539767946136
 21
192.781258474929
 31
0.0
  0
LINE
  5
383
330
77
100
AcDbEntity
  8
Spigoli visibili(ISO)
100
AcDbLine
 10
213.2732146810806
 20
207.7812584749288
 30
0.0
 11
230.5937226790512
 21
207.7812583403172
 31
0.0
  0
LINE
  5
384
330
77
100
AcDbEntity
  8
Spigoli visibili(ISO)
100
AcDbLine
 10
204.6129607986724
 20
192.7812587441523
 30
0.0
 11
213.2732146810806
 21
207.7812584749288
 31
0.0
  0
LINE
  5
385
330
77
100
AcDbEntity
  8
Spigoli visibili(ISO)
100
AcDbLine
 10
213.2732149142348
 20
177.7812588787641
 30
0.0
 11
204.6129607986724
 21
192.7812587441523
 31
0.0
  0
LINE
  5
386
330
77
100
AcDbEntity
  8
Spigoli visibili(ISO)
100
AcDbLine
 10
230.5937229122055
 20
177.7812587441525
 30
0.0
 11
213.2732149142348
 21
177.7812588787641
 31
0.0
  0
LINE
  5
387
330
77
100
AcDbEntity
  8
Spigoli visibili(ISO)
100
AcDbLine
 10
240.4334687973896
 20
491.5787363487947
 30
0.0
 11
203.4334687973895
 21
491.5787363487947
 31
0.0
  0
LINE
  5
388
330
77
100
AcDbEntity
  8
Spigoli visibili(ISO)
100
AcDbLine
 10
203.4334687973896
 20
494.5787363487946
 30
0.0
 11
240.4334687973896
 21
494.5787363487946
 31
0.0
  0
LINE
  5
389
330
77
100
AcDbEntity
  8
Spigoli visibili(ISO)
100
AcDbLine
 10
203.4334687973896
 20
491.5787363487948
 30
0.0
 11
203.4334687973896
 21
494.5787363487948
 31
0.0
  0
LINE
  5
38A
330
77
100
AcDbEntity
  8
Spigoli visibili(ISO)
100
AcDbLine
 10
240.4334687973896
 20
491.5787363487947
 30
0.0
 11
240.4334687973896
 21
494.5787363487948
 31
0.0
  0
LINE
  5
38B
330
77
100
AcDbEntity
  8
Spigoli visibili(ISO)
100
AcDbLine
 10
238.7334687973895
 20
498.5787363487948
 30
0.0
 11
205.1535894685637
 21
498.5787363487946
 31
0.0
  0
ELLIPSE
  5
38C
330
77
100
AcDbEntity
  8
Spigoli visibili(ISO)
100
AcDbEllipse
 10
221.9334687973895
 20
497.1930957027398
 30
0.0
 11
-0.033007137311282
 21
29.09844732703979
 31
0.0
210
0.0
220
0.0
230
1.0
 40
0.5773492786888925
 41
1.522504361729151
 42
1.660108042287488
  0
LINE
  5
38D
330
77
100
AcDbEntity
  8
Spigoli visibili(ISO)
100
AcDbLine
 10
205.1514937741599
 20
498.578736348795
 30
0.0
 11
205.1535894685637
 21
498.5787363487951
 31
0.0
  0
ELLIPSE
  5
38E
330
77
100
AcDbEntity
  8
Spigoli visibili(ISO)
100
AcDbEllipse
 10
221.9334687973895
 20
499.96437699485
 30
0.0
 11
-0.033007137311282
 21
29.09844732703979
 31
0.0
210
0.0
220
0.0
230
1.0
 40
0.5773492786888925
 41
1.617778486977959
 42
1.756298149636937
  0
LINE
  5
38F
330
77
100
AcDbEntity
  8
Spigoli visibili(ISO)
100
AcDbLine
 10
205.1334687973896
 20
494.5787363487949
 30
0.0
 11
205.1334687973896
 21
497.2312091191772
 31
0.0
  0
LINE
  5
390
330
77
100
AcDbEntity
  8
Spigoli visibili(ISO)
100
AcDbLine
 10
238.7334687973895
 20
494.5787363487949
 30
0.0
 11
238.7334687973895
 21
498.5787363487948
 31
0.0
  0
LINE
  5
391
330
77
100
AcDbEntity
  8
Spigoli visibili(ISO)
100
AcDbLine
 10
231.1334687973896
 20
356.0293475568401
 30
0.0
 11
212.7334687973896
 21
356.0293475568401
 31
0.0
  0
LINE
  5
392
330
77
100
AcDbEntity
  8
Spigoli visibili(ISO)
100
AcDbLine
 10
211.9334687973896
 20
356.8293475568401
 30
0.0
 11
231.9334687973896
 21
356.8293475568401
 31
0.0
  0
LINE
  5
393
330
77
100
AcDbEntity
  8
Spigoli visibili(ISO)
100
AcDbLine
 10
212.7334687973896
 20
356.0293475568401
 30
0.0
 11
211.9334687973896
 21
356.8293475568401
 31
0.0
  0
LINE
  5
394
330
77
100
AcDbEntity
  8
Spigoli visibili(ISO)
100
AcDbLine
 10
231.1334687973896
 20
356.0293475568401
 30
0.0
 11
231.9334687973896
 21
356.8293475568401
 31
0.0
  0
LINE
  5
395
330
77
100
AcDbEntity
  8
Spigoli visibili(ISO)
100
AcDbLine
 10
212.9334687973895
 20
541.5787363487949
 30
0.0
 11
230.9334687973895
 21
541.5787363487949
 31
0.0
  0
LINE
  5
396
330
77
100
AcDbEntity
  8
Spigoli visibili(ISO)
100
AcDbLine
 10
231.9334687973896
 20
540.578736348795
 30
0.0
 11
211.9334687973895
 21
540.578736348795
 31
0.0
  0
LINE
  5
397
330
77
100
AcDbEntity
  8
Spigoli visibili(ISO)
100
AcDbLine
 10
230.9334687973895
 20
541.5787363487949
 30
0.0
 11
231.9334687973896
 21
540.578736348795
 31
0.0
  0
LINE
  5
398
330
77
100
AcDbEntity
  8
Spigoli visibili(ISO)
100
AcDbLine
 10
212.9334687973895
 20
541.5787363487949
 30
0.0
 11
211.9334687973895
 21
540.578736348795
 31
0.0
  0
ARC
  5
399
330
77
100
AcDbEntity
  8
Spigoli visibili(ISO)
100
AcDbCircle
 10
196.1834687973896
 20
306.0293475568401
 30
0.0
 40
16.625
100
AcDbArc
 50
180.0
 51
0.0
  0
LINE
  5
39A
330
77
100
AcDbEntity
  8
Spigoli visibili(ISO)
100
AcDbLine
 10
212.8084687973896
 20
306.0293475568401
 30
0.0
 11
212.8084687973896
 21
356.02934755684
 31
0.0
  0
LINE
  5
39B
330
77
100
AcDbEntity
  8
Spigoli visibili(ISO)
100
AcDbLine
 10
231.0584687973896
 20
306.0293475568401
 30
0.0
 11
231.0584687973896
 21
356.0293475568401
 31
0.0
  0
ARC
  5
39C
330
77
100
AcDbEntity
  8
Spigoli visibili(ISO)
100
AcDbCircle
 10
196.1834687973896
 20
306.0293475568401
 30
0.0
 40
34.875
100
AcDbArc
 50
180.0
 51
0.0
  0
LINE
  5
39D
330
77
100
AcDbEntity
  8
Spigoli visibili(ISO)
100
AcDbLine
 10
161.3084687973896
 20
356.02934755684
 30
0.0
 11
179.5584687973896
 21
356.02934755684
 31
0.0
  0
LINE
  5
39E
330
77
100
AcDbEntity
  8
Spigoli visibili(ISO)
100
AcDbLine
 10
179.5584687973896
 20
356.02934755684
 30
0.0
 11
179.5584687973896
 21
306.0293475568401
 31
0.0
  0
LINE
  5
39F
330
77
100
AcDbEntity
  8
Spigoli visibili(ISO)
100
AcDbLine
 10
161.3084687973896
 20
356.02934755684
 30
0.0
 11
161.3084687973896
 21
306.0293475568401
 31
0.0
  0
LINE
  5
3A0
330
77
100
AcDbEntity
  8
Spigoli visibili(ISO)
100
AcDbLine
 10
211.9334687973896
 20
356.8293475568401
 30
0.0
 11
211.9334687973896
 21
457.5716715762306
 31
0.0
  0
LINE
  5
3A1
330
77
100
AcDbEntity
  8
Spigoli visibili(ISO)
100
AcDbLine
 10
211.9334687973895
 20
514.5787363487918
 30
0.0
 11
211.9334687973895
 21
540.578736348795
 31
0.0
  0
LINE
  5
3A2
330
77
100
AcDbEntity
  8
Spigoli visibili(ISO)
100
AcDbLine
 10
231.9334687973896
 20
356.8293475568401
 30
0.0
 11
231.9334687973896
 21
457.5716715762306
 31
0.0
  0
LINE
  5
3A3
330
77
100
AcDbEntity
  8
Spigoli visibili(ISO)
100
AcDbLine
 10
231.9334687973896
 20
514.5787363487918
 30
0.0
 11
231.9334687973896
 21
540.578736348795
 31
0.0
  0
LINE
  5
3A4
330
77
100
AcDbEntity
  8
Spigoli visibili(ISO)
100
AcDbLine
 10
211.9334687973895
 20
477.5716715762306
 30
0.0
 11
211.9334687973895
 21
491.5787363487899
 31
0.0
  0
LINE
  5
3A5
330
77
100
AcDbEntity
  8
Spigoli visibili(ISO)
100
AcDbLine
 10
231.9334687973896
 20
477.5716715762306
 30
0.0
 11
231.9334687973896
 21
491.5787363487899
 31
0.0
  0
LINE
  5
3A6
330
77
100
AcDbEntity
  8
Filettatura(ISO)
100
AcDbLine
 10
213.4329687973895
 20
540.578736348795
 30
0.0
 11
213.4329687973895
 21
514.5787363487913
 31
0.0
  0
LINE
  5
3A7
330
77
100
AcDbEntity
  8
Filettatura(ISO)
100
AcDbLine
 10
213.4329687973895
 20
491.5787363487896
 30
0.0
 11
213.4329687973895
 21
477.5716715762306
 31
0.0
  0
LINE
  5
3A8
330
77
100
AcDbEntity
  8
Filettatura(ISO)
100
AcDbLine
 10
230.4339687973896
 20
356.8293475568401
 30
0.0
 11
230.4339687973896
 21
457.5716715762306
 31
0.0
  0
LINE
  5
3A9
330
77
100
AcDbEntity
  8
Filettatura(ISO)
100
AcDbLine
 10
230.4339687973895
 20
514.5787363487913
 30
0.0
 11
230.4339687973895
 21
540.578736348795
 31
0.0
  0
LINE
  5
3AA
330
77
100
AcDbEntity
  8
Spigoli visibili(ISO)
100
AcDbLine
 10
211.9334687973896
 20
356.8293475568401
 30
0.0
 11
231.9334687973896
 21
356.8293475568401
 31
0.0
  0
LINE
  5
3AB
330
77
100
AcDbEntity
  8
Spigoli visibili(ISO)
100
AcDbLine
 10
231.9334687973896
 20
540.578736348795
 30
0.0
 11
211.9334687973895
 21
540.578736348795
 31
0.0
  0
LINE
  5
3AC
330
77
100
AcDbEntity
  8
Filettatura(ISO)
100
AcDbLine
 10
213.4329687973896
 20
457.5716715762306
 30
0.0
 11
213.4329687973896
 21
356.8293475568401
 31
0.0
  0
LINE
  5
3AD
330
77
100
AcDbEntity
  8
Filettatura(ISO)
100
AcDbLine
 10
230.4339687973895
 20
477.5716715762306
 30
0.0
 11
230.4339687973895
 21
491.5787363487896
 31
0.0
  0
POLYLINE
  5
3AE
330
77
100
AcDbEntity
  8
Spigoli visibili(ISO)
100
AcDb2dPolyline
 66
     1
 10
0.0
 20
0.0
 30
0.0
 70
   128
  0
VERTEX
  5
3AF
330
3AE
100
AcDbEntity
  8
Spigoli visibili(ISO)
100
AcDbVertex
100
AcDb2dVertex
 10
230.593722912952
 20
512.7167797991877
 30
0.0
  0
VERTEX
  5
3B0
330
3AE
100
AcDbEntity
  8
Spigoli visibili(ISO)
100
AcDbVertex
100
AcDb2dVertex
 10
229.77515478956
 20
512.9445076892023
 30
0.0
  0
VERTEX
  5
3B2
330
3AE
100
AcDbEntity
  8
Spigoli visibili(ISO)
100
AcDbVertex
100
AcDb2dVertex
 10
228.9837163099459
 20
513.1476307818537
 30
0.0
  0
VERTEX
  5
3B3
330
3AE
100
AcDbEntity
  8
Spigoli visibili(ISO)
100
AcDbVertex
100
AcDb2dVertex
 10
228.216051887659
 20
513.3275891253596
 30
0.0
  0
VERTEX
  5
3B4
330
3AE
100
AcDbEntity
  8
Spigoli visibili(ISO)
100
AcDbVertex
100
AcDb2dVertex
 10
227.4690923357436
 20
513.4856177279597
 30
0.0
  0
VERTEX
  5
3B5
330
3AE
100
AcDbEntity
  8
Spigoli visibili(ISO)
100
AcDbVertex
100
AcDb2dVertex
 10
226.7400074298578
 20
513.6227751681452
 30
0.0
  0
VERTEX
  5
3B6
330
3AE
100
AcDbEntity
  8
Spigoli visibili(ISO)
100
AcDbVertex
100
AcDb2dVertex
 10
226.0261672837068
 20
513.7399578997737
 30
0.0
  0
VERTEX
  5
3B7
330
3AE
100
AcDbEntity
  8
Spigoli visibili(ISO)
100
AcDbVertex
100
AcDb2dVertex
 10
225.3251092486039
 20
513.8379050204401
 30
0.0
  0
VERTEX
  5
3B8
330
3AE
100
AcDbEntity
  8
Spigoli visibili(ISO)
100
AcDbVertex
100
AcDb2dVertex
 10
224.6345084848297
 20
513.9172459551936
 30
0.0
  0
VERTEX
  5
3B9
330
3AE
100
AcDbEntity
  8
Spigoli visibili(ISO)
100
AcDbVertex
100
AcDb2dVertex
 10
223.9521458721785
 20
513.9784527728205
 30
0.0
  0
VERTEX
  5
3BA
330
3AE
100
AcDbEntity
  8
Spigoli visibili(ISO)
100
AcDbVertex
100
AcDb2dVertex
 10
223.2758921249426
 20
514.0219164797907
 30
0.0
  0
VERTEX
  5
3BB
330
3AE
100
AcDbEntity
  8
Spigoli visibili(ISO)
100
AcDbVertex
100
AcDb2dVertex
 10
222.6036759790847
 20
514.047889799798
 30
0.0
  0
VERTEX
  5
3BC
330
3AE
100
AcDbEntity
  8
Spigoli visibili(ISO)
100
AcDbVertex
100
AcDb2dVertex
 10
221.9334690629783
 20
514.0565253207332
 30
0.0
  0
VERTEX
  5
3BD
330
3AE
100
AcDbEntity
  8
Spigoli visibili(ISO)
100
AcDbVertex
100
AcDb2dVertex
 10
221.2632615508256
 20
514.047889799798
 30
0.0
  0
VERTEX
  5
3BE
330
3AE
100
AcDbEntity
  8
Spigoli visibili(ISO)
100
AcDbVertex
100
AcDb2dVertex
 10
220.5910454049676
 20
514.0219164797907
 30
0.0
  0
VERTEX
  5
3BF
330
3AE
100
AcDbEntity
  8
Spigoli visibili(ISO)
100
AcDbVertex
100
AcDb2dVertex
 10
219.9147916577317
 20
513.9784527728205
 30
0.0
  0
VERTEX
  5
3C0
330
3AE
100
AcDbEntity
  8
Spigoli visibili(ISO)
100
AcDbVertex
100
AcDb2dVertex
 10
219.232429641127
 20
513.9172459551936
 30
0.0
  0
VERTEX
  5
3C1
330
3AE
100
AcDbEntity
  8
Spigoli visibili(ISO)
100
AcDbVertex
100
AcDb2dVertex
 10
218.5418277651149
 20
513.8379050204401
 30
0.0
  0
VERTEX
  5
3C2
330
3AE
100
AcDbEntity
  8
Spigoli visibili(ISO)
100
AcDbVertex
100
AcDb2dVertex
 10
217.8407699881077
 20
513.7399578997737
 30
0.0
  0
VERTEX
  5
3C3
330
3AE
100
AcDbEntity
  8
Spigoli visibili(ISO)
100
AcDbVertex
100
AcDb2dVertex
 10
217.1269301000524
 20
513.6227751681452
 30
0.0
  0
VERTEX
  5
3C4
330
3AE
100
AcDbEntity
  8
Spigoli visibili(ISO)
100
AcDbVertex
100
AcDb2dVertex
 10
216.3978451941666
 20
513.4856177279597
 30
0.0
  0
VERTEX
  5
3C5
330
3AE
100
AcDbEntity
  8
Spigoli visibili(ISO)
100
AcDbVertex
100
AcDb2dVertex
 10
215.6508855132034
 20
513.3275891253596
 30
0.0
  0
VERTEX
  5
3C6
330
3AE
100
AcDbEntity
  8
Spigoli visibili(ISO)
100
AcDbVertex
100
AcDb2dVertex
 10
214.883221905131
 20
513.1476307818537
 30
0.0
  0
VERTEX
  5
3C7
330
3AE
100
AcDbEntity
  8
Spigoli visibili(ISO)
100
AcDbVertex
100
AcDb2dVertex
 10
214.0917829984458
 20
512.9445076892023
 30
0.0
  0
VERTEX
  5
3C8
330
3AE
100
AcDbEntity
  8
Spigoli visibili(ISO)
100
AcDbVertex
100
AcDb2dVertex
 10
213.2732149149887
 20
512.7167797991877
 30
0.0
  0
SEQEND
  5
3B1
330
3AE
100
AcDbEntity
  8
Spigoli visibili(ISO)
  0
POLYLINE
  5
3C9
330
77
100
AcDbEntity
  8
Spigoli visibili(ISO)
100
AcDb2dPolyline
 66
     1
 10
0.0
 20
0.0
 30
0.0
 70
   128
  0
VERTEX
  5
3CA
330
3C9
100
AcDbEntity
  8
Spigoli visibili(ISO)
100
AcDbVertex
100
AcDb2dVertex
 10
213.2732149149887
 20
512.7167797991877
 30
0.0
  0
VERTEX
  5
3CB
330
3C9
100
AcDbEntity
  8
Spigoli visibili(ISO)
100
AcDbVertex
100
AcDb2dVertex
 10
212.8639304695175
 20
512.9445076892024
 30
0.0
  0
VERTEX
  5
3CD
330
3C9
100
AcDbEntity
  8
Spigoli visibili(ISO)
100
AcDbVertex
100
AcDb2dVertex
 10
212.4682115678676
 20
513.1476307818541
 30
0.0
  0
VERTEX
  5
3CE
330
3C9
100
AcDbEntity
  8
Spigoli visibili(ISO)
100
AcDbVertex
100
AcDb2dVertex
 10
212.0843792223839
 20
513.3275891253601
 30
0.0
  0
VERTEX
  5
3CF
330
3C9
100
AcDbEntity
  8
Spigoli visibili(ISO)
100
AcDbVertex
100
AcDb2dVertex
 10
211.7108998613974
 20
513.4856177279605
 30
0.0
  0
VERTEX
  5
3D0
330
3C9
100
AcDbEntity
  8
Spigoli visibili(ISO)
100
AcDbVertex
100
AcDb2dVertex
 10
211.3463569629579
 20
513.6227751681461
 30
0.0
  0
VERTEX
  5
3D1
330
3C9
100
AcDbEntity
  8
Spigoli visibili(ISO)
100
AcDbVertex
100
AcDb2dVertex
 10
210.989436840375
 20
513.7399578997748
 30
0.0
  0
VERTEX
  5
3D2
330
3C9
100
AcDbEntity
  8
Spigoli visibili(ISO)
100
AcDbVertex
100
AcDb2dVertex
 10
210.6389080188274
 20
513.8379050204414
 30
0.0
  0
VERTEX
  5
3D3
330
3C9
100
AcDbEntity
  8
Spigoli visibili(ISO)
100
AcDbVertex
100
AcDb2dVertex
 10
210.2936077709281
 20
513.917245955195
 30
0.0
  0
VERTEX
  5
3D4
330
3C9
100
AcDbEntity
  8
Spigoli visibili(ISO)
100
AcDbVertex
100
AcDb2dVertex
 10
209.9524263172965
 20
513.9784527728222
 30
0.0
  0
VERTEX
  5
3D5
330
3C9
100
AcDbEntity
  8
Spigoli visibili(ISO)
100
AcDbVertex
100
AcDb2dVertex
 10
209.6142989910353
 20
514.0219164797925
 30
0.0
  0
VERTEX
  5
3D6
330
3C9
100
AcDbEntity
  8
Spigoli visibili(ISO)
100
AcDbVertex
100
AcDb2dVertex
 10
209.27819105288
 20
514.0478897998001
 30
0.0
  0
VERTEX
  5
3D7
330
3C9
100
AcDbEntity
  8
Spigoli visibili(ISO)
100
AcDbVertex
100
AcDb2dVertex
 10
208.9430880062118
 20
514.0565253207353
 30
0.0
  0
VERTEX
  5
3D8
330
3C9
100
AcDbEntity
  8
Spigoli visibili(ISO)
100
AcDbVertex
100
AcDb2dVertex
 10
208.6079843634972
 20
514.0478897998004
 30
0.0
  0
VERTEX
  5
3D9
330
3C9
100
AcDbEntity
  8
Spigoli visibili(ISO)
100
AcDbVertex
100
AcDb2dVertex
 10
208.2718764253419
 20
514.0219164797932
 30
0.0
  0
VERTEX
  5
3DA
330
3C9
100
AcDbEntity
  8
Spigoli visibili(ISO)
100
AcDbVertex
100
AcDb2dVertex
 10
207.9337490990807
 20
513.9784527728233
 30
0.0
  0
VERTEX
  5
3DB
330
3C9
100
AcDbEntity
  8
Spigoli visibili(ISO)
100
AcDbVertex
100
AcDb2dVertex
 10
207.5925682414955
 20
513.9172459551964
 30
0.0
  0
VERTEX
  5
3DC
330
3C9
100
AcDbEntity
  8
Spigoli visibili(ISO)
100
AcDbVertex
100
AcDb2dVertex
 10
207.2472679137411
 20
513.8379050204433
 30
0.0
  0
VERTEX
  5
3DD
330
3C9
100
AcDbEntity
  8
Spigoli visibili(ISO)
100
AcDbVertex
100
AcDb2dVertex
 10
206.8967388340979
 20
513.7399578997769
 30
0.0
  0
VERTEX
  5
3DE
330
3C9
100
AcDbEntity
  8
Spigoli visibili(ISO)
100
AcDbVertex
100
AcDb2dVertex
 10
206.5398184534192
 20
513.6227751681486
 30
0.0
  0
VERTEX
  5
3DF
330
3C9
100
AcDbEntity
  8
Spigoli visibili(ISO)
100
AcDbVertex
100
AcDb2dVertex
 10
206.1752755549798
 20
513.4856177279632
 30
0.0
  0
VERTEX
  5
3E0
330
3C9
100
AcDbEntity
  8
Spigoli visibili(ISO)
100
AcDbVertex
100
AcDb2dVertex
 10
205.8017963230412
 20
513.3275891253633
 30
0.0
  0
VERTEX
  5
3E1
330
3C9
100
AcDbEntity
  8
Spigoli visibili(ISO)
100
AcDbVertex
100
AcDb2dVertex
 10
205.4179637593892
 20
513.1476307818577
 30
0.0
  0
VERTEX
  5
3E2
330
3C9
100
AcDbEntity
  8
Spigoli visibili(ISO)
100
AcDbVertex
100
AcDb2dVertex
 10
205.022244688764
 20
512.9445076892066
 30
0.0
  0
VERTEX
  5
3E3
330
3C9
100
AcDbEntity
  8
Spigoli visibili(ISO)
100
AcDbVertex
100
AcDb2dVertex
 10
204.6129607994189
 20
512.7167797991922
 30
0.0
  0
SEQEND
  5
3CC
330
3C9
100
AcDbEntity
  8
Spigoli visibili(ISO)
  0
POLYLINE
  5
3E4
330
77
100
AcDbEntity
  8
Spigoli visibili(ISO)
100
AcDb2dPolyline
 66
     1
 10
0.0
 20
0.0
 30
0.0
 70
   128
  0
VERTEX
  5
3E5
330
3E4
100
AcDbEntity
  8
Spigoli visibili(ISO)
100
AcDbVertex
100
AcDb2dVertex
 10
239.2539767953602
 20
512.7167797991922
 30
0.0
  0
VERTEX
  5
3E6
330
3E4
100
AcDbEntity
  8
Spigoli visibili(ISO)
100
AcDbVertex
100
AcDb2dVertex
 10
238.8446925613132
 20
512.9445076892066
 30
0.0
  0
VERTEX
  5
3E8
330
3E4
100
AcDbEntity
  8
Spigoli visibili(ISO)
100
AcDbVertex
100
AcDb2dVertex
 10
238.4489734503475
 20
513.1476307818577
 30
0.0
  0
VERTEX
  5
3E9
330
3E4
100
AcDbEntity
  8
Spigoli visibili(ISO)
100
AcDbVertex
100
AcDb2dVertex
 10
238.0651415917126
 20
513.3275891253633
 30
0.0
  0
VERTEX
  5
3EA
330
3E4
100
AcDbEntity
  8
Spigoli visibili(ISO)
100
AcDbVertex
100
AcDb2dVertex
 10
237.6916618677822
 20
513.4856177279632
 30
0.0
  0
VERTEX
  5
3EB
330
3E4
100
AcDbEntity
  8
Spigoli visibili(ISO)
100
AcDbVertex
100
AcDb2dVertex
 10
237.3271191152779
 20
513.6227751681486
 30
0.0
  0
VERTEX
  5
3EC
330
3E4
100
AcDbEntity
  8
Spigoli visibili(ISO)
100
AcDbVertex
100
AcDb2dVertex
 10
236.9701990517822
 20
513.7399578997769
 30
0.0
  0
VERTEX
  5
3ED
330
3E4
100
AcDbEntity
  8
Spigoli visibili(ISO)
100
AcDbVertex
100
AcDb2dVertex
 10
236.6196702453343
 20
513.8379050204433
 30
0.0
  0
VERTEX
  5
3EE
330
3E4
100
AcDbEntity
  8
Spigoli visibili(ISO)
100
AcDbVertex
100
AcDb2dVertex
 10
236.2743695112911
 20
513.9172459551964
 30
0.0
  0
VERTEX
  5
3EF
330
3E4
100
AcDbEntity
  8
Spigoli visibili(ISO)
100
AcDbVertex
100
AcDb2dVertex
 10
235.9331885012833
 20
513.9784527728233
 30
0.0
  0
VERTEX
  5
3F0
330
3E4
100
AcDbEntity
  8
Spigoli visibili(ISO)
100
AcDbVertex
100
AcDb2dVertex
 10
235.5950614842621
 20
514.0219164797932
 30
0.0
  0
VERTEX
  5
3F1
330
3E4
100
AcDbEntity
  8
Spigoli visibili(ISO)
100
AcDbVertex
100
AcDb2dVertex
 10
235.2589534255711
 20
514.0478897998004
 30
0.0
  0
VERTEX
  5
3F2
330
3E4
100
AcDbEntity
  8
Spigoli visibili(ISO)
100
AcDbVertex
100
AcDb2dVertex
 10
234.9238498541487
 20
514.0565253207353
 30
0.0
  0
VERTEX
  5
3F3
330
3E4
100
AcDbEntity
  8
Spigoli visibili(ISO)
100
AcDbVertex
100
AcDb2dVertex
 10
234.5887462827412
 20
514.0478897998001
 30
0.0
  0
VERTEX
  5
3F4
330
3E4
100
AcDbEntity
  8
Spigoli visibili(ISO)
100
AcDbVertex
100
AcDb2dVertex
 10
234.2526382240501
 20
514.0219164797925
 30
0.0
  0
VERTEX
  5
3F5
330
3E4
100
AcDbEntity
  8
Spigoli visibili(ISO)
100
AcDbVertex
100
AcDb2dVertex
 10
233.914511207029
 20
513.9784527728222
 30
0.0
  0
VERTEX
  5
3F6
330
3E4
100
AcDbEntity
  8
Spigoli visibili(ISO)
100
AcDbVertex
100
AcDb2dVertex
 10
233.5733301970211
 20
513.917245955195
 30
0.0
  0
VERTEX
  5
3F7
330
3E4
100
AcDbEntity
  8
Spigoli visibili(ISO)
100
AcDbVertex
100
AcDb2dVertex
 10
233.228029462978
 20
513.8379050204414
 30
0.0
  0
VERTEX
  5
3F8
330
3E4
100
AcDbEntity
  8
Spigoli visibili(ISO)
100
AcDbVertex
100
AcDb2dVertex
 10
232.87750065653
 20
513.7399578997748
 30
0.0
  0
VERTEX
  5
3F9
330
3E4
100
AcDbEntity
  8
Spigoli visibili(ISO)
100
AcDbVertex
100
AcDb2dVertex
 10
232.5205805930344
 20
513.6227751681461
 30
0.0
  0
VERTEX
  5
3FA
330
3E4
100
AcDbEntity
  8
Spigoli visibili(ISO)
100
AcDbVertex
100
AcDb2dVertex
 10
232.15603784053
 20
513.4856177279605
 30
0.0
  0
VERTEX
  5
3FB
330
3E4
100
AcDbEntity
  8
Spigoli visibili(ISO)
100
AcDbVertex
100
AcDb2dVertex
 10
231.7825581165997
 20
513.3275891253601
 30
0.0
  0
VERTEX
  5
3FC
330
3E4
100
AcDbEntity
  8
Spigoli visibili(ISO)
100
AcDbVertex
100
AcDb2dVertex
 10
231.3987262579647
 20
513.1476307818541
 30
0.0
  0
VERTEX
  5
3FD
330
3E4
100
AcDbEntity
  8
Spigoli visibili(ISO)
100
AcDbVertex
100
AcDb2dVertex
 10
231.003007146999
 20
512.9445076892024
 30
0.0
  0
VERTEX
  5
3FE
330
3E4
100
AcDbEntity
  8
Spigoli visibili(ISO)
100
AcDbVertex
100
AcDb2dVertex
 10
230.593722912952
 20
512.7167797991877
 30
0.0
  0
SEQEND
  5
3E7
330
3E4
100
AcDbEntity
  8
Spigoli visibili(ISO)
  0
LINE
  5
3FF
330
77
100
AcDbEntity
  8
Spigoli visibili(ISO)
100
AcDbLine
 10
236.0289768730783
 20
514.5787363487947
 30
0.0
 11
207.8379607217008
 21
514.5787363487947
 31
0.0
  0
LINE
  5
400
330
77
100
AcDbEntity
  8
Spigoli visibili(ISO)
100
AcDbLine
 10
236.0289768730782
 20
514.5787363487947
 30
0.0
 11
239.2539768730783
 21
512.7167817306582
 31
0.0
  0
LINE
  5
401
330
77
100
AcDbEntity
  8
Spigoli visibili(ISO)
100
AcDbLine
 10
207.8379607217008
 20
514.5787363487947
 30
0.0
 11
204.6129607217008
 21
512.7167817306582
 31
0.0
  0
LINE
  5
402
330
77
100
AcDbEntity
  8
Spigoli visibili(ISO)
100
AcDbLine
 10
204.6129607217008
 20
512.7167817306582
 30
0.0
 11
204.6129607217008
 21
500.4406909669313
 31
0.0
  0
LINE
  5
403
330
77
100
AcDbEntity
  8
Spigoli visibili(ISO)
100
AcDbLine
 10
239.2539768730783
 20
512.7167817306582
 30
0.0
 11
239.2539768730783
 21
500.4406909669314
 31
0.0
  0
LINE
  5
404
330
77
100
AcDbEntity
  8
Spigoli visibili(ISO)
100
AcDbLine
 10
230.5937228352339
 20
512.7167817306538
 30
0.0
 11
230.5937228352338
 21
500.4406909669269
 31
0.0
  0
LINE
  5
405
330
77
100
AcDbEntity
  8
Spigoli visibili(ISO)
100
AcDbLine
 10
213.2732147595451
 20
512.7167817306538
 30
0.0
 11
213.2732147595452
 21
500.4406909669269
 31
0.0
  0
POLYLINE
  5
406
330
77
100
AcDbEntity
  8
Spigoli visibili(ISO)
100
AcDb2dPolyline
 66
     1
 10
0.0
 20
0.0
 30
0.0
 70
   128
  0
VERTEX
  5
407
330
406
100
AcDbEntity
  8
Spigoli visibili(ISO)
100
AcDbVertex
100
AcDb2dVertex
 10
204.6129607994189
 20
500.4406929919412
 30
0.0
  0
VERTEX
  5
408
330
406
100
AcDbEntity
  8
Spigoli visibili(ISO)
100
AcDbVertex
100
AcDb2dVertex
 10
205.022244688764
 20
500.2129651019264
 30
0.0
  0
VERTEX
  5
40A
330
406
100
AcDbEntity
  8
Spigoli visibili(ISO)
100
AcDbVertex
100
AcDb2dVertex
 10
205.4179637593892
 20
500.0098420092748
 30
0.0
  0
VERTEX
  5
40B
330
406
100
AcDbEntity
  8
Spigoli visibili(ISO)
100
AcDbVertex
100
AcDb2dVertex
 10
205.8017963230412
 20
499.8298836657688
 30
0.0
  0
VERTEX
  5
40C
330
406
100
AcDbEntity
  8
Spigoli visibili(ISO)
100
AcDbVertex
100
AcDb2dVertex
 10
206.1752755549798
 20
499.6718550631684
 30
0.0
  0
VERTEX
  5
40D
330
406
100
AcDbEntity
  8
Spigoli visibili(ISO)
100
AcDbVertex
100
AcDb2dVertex
 10
206.5398184534192
 20
499.5346976229828
 30
0.0
  0
VERTEX
  5
40E
330
406
100
AcDbEntity
  8
Spigoli visibili(ISO)
100
AcDbVertex
100
AcDb2dVertex
 10
206.8967388340979
 20
499.4175148913541
 30
0.0
  0
VERTEX
  5
40F
330
406
100
AcDbEntity
  8
Spigoli visibili(ISO)
100
AcDbVertex
100
AcDb2dVertex
 10
207.2472679137411
 20
499.3195677706875
 30
0.0
  0
VERTEX
  5
410
330
406
100
AcDbEntity
  8
Spigoli visibili(ISO)
100
AcDbVertex
100
AcDb2dVertex
 10
207.5925682414955
 20
499.2402316043054
 30
0.0
  0
VERTEX
  5
411
330
406
100
AcDbEntity
  8
Spigoli visibili(ISO)
100
AcDbVertex
100
AcDb2dVertex
 10
207.9337490990807
 20
499.1790200183067
 30
0.0
  0
VERTEX
  5
412
330
406
100
AcDbEntity
  8
Spigoli visibili(ISO)
100
AcDbVertex
100
AcDb2dVertex
 10
208.2718764253419
 20
499.1355563113363
 30
0.0
  0
VERTEX
  5
413
330
406
100
AcDbEntity
  8
Spigoli visibili(ISO)
100
AcDbVertex
100
AcDb2dVertex
 10
208.6079843634972
 20
499.1095829913288
 30
0.0
  0
VERTEX
  5
414
330
406
100
AcDbEntity
  8
Spigoli visibili(ISO)
100
AcDbVertex
100
AcDb2dVertex
 10
208.9430880062118
 20
499.1009474703935
 30
0.0
  0
VERTEX
  5
415
330
406
100
AcDbEntity
  8
Spigoli visibili(ISO)
100
AcDbVertex
100
AcDb2dVertex
 10
209.27819105288
 20
499.1095829913285
 30
0.0
  0
VERTEX
  5
416
330
406
100
AcDbEntity
  8
Spigoli visibili(ISO)
100
AcDbVertex
100
AcDb2dVertex
 10
209.6142989910353
 20
499.1355563113356
 30
0.0
  0
VERTEX
  5
417
330
406
100
AcDbEntity
  8
Spigoli visibili(ISO)
100
AcDbVertex
100
AcDb2dVertex
 10
209.9524263172965
 20
499.1790200183056
 30
0.0
  0
VERTEX
  5
418
330
406
100
AcDbEntity
  8
Spigoli visibili(ISO)
100
AcDbVertex
100
AcDb2dVertex
 10
210.2936077709282
 20
499.240231604304
 30
0.0
  0
VERTEX
  5
419
330
406
100
AcDbEntity
  8
Spigoli visibili(ISO)
100
AcDbVertex
100
AcDb2dVertex
 10
210.6389080188274
 20
499.3195677706856
 30
0.0
  0
VERTEX
  5
41A
330
406
100
AcDbEntity
  8
Spigoli visibili(ISO)
100
AcDbVertex
100
AcDb2dVertex
 10
210.989436840375
 20
499.4175148913519
 30
0.0
  0
VERTEX
  5
41B
330
406
100
AcDbEntity
  8
Spigoli visibili(ISO)
100
AcDbVertex
100
AcDb2dVertex
 10
211.3463569629579
 20
499.5346976229803
 30
0.0
  0
VERTEX
  5
41C
330
406
100
AcDbEntity
  8
Spigoli visibili(ISO)
100
AcDbVertex
100
AcDb2dVertex
 10
211.7108998613974
 20
499.6718550631656
 30
0.0
  0
VERTEX
  5
41D
330
406
100
AcDbEntity
  8
Spigoli visibili(ISO)
100
AcDbVertex
100
AcDb2dVertex
 10
212.0843792223839
 20
499.8298836657654
 30
0.0
  0
VERTEX
  5
41E
330
406
100
AcDbEntity
  8
Spigoli visibili(ISO)
100
AcDbVertex
100
AcDb2dVertex
 10
212.4682115678677
 20
500.0098420092712
 30
0.0
  0
VERTEX
  5
41F
330
406
100
AcDbEntity
  8
Spigoli visibili(ISO)
100
AcDbVertex
100
AcDb2dVertex
 10
212.8639304695175
 20
500.2129651019223
 30
0.0
  0
VERTEX
  5
420
330
406
100
AcDbEntity
  8
Spigoli visibili(ISO)
100
AcDbVertex
100
AcDb2dVertex
 10
213.2732149149887
 20
500.4406929919367
 30
0.0
  0
SEQEND
  5
409
330
406
100
AcDbEntity
  8
Spigoli visibili(ISO)
  0
POLYLINE
  5
421
330
77
100
AcDbEntity
  8
Spigoli visibili(ISO)
100
AcDb2dPolyline
 66
     1
 10
0.0
 20
0.0
 30
0.0
 70
   128
  0
VERTEX
  5
422
330
421
100
AcDbEntity
  8
Spigoli visibili(ISO)
100
AcDbVertex
100
AcDb2dVertex
 10
213.2732149149887
 20
500.4406929919367
 30
0.0
  0
VERTEX
  5
423
330
421
100
AcDbEntity
  8
Spigoli visibili(ISO)
100
AcDbVertex
100
AcDb2dVertex
 10
214.0917829984458
 20
500.2129651019221
 30
0.0
  0
VERTEX
  5
425
330
421
100
AcDbEntity
  8
Spigoli visibili(ISO)
100
AcDbVertex
100
AcDb2dVertex
 10
214.883221905131
 20
500.0098420092707
 30
0.0
  0
VERTEX
  5
426
330
421
100
AcDbEntity
  8
Spigoli visibili(ISO)
100
AcDbVertex
100
AcDb2dVertex
 10
215.6508855132034
 20
499.8298836657649
 30
0.0
  0
VERTEX
  5
427
330
421
100
AcDbEntity
  8
Spigoli visibili(ISO)
100
AcDbVertex
100
AcDb2dVertex
 10
216.3978451941666
 20
499.6718550631648
 30
0.0
  0
VERTEX
  5
428
330
421
100
AcDbEntity
  8
Spigoli visibili(ISO)
100
AcDbVertex
100
AcDb2dVertex
 10
217.1269301000524
 20
499.5346976229792
 30
0.0
  0
VERTEX
  5
429
330
421
100
AcDbEntity
  8
Spigoli visibili(ISO)
100
AcDbVertex
100
AcDb2dVertex
 10
217.8407699881077
 20
499.4175148913508
 30
0.0
  0
VERTEX
  5
42A
330
421
100
AcDbEntity
  8
Spigoli visibili(ISO)
100
AcDbVertex
100
AcDb2dVertex
 10
218.5418277651149
 20
499.3195677706843
 30
0.0
  0
VERTEX
  5
42B
330
421
100
AcDbEntity
  8
Spigoli visibili(ISO)
100
AcDbVertex
100
AcDb2dVertex
 10
219.232429641127
 20
499.2402316043024
 30
0.0
  0
VERTEX
  5
42C
330
421
100
AcDbEntity
  8
Spigoli visibili(ISO)
100
AcDbVertex
100
AcDb2dVertex
 10
219.9147916577317
 20
499.1790200183039
 30
0.0
  0
VERTEX
  5
42D
330
421
100
AcDbEntity
  8
Spigoli visibili(ISO)
100
AcDbVertex
100
AcDb2dVertex
 10
220.5910454049676
 20
499.1355563113337
 30
0.0
  0
VERTEX
  5
42E
330
421
100
AcDbEntity
  8
Spigoli visibili(ISO)
100
AcDbVertex
100
AcDb2dVertex
 10
221.2632615508256
 20
499.1095829913263
 30
0.0
  0
VERTEX
  5
42F
330
421
100
AcDbEntity
  8
Spigoli visibili(ISO)
100
AcDbVertex
100
AcDb2dVertex
 10
221.9334690629783
 20
499.1009474703913
 30
0.0
  0
VERTEX
  5
430
330
421
100
AcDbEntity
  8
Spigoli visibili(ISO)
100
AcDbVertex
100
AcDb2dVertex
 10
222.6036759790847
 20
499.1095829913263
 30
0.0
  0
VERTEX
  5
431
330
421
100
AcDbEntity
  8
Spigoli visibili(ISO)
100
AcDbVertex
100
AcDb2dVertex
 10
223.2758921249426
 20
499.1355563113337
 30
0.0
  0
VERTEX
  5
432
330
421
100
AcDbEntity
  8
Spigoli visibili(ISO)
100
AcDbVertex
100
AcDb2dVertex
 10
223.9521458721786
 20
499.1790200183039
 30
0.0
  0
VERTEX
  5
433
330
421
100
AcDbEntity
  8
Spigoli visibili(ISO)
100
AcDbVertex
100
AcDb2dVertex
 10
224.6345084848297
 20
499.2402316043024
 30
0.0
  0
VERTEX
  5
434
330
421
100
AcDbEntity
  8
Spigoli visibili(ISO)
100
AcDbVertex
100
AcDb2dVertex
 10
225.3251092486039
 20
499.3195677706843
 30
0.0
  0
VERTEX
  5
435
330
421
100
AcDbEntity
  8
Spigoli visibili(ISO)
100
AcDbVertex
100
AcDb2dVertex
 10
226.0261672837068
 20
499.4175148913508
 30
0.0
  0
VERTEX
  5
436
330
421
100
AcDbEntity
  8
Spigoli visibili(ISO)
100
AcDbVertex
100
AcDb2dVertex
 10
226.7400074298578
 20
499.5346976229792
 30
0.0
  0
VERTEX
  5
437
330
421
100
AcDbEntity
  8
Spigoli visibili(ISO)
100
AcDbVertex
100
AcDb2dVertex
 10
227.4690923357436
 20
499.6718550631648
 30
0.0
  0
VERTEX
  5
438
330
421
100
AcDbEntity
  8
Spigoli visibili(ISO)
100
AcDbVertex
100
AcDb2dVertex
 10
228.216051887659
 20
499.8298836657649
 30
0.0
  0
VERTEX
  5
439
330
421
100
AcDbEntity
  8
Spigoli visibili(ISO)
100
AcDbVertex
100
AcDb2dVertex
 10
228.9837163099459
 20
500.0098420092707
 30
0.0
  0
VERTEX
  5
43A
330
421
100
AcDbEntity
  8
Spigoli visibili(ISO)
100
AcDbVertex
100
AcDb2dVertex
 10
229.7751547895601
 20
500.2129651019221
 30
0.0
  0
VERTEX
  5
43B
330
421
100
AcDbEntity
  8
Spigoli visibili(ISO)
100
AcDbVertex
100
AcDb2dVertex
 10
230.593722912952
 20
500.4406929919367
 30
0.0
  0
SEQEND
  5
424
330
421
100
AcDbEntity
  8
Spigoli visibili(ISO)
  0
POLYLINE
  5
43C
330
77
100
AcDbEntity
  8
Spigoli visibili(ISO)
100
AcDb2dPolyline
 66
     1
 10
0.0
 20
0.0
 30
0.0
 70
   128
  0
VERTEX
  5
43D
330
43C
100
AcDbEntity
  8
Spigoli visibili(ISO)
100
AcDbVertex
100
AcDb2dVertex
 10
230.593722912952
 20
500.4406929919367
 30
0.0
  0
VERTEX
  5
43E
330
43C
100
AcDbEntity
  8
Spigoli visibili(ISO)
100
AcDbVertex
100
AcDb2dVertex
 10
231.003007146999
 20
500.2129651019223
 30
0.0
  0
VERTEX
  5
440
330
43C
100
AcDbEntity
  8
Spigoli visibili(ISO)
100
AcDbVertex
100
AcDb2dVertex
 10
231.3987262579647
 20
500.0098420092712
 30
0.0
  0
VERTEX
  5
441
330
43C
100
AcDbEntity
  8
Spigoli visibili(ISO)
100
AcDbVertex
100
AcDb2dVertex
 10
231.7825581165997
 20
499.8298836657656
 30
0.0
  0
VERTEX
  5
442
330
43C
100
AcDbEntity
  8
Spigoli visibili(ISO)
100
AcDbVertex
100
AcDb2dVertex
 10
232.15603784053
 20
499.6718550631656
 30
0.0
  0
VERTEX
  5
443
330
43C
100
AcDbEntity
  8
Spigoli visibili(ISO)
100
AcDbVertex
100
AcDb2dVertex
 10
232.5205805930344
 20
499.5346976229803
 30
0.0
  0
VERTEX
  5
444
330
43C
100
AcDbEntity
  8
Spigoli visibili(ISO)
100
AcDbVertex
100
AcDb2dVertex
 10
232.87750065653
 20
499.4175148913519
 30
0.0
  0
VERTEX
  5
445
330
43C
100
AcDbEntity
  8
Spigoli visibili(ISO)
100
AcDbVertex
100
AcDb2dVertex
 10
233.228029462978
 20
499.3195677706856
 30
0.0
  0
VERTEX
  5
446
330
43C
100
AcDbEntity
  8
Spigoli visibili(ISO)
100
AcDbVertex
100
AcDb2dVertex
 10
233.5733301970211
 20
499.240231604304
 30
0.0
  0
VERTEX
  5
447
330
43C
100
AcDbEntity
  8
Spigoli visibili(ISO)
100
AcDbVertex
100
AcDb2dVertex
 10
233.914511207029
 20
499.1790200183056
 30
0.0
  0
VERTEX
  5
448
330
43C
100
AcDbEntity
  8
Spigoli visibili(ISO)
100
AcDbVertex
100
AcDb2dVertex
 10
234.2526382240501
 20
499.1355563113356
 30
0.0
  0
VERTEX
  5
449
330
43C
100
AcDbEntity
  8
Spigoli visibili(ISO)
100
AcDbVertex
100
AcDb2dVertex
 10
234.5887462827412
 20
499.1095829913285
 30
0.0
  0
VERTEX
  5
44A
330
43C
100
AcDbEntity
  8
Spigoli visibili(ISO)
100
AcDbVertex
100
AcDb2dVertex
 10
234.9238498541488
 20
499.1009474703935
 30
0.0
  0
VERTEX
  5
44B
330
43C
100
AcDbEntity
  8
Spigoli visibili(ISO)
100
AcDbVertex
100
AcDb2dVertex
 10
235.2589534255711
 20
499.1095829913288
 30
0.0
  0
VERTEX
  5
44C
330
43C
100
AcDbEntity
  8
Spigoli visibili(ISO)
100
AcDbVertex
100
AcDb2dVertex
 10
235.5950614842621
 20
499.1355563113363
 30
0.0
  0
VERTEX
  5
44D
330
43C
100
AcDbEntity
  8
Spigoli visibili(ISO)
100
AcDbVertex
100
AcDb2dVertex
 10
235.9331885012833
 20
499.1790200183067
 30
0.0
  0
VERTEX
  5
44E
330
43C
100
AcDbEntity
  8
Spigoli visibili(ISO)
100
AcDbVertex
100
AcDb2dVertex
 10
236.2743695112911
 20
499.2402316043054
 30
0.0
  0
VERTEX
  5
44F
330
43C
100
AcDbEntity
  8
Spigoli visibili(ISO)
100
AcDbVertex
100
AcDb2dVertex
 10
236.6196702453343
 20
499.3195677706875
 30
0.0
  0
VERTEX
  5
450
330
43C
100
AcDbEntity
  8
Spigoli visibili(ISO)
100
AcDbVertex
100
AcDb2dVertex
 10
236.9701990517822
 20
499.4175148913541
 30
0.0
  0
VERTEX
  5
451
330
43C
100
AcDbEntity
  8
Spigoli visibili(ISO)
100
AcDbVertex
100
AcDb2dVertex
 10
237.3271191152779
 20
499.5346976229828
 30
0.0
  0
VERTEX
  5
452
330
43C
100
AcDbEntity
  8
Spigoli visibili(ISO)
100
AcDbVertex
100
AcDb2dVertex
 10
237.6916618677822
 20
499.6718550631684
 30
0.0
  0
VERTEX
  5
453
330
43C
100
AcDbEntity
  8
Spigoli visibili(ISO)
100
AcDbVertex
100
AcDb2dVertex
 10
238.0651415917126
 20
499.8298836657688
 30
0.0
  0
VERTEX
  5
454
330
43C
100
AcDbEntity
  8
Spigoli visibili(ISO)
100
AcDbVertex
100
AcDb2dVertex
 10
238.4489734503475
 20
500.0098420092748
 30
0.0
  0
VERTEX
  5
455
330
43C
100
AcDbEntity
  8
Spigoli visibili(ISO)
100
AcDbVertex
100
AcDb2dVertex
 10
238.8446925613132
 20
500.2129651019264
 30
0.0
  0
VERTEX
  5
456
330
43C
100
AcDbEntity
  8
Spigoli visibili(ISO)
100
AcDbVertex
100
AcDb2dVertex
 10
239.2539767953602
 20
500.4406929919412
 30
0.0
  0
SEQEND
  5
43F
330
43C
100
AcDbEntity
  8
Spigoli visibili(ISO)
  0
LINE
  5
457
330
77
100
AcDbEntity
  8
Spigoli visibili(ISO)
100
AcDbLine
 10
207.8379607217008
 20
498.5787363487949
 30
0.0
 11
204.6129607217008
 21
500.4406909669313
 31
0.0
  0
LINE
  5
458
330
77
100
AcDbEntity
  8
Spigoli visibili(ISO)
100
AcDbLine
 10
236.0289768730783
 20
498.5787363487948
 30
0.0
 11
239.2539768730783
 21
500.4406909669313
 31
0.0
  0
POLYLINE
  5
459
330
77
100
AcDbEntity
  8
Linee di interruzione(ISO)
100
AcDb2dPolyline
 66
     1
 10
0.0
 20
0.0
 30
0.0
 70
   128
  0
VERTEX
  5
45A
330
459
100
AcDbEntity
  8
Linee di interruzione(ISO)
100
AcDbVertex
100
AcDb2dVertex
 10
205.5834687933422
 20
457.5716715762306
 30
0.0
  0
VERTEX
  5
45B
330
459
100
AcDbEntity
  8
Linee di interruzione(ISO)
100
AcDbVertex
100
AcDb2dVertex
 10
217.7069715842701
 20
457.5716715762306
 30
0.0
  0
VERTEX
  5
45D
330
459
100
AcDbEntity
  8
Linee di interruzione(ISO)
100
AcDbVertex
100
AcDb2dVertex
 10
219.0467171058156
 20
462.5716715762306
 30
0.0
  0
VERTEX
  5
45E
330
459
100
AcDbEntity
  8
Linee di interruzione(ISO)
100
AcDbVertex
100
AcDb2dVertex
 10
224.8202196940876
 20
452.5716715762306
 30
0.0
  0
VERTEX
  5
45F
330
459
100
AcDbEntity
  8
Linee di interruzione(ISO)
100
AcDbVertex
100
AcDb2dVertex
 10
226.1599652156331
 20
457.5716715762306
 30
0.0
  0
VERTEX
  5
460
330
459
100
AcDbEntity
  8
Linee di interruzione(ISO)
100
AcDbVertex
100
AcDb2dVertex
 10
238.2834689006306
 20
457.5716715762306
 30
0.0
  0
SEQEND
  5
45C
330
459
100
AcDbEntity
  8
Linee di interruzione(ISO)
  0
POLYLINE
  5
461
330
77
100
AcDbEntity
  8
Linee di interruzione(ISO)
100
AcDb2dPolyline
 66
     1
 10
0.0
 20
0.0
 30
0.0
 70
   128
  0
VERTEX
  5
462
330
461
100
AcDbEntity
  8
Linee di interruzione(ISO)
100
AcDbVertex
100
AcDb2dVertex
 10
205.5834687933422
 20
477.5716715762306
 30
0.0
  0
VERTEX
  5
463
330
461
100
AcDbEntity
  8
Linee di interruzione(ISO)
100
AcDbVertex
100
AcDb2dVertex
 10
217.7069715842701
 20
477.5716715762306
 30
0.0
  0
VERTEX
  5
465
330
461
100
AcDbEntity
  8
Linee di interruzione(ISO)
100
AcDbVertex
100
AcDb2dVertex
 10
219.0467171058156
 20
482.5716715762306
 30
0.0
  0
VERTEX
  5
466
330
461
100
AcDbEntity
  8
Linee di interruzione(ISO)
100
AcDbVertex
100
AcDb2dVertex
 10
224.8202196940876
 20
472.5716715762306
 30
0.0
  0
VERTEX
  5
467
330
461
100
AcDbEntity
  8
Linee di interruzione(ISO)
100
AcDbVertex
100
AcDb2dVertex
 10
226.1599652156331
 20
477.5716715762306
 30
0.0
  0
VERTEX
  5
468
330
461
100
AcDbEntity
  8
Linee di interruzione(ISO)
100
AcDbVertex
100
AcDb2dVertex
 10
238.2834689006306
 20
477.5716715762306
 30
0.0
  0
SEQEND
  5
464
330
461
100
AcDbEntity
  8
Linee di interruzione(ISO)
  0
DIMENSION
  5
469
330
77
100
AcDbEntity
  8
Quote(ISO)
  6
Continuous
 62
    96
370
    25
100
AcDbDimension
  2
*D10
 10
231.9334687973896
 20
555.7942457239234
 30
0.0
 11
189.7733842134877
 21
555.7942457239234
 31
0.0
 70
   160
  1
 M20
 42
20.0
  3
MAURO
100
AcDbAlignedDimension
 13
211.9334687973895
 23
540.578736348795
 33
0.0
 14
231.9334687973896
 24
540.578736348795
 34
0.0
 50
180.0
100
AcDbRotatedDimension
1001
ACAD
1000
DSTYLE
1002
{
1070
   172
1070
     1
1070
   289
1070
     1
1070
    74
1070
     0
1070
   271
1070
     3
1070
   272
1070
     3
1070
    48
1040
0.0
1070
    47
1040
0.0
1002
}
  0
DIMENSION
  5
55C
330
77
100
AcDbEntity
  8
Quote(ISO)
  6
Continuous
 62
    96
370
    25
100
AcDbDimension
  2
*D11
 10
263.6252011258034
 20
356.0293475568402
 30
0.0
 11
263.6252011258033
 21
448.8040419528175
 31
0.0
 70
   160
  1
<>
 42
299.9999999999998
  3
MAURO
100
AcDbAlignedDimension
 13
230.9334687973895
 23
541.5787363487949
 33
0.0
 14
231.1334687973896
 24
356.0293475568402
 34
0.0
 50
90.0
100
AcDbRotatedDimension
1001
ACAD
1000
DSTYLE
1002
{
1070
   172
1070
     0
1070
   289
1070
     1
1070
    74
1070
     0
1070
   271
1070
     3
1070
   144
1040
1.616820200557877
1070
   272
1070
     3
1070
    48
1040
0.0
1070
    47
1040
0.0
1002
}
  0
DIMENSION
  5
64D
330
77
100
AcDbEntity
  8
Quote(ISO)
  6
Continuous
 62
    96
370
    25
100
AcDbDimension
  2
*D12
 10
161.3084687973896
 20
250.3191435841496
 30
0.0
 11
196.1834687973896
 21
250.3191435841496
 31
0.0
 70
   160
  1
<>
 42
69.75000000000003
  3
MAURO
100
AcDbAlignedDimension
 13
231.0584687973896
 23
306.0293475568401
 33
0.0
 14
161.3084687973896
 24
306.0293475568401
 34
0.0
 50
180.0
100
AcDbRotatedDimension
1001
ACAD
1000
DSTYLE
1002
{
1070
   172
1070
     0
1070
   289
1070
     1
1070
    74
1070
     0
1070
   271
1070
     3
1070
   272
1070
     3
1070
    48
1040
0.0
1070
    47
1040
0.0
1002
}
  0
DIMENSION
  5
72F
330
77
100
AcDbEntity
  8
Quote(ISO)
  6
Continuous
 62
    96
370
    25
100
AcDbDimension
  2
*D13
 10
133.8870701690607
 20
271.1543475568401
 30
0.0
 11
133.8870701690607
 21
313.5918475568401
 31
0.0
 70
   160
  1
 84.75
 42
84.875
  3
MAURO
100
AcDbAlignedDimension
 13
161.3084687973895
 23
356.0293475568401
 33
0.0
 14
196.1834687973896
 24
271.1543475568401
 34
0.0
 50
90.0
100
AcDbRotatedDimension
1001
ACAD
1000
DSTYLE
1002
{
1070
   172
1070
     0
1070
   289
1070
     1
1070
    74
1070
     0
1070
   271
1070
     2
1070
   272
1070
     3
1070
    48
1040
0.0
1070
    47
1040
0.0
1002
}
  0
DIMENSION
  5
817
330
77
100
AcDbEntity
  8
Quote(ISO)
  6
Continuous
 62
    96
370
    25
100
AcDbDimension
  2
*D14
 10
161.3084687973895
 20
382.5870650188099
 30
0.0
 11
133.6308453356662
 21
382.5870650188099
 31
0.0
 70
   160
  1
{\fAIGDT|b0|i0;\H7.0000;\ln\fArial|b0|i0;\H7.0000;}<>
 42
18.25000000000003
  3
MAURO
100
AcDbAlignedDimension
 13
179.5584687973896
 23
356.0293475568401
 33
0.0
 14
161.3084687973895
 24
356.0293475568401
 34
0.0
 50
180.0
100
AcDbRotatedDimension
1001
ACAD
1000
DSTYLE
1002
{
1070
   172
1070
     1
1070
   289
1070
     1
1070
    74
1070
     0
1070
   271
1070
     3
1070
   272
1070
     3
1070
    48
1040
0.0
1070
    47
1040
0.0
1002
}
  0
DIMENSION
  5
90A
330
77
100
AcDbEntity
  8
Quote(ISO)
  6
Continuous
 62
    96
370
    25
100
AcDbDimension
  2
*D15
 10
284.8642156273556
 20
271.1543475568401
 30
0.0
 11
284.8642156273555
 21
406.3665419528176
 31
0.0
 70
   160
  1
 384
 42
384.8749999999999
  3
MAURO
100
AcDbAlignedDimension
 13
230.9334687973895
 23
541.5787363487949
 33
0.0
 14
196.1834687973896
 24
271.1543475568401
 34
0.0
 50
90.0
100
AcDbRotatedDimension
1001
ACAD
1000
DSTYLE
1002
{
1070
   172
1070
     0
1070
   289
1070
     1
1070
    74
1070
     0
1070
   271
1070
     3
1070
   144
1040
1.423225921742196
1070
   272
1070
     3
1070
    48
1040
0.0
1070
    47
1040
0.0
1002
}
  0
LINE
  5
9F5
330
77
100
AcDbEntity
  8
Linea del centro(ISO)
  6
CHAIN
 48
20.4628849029541
100
AcDbLine
 10
221.9334687973896
 20
354.3293475568402
 30
0.0
 11
221.9334687973895
 21
543.078736348795
 31
0.0
  0
LINE
  5
9F6
330
77
100
AcDbEntity
  8
Linea del centro(ISO)
  6
CHAIN
 48
20.4628849029541
100
AcDbLine
 10
221.9334687973896
 20
303.5293475568401
 30
0.0
 11
221.9334687973896
 21
358.5293475568401
 31
0.0
  0
ARC
  5
9F7
330
77
100
AcDbEntity
  8
Linea del centro(ISO)
  6
CHAIN
 48
20.4628849029541
100
AcDbCircle
 10
196.1834687973896
 20
306.0293475568401
 30
0.0
 40
25.75
100
AcDbArc
 50
173.3247635518739
 51
6.675236448126042
  0
LINE
  5
9F8
330
77
100
AcDbEntity
  8
Linea del centro(ISO)
  6
CHAIN
 48
20.4628849029541
100
AcDbLine
 10
170.4334687973896
 20
358.5293475568401
 30
0.0
 11
170.4334687973896
 21
303.5293475568401
 31
0.0
  0
ENDSEC
  0
SECTION
  2
OBJECTS
  0
DICTIONARY
  5
C
330
0
100
AcDbDictionary
281
     1
  3
ACAD_COLOR
350
6E
  3
ACAD_GROUP
350
D
  3
ACAD_LAYOUT
350
6D
  3
ACAD_MATERIAL
350
10
  3
ACAD_MLEADERSTYLE
350
71
  3
ACAD_MLINESTYLE
350
6A
  3
ACAD_PLOTSETTINGS
350
6C
  3
ACAD_PLOTSTYLENAME
350
E
  3
ACAD_SCALELIST
350
3D
  3
ACAD_TABLESTYLE
350
6F
  3
ACAD_VISUALSTYLE
350
29
  3
ACDB_RECOMPOSE_DATA
350
BD8
  3
AcDbVariableDictionary
350
AE8
  3
AcmDictionary
350
B5A
  3
AMG
350
B03
  3
AMGSNAPSETTINGS
350
B91
  3
DWGPROPS
350
BD9
  0
DICTIONARY
  5
AA1
330
8
100
AcDbDictionary
280
     1
281
     1
  0
DICTIONARY
  5
9FB
330
27F
100
AcDbDictionary
280
     1
281
     1
  3
ACAD_MLATT
360
B9B
  3
ACAD_XREC_ROUNDTRIP
360
B9A
  0
DICTIONARY
  5
9FE
330
282
100
AcDbDictionary
280
     1
281
     1
  3
ACAD_MLATT
360
B9D
  3
ACAD_XREC_ROUNDTRIP
360
B9C
  0
DICTIONARY
  5
A01
330
284
100
AcDbDictionary
280
     1
281
     1
  3
ACAD_MLATT
360
B9F
  3
ACAD_XREC_ROUNDTRIP
360
B9E
  0
DICTIONARY
  5
A06
330
286
100
AcDbDictionary
280
     1
281
     1
  3
ACAD_MLATT
360
BA3
  3
ACAD_XREC_ROUNDTRIP
360
BA2
  0
DICTIONARY
  5
A09
330
287
100
AcDbDictionary
280
     1
281
     1
  3
ACAD_MLATT
360
BA5
  3
ACAD_XREC_ROUNDTRIP
360
BA4
  0
DICTIONARY
  5
A0C
330
288
100
AcDbDictionary
280
     1
281
     1
  3
ACAD_MLATT
360
BA7
  3
ACAD_XREC_ROUNDTRIP
360
BA6
  0
DICTIONARY
  5
A0F
330
289
100
AcDbDictionary
280
     1
281
     1
  3
ACAD_MLATT
360
BA9
  3
ACAD_XREC_ROUNDTRIP
360
BA8
  0
DICTIONARY
  5
BA1
330
BA0
100
AcDbDictionary
280
     1
281
     1
  0
DICTIONARY
  5
C0A
330
335
100
AcDbDictionary
280
     1
281
     1
  3
ACAD_MTEXT_RT
360
C0B
  0
DICTIONARY
  5
A15
330
341
100
AcDbDictionary
280
     1
281
     1
  3
ACAD_MLATT
360
BAB
  3
ACAD_XREC_ROUNDTRIP
360
BAA
  0
DICTIONARY
  5
A18
330
342
100
AcDbDictionary
280
     1
281
     1
  3
ACAD_MLATT
360
BAD
  3
ACAD_XREC_ROUNDTRIP
360
BAC
  0
DICTIONARY
  5
A1B
330
344
100
AcDbDictionary
280
     1
281
     1
  3
ACAD_MLATT
360
BAF
  3
ACAD_XREC_ROUNDTRIP
360
BAE
  0
DICTIONARY
  5
A1E
330
346
100
AcDbDictionary
280
     1
281
     1
  3
ACAD_MLATT
360
BB1
  3
ACAD_XREC_ROUNDTRIP
360
BB0
  0
DICTIONARY
  5
A21
330
347
100
AcDbDictionary
280
     1
281
     1
  3
ACAD_MLATT
360
BB3
  3
ACAD_XREC_ROUNDTRIP
360
BB2
  0
DICTIONARY
  5
A24
330
348
100
AcDbDictionary
280
     1
281
     1
  3
ACAD_MLATT
360
BB5
  3
ACAD_XREC_ROUNDTRIP
360
BB4
  0
DICTIONARY
  5
A27
330
349
100
AcDbDictionary
280
     1
281
     1
  3
ACAD_MLATT
360
BB7
  3
ACAD_XREC_ROUNDTRIP
360
BB6
  0
DICTIONARY
  5
A2A
330
34A
100
AcDbDictionary
280
     1
281
     1
  3
ACAD_MLATT
360
BB9
  3
ACAD_XREC_ROUNDTRIP
360
BB8
  0
DICTIONARY
  5
A2D
330
34B
100
AcDbDictionary
280
     1
281
     1
  3
ACAD_MLATT
360
BBB
  3
ACAD_XREC_ROUNDTRIP
360
BBA
  0
DICTIONARY
  5
A30
330
34C
100
AcDbDictionary
280
     1
281
     1
  3
ACAD_MLATT
360
BBD
  3
ACAD_XREC_ROUNDTRIP
360
BBC
  0
DICTIONARY
  5
A33
330
34D
100
AcDbDictionary
280
     1
281
     1
  3
ACAD_MLATT
360
BBF
  3
ACAD_XREC_ROUNDTRIP
360
BBE
  0
DICTIONARY
  5
A36
330
34E
100
AcDbDictionary
280
     1
281
     1
  3
ACAD_MLATT
360
BC1
  3
ACAD_XREC_ROUNDTRIP
360
BC0
  0
DICTIONARY
  5
A39
330
34F
100
AcDbDictionary
280
     1
281
     1
  3
ACAD_MLATT
360
BC3
  3
ACAD_XREC_ROUNDTRIP
360
BC2
  0
DICTIONARY
  5
A3C
330
350
100
AcDbDictionary
280
     1
281
     1
  3
ACAD_MLATT
360
BC5
  3
ACAD_XREC_ROUNDTRIP
360
BC4
  0
DICTIONARY
  5
A3F
330
351
100
AcDbDictionary
280
     1
281
     1
  3
ACAD_MLATT
360
BC7
  3
ACAD_XREC_ROUNDTRIP
360
BC6
  0
DICTIONARY
  5
A42
330
352
100
AcDbDictionary
280
     1
281
     1
  3
ACAD_MLATT
360
BC9
  3
ACAD_XREC_ROUNDTRIP
360
BC8
  0
DICTIONARY
  5
A45
330
353
100
AcDbDictionary
280
     1
281
     1
  3
ACAD_MLATT
360
BCB
  3
ACAD_XREC_ROUNDTRIP
360
BCA
  0
DICTIONARY
  5
A48
330
354
100
AcDbDictionary
280
     1
281
     1
  3
ACAD_MLATT
360
BCD
  3
ACAD_XREC_ROUNDTRIP
360
BCC
  0
DICTIONARY
  5
A4B
330
355
100
AcDbDictionary
280
     1
281
     1
  3
ACAD_MLATT
360
BCF
  3
ACAD_XREC_ROUNDTRIP
360
BCE
  0
DICTIONARY
  5
A4E
330
356
100
AcDbDictionary
280
     1
281
     1
  3
ACAD_MLATT
360
BD1
  3
ACAD_XREC_ROUNDTRIP
360
BD0
  0
DICTIONARY
  5
A51
330
357
100
AcDbDictionary
280
     1
281
     1
  3
ACAD_MLATT
360
BD3
  3
ACAD_XREC_ROUNDTRIP
360
BD2
  0
DICTIONARY
  5
A54
330
358
100
AcDbDictionary
280
     1
281
     1
  3
ACAD_MLATT
360
BD5
  3
ACAD_XREC_ROUNDTRIP
360
BD4
  0
DICTIONARY
  5
A57
330
359
100
AcDbDictionary
280
     1
281
     1
  3
ACAD_MLATT
360
BD7
  3
ACAD_XREC_ROUNDTRIP
360
BD6
  0
DICTIONARY
  5
6E
102
{ACAD_REACTORS
330
C
102
}
330
C
100
AcDbDictionary
281
     1
  0
DICTIONARY
  5
D
102
{ACAD_REACTORS
330
C
102
}
330
C
100
AcDbDictionary
281
     1
  0
DICTIONARY
  5
6D
102
{ACAD_REACTORS
330
C
102
}
330
C
100
AcDbDictionary
281
     1
  3
Layout1
350
76
  3
Layout2
350
7E
  3
Model
350
7A
  0
DICTIONARY
  5
10
102
{ACAD_REACTORS
330
C
102
}
330
C
100
AcDbDictionary
281
     1
  3
ByBlock
350
19
  3
ByLayer
350
11
  3
Global
350
21
  0
DICTIONARY
  5
71
102
{ACAD_REACTORS
330
C
102
}
330
C
100
AcDbDictionary
281
     1
  3
Standard
350
72
  0
DICTIONARY
  5
6A
102
{ACAD_REACTORS
330
C
102
}
330
C
100
AcDbDictionary
281
     1
  3
Standard
350
6B
  0
DICTIONARY
  5
6C
102
{ACAD_REACTORS
330
C
102
}
330
C
100
AcDbDictionary
281
     1
  0
ACDBDICTIONARYWDFLT
  5
E
102
{ACAD_REACTORS
330
C
102
}
330
C
100
AcDbDictionary
281
     1
  3
Normal
350
F
100
AcDbDictionaryWithDefault
340
F
  0
DICTIONARY
  5
3D
102
{ACAD_REACTORS
330
C
102
}
330
C
100
AcDbDictionary
281
     1
  3
A0
350
3E
  3
A1
350
3F
  3
A2
350
40
  3
A3
350
41
  3
A4
350
42
  3
A5
350
43
  3
A6
350
44
  3
A7
350
45
  3
A8
350
46
  3
A9
350
47
  3
B0
350
48
  3
B1
350
49
  3
B2
350
4A
  3
B3
350
4B
  3
B4
350
4C
  3
B5
350
4D
  3
B6
350
4E
  3
B7
350
4F
  3
B8
350
50
  3
B9
350
51
  3
C0
350
52
  3
C1
350
53
  3
C2
350
54
  3
C3
350
55
  3
C4
350
56
  3
C5
350
57
  3
C6
350
58
  3
C7
350
59
  3
C8
350
5A
  3
C9
350
5B
  3
D0
350
5C
  3
D1
350
5D
  3
D2
350
5E
  0
DICTIONARY
  5
6F
102
{ACAD_REACTORS
330
C
102
}
330
C
100
AcDbDictionary
281
     1
  3
Standard
350
70
  0
DICTIONARY
  5
29
102
{ACAD_REACTORS
330
C
102
}
330
C
100
AcDbDictionary
281
     1
  3
2dWireframe
350
2F
  3
3D Hidden
350
31
  3
3dWireframe
350
30
  3
Basic
350
2E
  3
Brighten
350
35
  3
ColorChange
350
39
  3
Conceptual
350
32
  3
Dim
350
34
  3
EdgeColorOff
350
3C
  3
Facepattern
350
38
  3
Flat
350
2A
  3
FlatWithEdges
350
2B
  3
Gouraud
350
2C
  3
GouraudWithEdges
350
2D
  3
JitterOff
350
3A
  3
Linepattern
350
37
  3
OverhangOff
350
3B
  3
Realistic
350
33
  3
Thicken
350
36
  0
XRECORD
  5
BD8
102
{ACAD_REACTORS
330
C
102
}
330
C
100
AcDbXrecord
280
     1
 90
        1
330
70
330
27F
330
282
330
284
330
286
330
287
330
288
330
289
330
341
330
342
330
344
330
346
330
347
330
348
330
349
330
34A
330
34B
330
34C
330
34D
330
34E
330
34F
330
350
330
351
330
352
330
353
330
354
330
355
330
356
330
357
330
358
330
359
  0
DICTIONARY
  5
AE8
102
{ACAD_REACTORS
330
C
102
}
330
C
100
AcDbDictionary
281
     1
  3
CANNOSCALE
350
AEC
  3
CMLEADERSTYLE
350
AEA
  3
CTABLESTYLE
350
AE9
  3
DIMASSOC
350
AF3
  3
HIDETEXT
350
AF2
  3
INDEXCTL
350
AF1
  3
LAYEREVAL
350
AEE
  3
LAYERNOTIFY
350
AEF
  3
LIGHTINGUNITS
350
AED
  3
MSLTSCALE
350
AEB
  3
SORTENTS
350
AF0
  3
XCLIPFRAME
350
B98
  0
DICTIONARY
  5
B5A
102
{ACAD_REACTORS
330
C
102
}
330
C
100
AcDbDictionary
281
     1
  3
AcmStdDictionary
350
B66
  0
DICTIONARY
  5
B03
102
{ACAD_REACTORS
330
C
102
}
330
C
100
AcDbDictionary
281
     1
  0
DICTIONARY
  5
B91
102
{ACAD_REACTORS
330
C
102
}
330
C
100
AcDbDictionary
281
     1
  0
XRECORD
  5
BD9
102
{ACAD_REACTORS
330
C
102
}
330
C
100
AcDbXrecord
280
     1
  1
DWGPROPS COOKIE
  2

  3

  4
MAUFRI
  6

  7

  8
amenegon
  9

300
Responsabile=
301
Società=
302
Categoria=
303
Numero parte=CG-348-20
304
Descrizione=
305
Progetto=
306
Progettista=MAUFRI
307
Ingegnere=
308
Autorità=
309
Centro gestione costi=
 40
0.0003159490740741
 41
2456105.634673333
 42
2456105.645874861
  1

 90
       16
300
Fornitore=
300
Stato utente=
300
Stato progetto=In corso
300
Verificato da=
300
Progett. approvata da=
300
Prod. approvata da=
  0
XRECORD
  5
B9B
102
{ACAD_REACTORS
330
9FB
102
}
330
9FB
100
AcDbXrecord
280
     1
 70
     4
 70
     0
 70
     0
 40
1.0
  2
DESCRIZIONE_1
  1
Embedded Object
 10
-93.49119398589706
 20
5.505471063720221
 30
0.0
 40
2.489199936389923
 41
106.9783856763648
 46
0.0
 71
     1
 72
     5
  1
MODIFICATO QUOTA DA 20 A 25
  7
Stile testo15
 73
     1
 44
1.0
  0
XRECORD
  5
B9A
102
{ACAD_REACTORS
330
9FB
102
}
330
9FB
100
AcDbXrecord
280
     1
102
ACAD_MATT_HEIGHT
140
2.489199936389923
  0
XRECORD
  5
B9D
102
{ACAD_REACTORS
330
9FE
102
}
330
9FE
100
AcDbXrecord
280
     1
 70
     4
 70
     0
 70
     0
 40
1.0
  2
DESCRIZIONE_2
  1
Embedded Object
 10
-93.56890635983567
 20
1.937379052550589
 30
0.0
 40
2.489199936389923
 41
106.0389395913541
 46
0.0
 71
     1
 72
     5
  1
MODIFICATO INTERASSE DA 80 A 90
  7
Stile testo15
 73
     1
 44
1.0
  0
XRECORD
  5
B9C
102
{ACAD_REACTORS
330
9FE
102
}
330
9FE
100
AcDbXrecord
280
     1
102
ACAD_MATT_HEIGHT
140
2.489199936389923
  0
XRECORD
  5
B9F
102
{ACAD_REACTORS
330
A01
102
}
330
A01
100
AcDbXrecord
280
     1
 70
     4
 70
     0
 70
     0
 40
1.0
  2
NR.REV
  1
Embedded Object
 10
17.21416714364988
 20
2.459098066293776
 30
0.0
 40
3.499999940395355
 41
5.795553091395007
 46
0.0
 71
     5
 72
     5
  1
\W0.9000;01
  7
Stile testo116
 73
     1
 44
1.0
  0
XRECORD
  5
B9E
102
{ACAD_REACTORS
330
A01
102
}
330
A01
100
AcDbXrecord
280
     1
102
ACAD_MATT_HEIGHT
140
3.499999940395355
  0
XRECORD
  5
BA3
102
{ACAD_REACTORS
330
A06
102
}
330
A06
100
AcDbXrecord
280
     1
 70
     4
 70
     0
 70
     1
340
BA0
 40
1.0
  2
DISEGNATO
  1
Embedded Object
 10
32.66124997243344
 20
4.468844212966427
 30
0.0
 40
2.489199936389923
 41
24.93167301252459
 46
0.0
 71
     5
 72
     5
  1
\W0.9000;FRIGETTO MAURO
  7
Stile testo115
 73
     1
 44
1.0
  0
XRECORD
  5
BA2
102
{ACAD_REACTORS
330
A06
102
}
330
A06
100
AcDbXrecord
280
     1
102
ACAD_MATT_HEIGHT
140
2.489199936389923
  0
XRECORD
  5
BA5
102
{ACAD_REACTORS
330
A09
102
}
330
A09
100
AcDbXrecord
280
     1
 70
     4
 70
     0
 70
     0
 40
1.0
  2
DATA
  1
Embedded Object
 10
32.60244885683786
 20
0.4703683121771185
 30
0.0
 40
2.489199936389923
 41
24.99047412812017
 46
0.0
 71
     5
 72
     5
  1
12-12-01
  7
Stile testo15
 73
     1
 44
1.0
  0
XRECORD
  5
BA4
102
{ACAD_REACTORS
330
A09
102
}
330
A09
100
AcDbXrecord
280
     1
102
ACAD_MATT_HEIGHT
140
2.489199936389923
  0
XRECORD
  5
BA7
102
{ACAD_REACTORS
330
A0C
102
}
330
A0C
100
AcDbXrecord
280
     1
 70
     4
 70
     0
 70
     0
 40
1.0
  2
DATA
  1
Embedded Object
 10
57.6076232638568
 20
0.4850685912241559
 30
0.0
 40
2.489199936389923
 41
24.96107357032237
 46
0.0
 71
     5
 72
     5
  1
12-12-01
  7
Stile testo15
 73
     1
 44
1.0
  0
XRECORD
  5
BA6
102
{ACAD_REACTORS
330
A0C
102
}
330
A0C
100
AcDbXrecord
280
     1
102
ACAD_MATT_HEIGHT
140
2.489199936389923
  0
XRECORD
  5
BA9
102
{ACAD_REACTORS
330
A0F
102
}
330
A0F
100
AcDbXrecord
280
     1
 70
     4
 70
     0
 70
     0
 40
1.0
  2
DATA
  1
Embedded Object
 10
82.5539965552803
 20
0.4703683121771541
 30
0.0
 40
2.489199936389923
 41
24.93167301252459
 46
0.0
 71
     5
 72
     5
  1
12-12-01
  7
Stile testo15
 73
     1
 44
1.0
  0
XRECORD
  5
BA8
102
{ACAD_REACTORS
330
A0F
102
}
330
A0F
100
AcDbXrecord
280
     1
102
ACAD_MATT_HEIGHT
140
2.489199936389923
  0
XRECORD
  5
C0B
102
{ACAD_REACTORS
330
C0A
102
}
330
C0A
100
AcDbXrecord
280
     1
 40
567138.0
  1
\fArial|b0|i0;\H2.0066;Via Cassola , 64\P36027 Rosà (VI)\PITALY\PTel.0424/585111\PFax.0424/533417\Pwww.comunello.com
  0
XRECORD
  5
BAB
102
{ACAD_REACTORS
330
A15
102
}
330
A15
100
AcDbXrecord
280
     1
 70
     4
 70
     0
 70
     0
 40
1.0
  2
Denominazione__1
  1
Embedded Object
 10
11.0
 20
66.5
 30
0.0
 40
2.006599903106689
 41
71.00000000000001
 46
0.0
 71
     1
 72
     5
  1
ANCORANTE M20
  7
Stile testo6
 73
     1
 44
1.0
  0
XRECORD
  5
BAA
102
{ACAD_REACTORS
330
A15
102
}
330
A15
100
AcDbXrecord
280
     1
102
ACAD_MATT_HEIGHT
140
2.006599903106689
  0
XRECORD
  5
BAD
102
{ACAD_REACTORS
330
A18
102
}
330
A18
100
AcDbXrecord
280
     1
 70
     4
 70
     0
 70
     0
 40
1.0
  2
Denominazione_2
  1
Embedded Object
 10
11.0
 20
63.0
 30
0.0
 40
2.006599903106689
 41
71.00000000000001
 46
0.0
 71
     1
 72
     5
  1

  7
Stile testo6
 73
     1
 44
1.0
  0
XRECORD
  5
BAC
102
{ACAD_REACTORS
330
A18
102
}
330
A18
100
AcDbXrecord
280
     1
102
ACAD_MATT_HEIGHT
140
2.006599903106689
  0
XRECORD
  5
BAF
102
{ACAD_REACTORS
330
A1B
102
}
330
A1B
100
AcDbXrecord
280
     1
 70
     4
 70
     0
 70
     0
 40
1.0
  2
CODICE_DISEGNO
  1
Embedded Object
 10
97.25000000000001
 20
63.50000000000001
 30
0.0
 40
3.50519984960556
 41
28.5
 46
0.0
 71
     5
 72
     5
  1
\W0.7500;CG-348-20
  7
Stile testo135
 73
     1
 44
1.0
  0
XRECORD
  5
BAE
102
{ACAD_REACTORS
330
A1B
102
}
330
A1B
100
AcDbXrecord
280
     1
102
ACAD_MATT_HEIGHT
140
3.50519984960556
  0
XRECORD
  5
BB1
102
{ACAD_REACTORS
330
A1E
102
}
330
A1E
100
AcDbXrecord
280
     1
 70
     4
 70
     0
 70
     0
 40
1.0
  2
Materiale_1
  1
Embedded Object
 10
144.75
 20
65.24632405268551
 30
0.0
 40
2.006599903106689
 41
63.50000000000001
 46
0.0
 71
     5
 72
     5
  1
ACCIAIO INOX
  7
Stile testo6
 73
     1
 44
1.0
  0
XRECORD
  5
BB0
102
{ACAD_REACTORS
330
A1E
102
}
330
A1E
100
AcDbXrecord
280
     1
102
ACAD_MATT_HEIGHT
140
2.006599903106689
  0
XRECORD
  5
BB3
102
{ACAD_REACTORS
330
A21
102
}
330
A21
100
AcDbXrecord
280
     1
 70
     4
 70
     0
 70
     0
 40
1.0
  2
Materiale_2
  1
Embedded Object
 10
144.809961390817
 20
61.5
 30
0.0
 40
2.006599903106689
 41
65.0
 46
0.0
 71
     5
 72
     5
  1

  7
Stile testo6
 73
     1
 44
1.0
  0
XRECORD
  5
BB2
102
{ACAD_REACTORS
330
A21
102
}
330
A21
100
AcDbXrecord
280
     1
102
ACAD_MATT_HEIGHT
140
2.006599903106689
  0
XRECORD
  5
BB5
102
{ACAD_REACTORS
330
A24
102
}
330
A24
100
AcDbXrecord
280
     1
 70
     4
 70
     0
 70
     0
 40
1.0
  2
CODICE_MATERIALE
  1
Embedded Object
 10
188.5
 20
63.5
 30
0.0
 40
2.006599903106689
 41
23.00000000000001
 46
0.0
 71
     5
 72
     5
  1

  7
Stile testo6
 73
     1
 44
1.0
  0
XRECORD
  5
BB4
102
{ACAD_REACTORS
330
A24
102
}
330
A24
100
AcDbXrecord
280
     1
102
ACAD_MATT_HEIGHT
140
2.006599903106689
  0
XRECORD
  5
BB7
102
{ACAD_REACTORS
330
A27
102
}
330
A27
100
AcDbXrecord
280
     1
 70
     4
 70
     0
 70
     0
 40
1.0
  2
PESO_UNITARIO_KG
  1
Embedded Object
 10
97.05039695754834
 20
48.4920608646265
 30
0.0
 40
2.489199936389923
 41
26.99999999999999
 46
0.0
 71
     5
 72
     5
  1

  7
Stile testo15
 73
     1
 44
1.0
  0
XRECORD
  5
BB6
102
{ACAD_REACTORS
330
A27
102
}
330
A27
100
AcDbXrecord
280
     1
102
ACAD_MATT_HEIGHT
140
2.489199936389923
  0
XRECORD
  5
BB9
102
{ACAD_REACTORS
330
A2A
102
}
330
A2A
100
AcDbXrecord
280
     1
 70
     4
 70
     0
 70
     0
 40
1.0
  2
TRATTAMENTO_1
  1
Embedded Object
 10
132.6521050609213
 20
53.48089266404504
 30
0.0
 40
2.489199936389923
 41
46.5
 46
0.0
 71
     1
 72
     5
  1

  7
Stile testo15
 73
     1
 44
1.0
  0
XRECORD
  5
BB8
102
{ACAD_REACTORS
330
A2A
102
}
330
A2A
100
AcDbXrecord
280
     1
102
ACAD_MATT_HEIGHT
140
2.489199936389923
  0
XRECORD
  5
BBB
102
{ACAD_REACTORS
330
A2D
102
}
330
A2D
100
AcDbXrecord
280
     1
 70
     4
 70
     0
 70
     0
 40
1.0
  2
TRATTAMENTO_2
  1
Embedded Object
 10
113.0632687693352
 20
49.98769965437094
 30
0.0
 40
2.489199936389923
 41
63.0
 46
0.0
 71
     1
 72
     5
  1

  7
Stile testo15
 73
     1
 44
1.0
  0
XRECORD
  5
BBA
102
{ACAD_REACTORS
330
A2D
102
}
330
A2D
100
AcDbXrecord
280
     1
102
ACAD_MATT_HEIGHT
140
2.489199936389923
  0
XRECORD
  5
BBD
102
{ACAD_REACTORS
330
A30
102
}
330
A30
100
AcDbXrecord
280
     1
 70
     4
 70
     0
 70
     0
 40
1.0
  2
COEFFICIENTE_D'IMPEGO
  1
Embedded Object
 10
188.5523258958931
 20
48.62644459325678
 30
0.0
 40
2.489199936389923
 41
21.00000000000001
 46
0.0
 71
     5
 72
     5
  1

  7
Stile testo15
 73
     1
 44
1.0
  0
XRECORD
  5
BBC
102
{ACAD_REACTORS
330
A30
102
}
330
A30
100
AcDbXrecord
280
     1
102
ACAD_MATT_HEIGHT
140
2.489199936389923
  0
XRECORD
  5
BBF
102
{ACAD_REACTORS
330
A33
102
}
330
A33
100
AcDbXrecord
280
     1
 70
     4
 70
     0
 70
     0
 40
1.0
  2
SCALA
  1
Embedded Object
 10
97.25000000000001
 20
41.0
 30
0.0
 40
2.489199936389923
 41
26.5
 46
0.0
 71
     5
 72
     5
  1
1 : 2
  7
Stile testo15
 73
     1
 44
1.0
  0
XRECORD
  5
BBE
102
{ACAD_REACTORS
330
A33
102
}
330
A33
100
AcDbXrecord
280
     1
102
ACAD_MATT_HEIGHT
140
2.489199936389923
  0
XRECORD
  5
BC1
102
{ACAD_REACTORS
330
A36
102
}
330
A36
100
AcDbXrecord
280
     1
 70
     4
 70
     0
 70
     0
 40
1.0
  2
FOGLIO
  1
Embedded Object
 10
119.1976741041069
 20
40.40294218049127
 30
0.0
 40
2.489199936389923
 41
13.50000000000001
 46
0.0
 71
     5
 72
     5
  1
A4
  7
Stile testo15
 73
     1
 44
1.0
  0
XRECORD
  5
BC0
102
{ACAD_REACTORS
330
A36
102
}
330
A36
100
AcDbXrecord
280
     1
102
ACAD_MATT_HEIGHT
140
2.489199936389923
  0
XRECORD
  5
BC3
102
{ACAD_REACTORS
330
A39
102
}
330
A39
100
AcDbXrecord
280
     1
 70
     4
 70
     0
 70
     0
 40
1.0
  2
DISEGNATO
  1
Embedded Object
 10
127.5
 20
41.5
 30
0.0
 40
2.489199936389923
 41
31.5
 46
0.0
 71
     1
 72
     5
  1
MENEGHINI
  7
Stile testo15
 73
     1
 44
1.0
  0
XRECORD
  5
BC2
102
{ACAD_REACTORS
330
A39
102
}
330
A39
100
AcDbXrecord
280
     1
102
ACAD_MATT_HEIGHT
140
2.489199936389923
  0
XRECORD
  5
BC5
102
{ACAD_REACTORS
330
A3C
102
}
330
A3C
100
AcDbXrecord
280
     1
 70
     4
 70
     0
 70
     0
 40
1.0
  2
DATA
  1
Embedded Object
 10
168.25
 20
40.5
 30
0.0
 40
2.489199936389923
 41
15.5
 46
0.0
 71
     5
 72
     5
  1
24-07-06
  7
Stile testo15
 73
     1
 44
1.0
  0
XRECORD
  5
BC4
102
{ACAD_REACTORS
330
A3C
102
}
330
A3C
100
AcDbXrecord
280
     1
102
ACAD_MATT_HEIGHT
140
2.489199936389923
  0
XRECORD
  5
BC7
102
{ACAD_REACTORS
330
A3F
102
}
330
A3F
100
AcDbXrecord
280
     1
 70
     4
 70
     0
 70
     0
 40
1.0
  2
DATA
  1
Embedded Object
 10
168.25
 20
32.75
 30
0.0
 40
2.489199936389923
 41
15.5
 46
0.0
 71
     5
 72
     5
  1
24-07-06
  7
Stile testo15
 73
     1
 44
1.0
  0
XRECORD
  5
BC6
102
{ACAD_REACTORS
330
A3F
102
}
330
A3F
100
AcDbXrecord
280
     1
102
ACAD_MATT_HEIGHT
140
2.489199936389923
  0
XRECORD
  5
BC9
102
{ACAD_REACTORS
330
A42
102
}
330
A42
100
AcDbXrecord
280
     1
 70
     4
 70
     0
 70
     0
 40
1.0
  2
DATA
  1
Embedded Object
 10
168.25
 20
24.75
 30
0.0
 40
2.489199936389923
 41
15.5
 46
0.0
 71
     5
 72
     5
  1
24-07-06
  7
Stile testo15
 73
     1
 44
1.0
  0
XRECORD
  5
BC8
102
{ACAD_REACTORS
330
A42
102
}
330
A42
100
AcDbXrecord
280
     1
102
ACAD_MATT_HEIGHT
140
2.489199936389923
  0
XRECORD
  5
BCB
102
{ACAD_REACTORS
330
A45
102
}
330
A45
100
AcDbXrecord
280
     1
 70
     4
 70
     0
 70
     0
 40
1.0
  2
NUMERO_ARTICOLO
  1
Embedded Object
 10
137.8158294861797
 20
21.53904977834278
 30
0.0
 40
2.489199936389923
 41
63.00000000000003
 46
0.0
 71
     1
 72
     5
  1

  7
Stile testo15
 73
     1
 44
1.0
  0
XRECORD
  5
BCA
102
{ACAD_REACTORS
330
A45
102
}
330
A45
100
AcDbXrecord
280
     1
102
ACAD_MATT_HEIGHT
140
2.489199936389923
  0
XRECORD
  5
BCD
102
{ACAD_REACTORS
330
A48
102
}
330
A48
100
AcDbXrecord
280
     1
 70
     4
 70
     0
 70
     0
 40
1.0
  2
NUMERO_ARTICOLO
  1
Embedded Object
 10
127.1848152468796
 20
17.63978885077316
 30
0.0
 40
2.489199936389923
 41
71.00000000000001
 46
0.0
 71
     1
 72
     5
  1

  7
Stile testo15
 73
     1
 44
1.0
  0
XRECORD
  5
BCC
102
{ACAD_REACTORS
330
A48
102
}
330
A48
100
AcDbXrecord
280
     1
102
ACAD_MATT_HEIGHT
140
2.489199936389923
  0
XRECORD
  5
BCF
102
{ACAD_REACTORS
330
A4B
102
}
330
A4B
100
AcDbXrecord
280
     1
 70
     4
 70
     0
 70
     0
 40
1.0
  2
ATTREZZAT._1
  1
Embedded Object
 10
188.5
 20
40.5
 30
0.0
 40
2.489199936389923
 41
21.00000000000001
 46
0.0
 71
     5
 72
     5
  1

  7
Stile testo15
 73
     1
 44
1.0
  0
XRECORD
  5
BCE
102
{ACAD_REACTORS
330
A4B
102
}
330
A4B
100
AcDbXrecord
280
     1
102
ACAD_MATT_HEIGHT
140
2.489199936389923
  0
XRECORD
  5
BD1
102
{ACAD_REACTORS
330
A4E
102
}
330
A4E
100
AcDbXrecord
280
     1
 70
     4
 70
     0
 70
     0
 40
1.0
  2
ATTREZZAT.2
  1
Embedded Object
 10
188.5
 20
32.5
 30
0.0
 40
2.489199936389923
 41
21.00000000000001
 46
0.0
 71
     5
 72
     5
  1

  7
Stile testo15
 73
     1
 44
1.0
  0
XRECORD
  5
BD0
102
{ACAD_REACTORS
330
A4E
102
}
330
A4E
100
AcDbXrecord
280
     1
102
ACAD_MATT_HEIGHT
140
2.489199936389923
  0
XRECORD
  5
BD3
102
{ACAD_REACTORS
330
A51
102
}
330
A51
100
AcDbXrecord
280
     1
 70
     4
 70
     0
 70
     0
 40
1.0
  2
ATTREZZAT.3
  1
Embedded Object
 10
188.5
 20
24.5
 30
0.0
 40
2.489199936389923
 41
21.00000000000001
 46
0.0
 71
     5
 72
     5
  1

  7
Stile testo15
 73
     1
 44
1.0
  0
XRECORD
  5
BD2
102
{ACAD_REACTORS
330
A51
102
}
330
A51
100
AcDbXrecord
280
     1
102
ACAD_MATT_HEIGHT
140
2.489199936389923
  0
XRECORD
  5
BD5
102
{ACAD_REACTORS
330
A54
102
}
330
A54
100
AcDbXrecord
280
     1
 70
     4
 70
     0
 70
     0
 40
1.0
  2
SOSTITUISCE_IL
  1
Embedded Object
 10
22.0
 20
41.0
 30
0.0
 40
2.489199936389923
 41
22.0
 46
0.0
 71
     5
 72
     5
  1

  7
Stile testo15
 73
     1
 44
1.0
  0
XRECORD
  5
BD4
102
{ACAD_REACTORS
330
A54
102
}
330
A54
100
AcDbXrecord
280
     1
102
ACAD_MATT_HEIGHT
140
2.489199936389923
  0
XRECORD
  5
BD7
102
{ACAD_REACTORS
330
A57
102
}
330
A57
100
AcDbXrecord
280
     1
 70
     4
 70
     0
 70
     0
 40
1.0
  2
SOSTITUITO_DAL
  1
Embedded Object
 10
46.5
 20
41.0
 30
0.0
 40
2.489199936389923
 41
22.0
 46
0.0
 71
     5
 72
     5
  1

  7
Stile testo15
 73
     1
 44
1.0
  0
XRECORD
  5
BD6
102
{ACAD_REACTORS
330
A57
102
}
330
A57
100
AcDbXrecord
280
     1
102
ACAD_MATT_HEIGHT
140
2.489199936389923
  0
LAYOUT
  5
76
102
{ACAD_XDICTIONARY
360
C04
102
}
102
{ACAD_REACTORS
330
6D
102
}
330
6D
100
AcDbPlotSettings
  1

  2

  4

  6

 40
0.0
 41
0.0
 42
0.0
 43
0.0
 44
0.0
 45
0.0
 46
0.0
 47
0.0
 48
0.0
 49
0.0
140
0.0
141
0.0
142
1.0
143
1.0
 70
   688
 72
     0
 73
     0
 74
     5
  7

 75
    16
147
1.0
148
0.0
149
0.0
100
AcDbLayout
  1
Layout1
 70
     1
 71
     1
 10
0.0
 20
0.0
 11
420.0
 21
594.0
 12
0.0
 22
0.0
 32
0.0
 14
0.0
 24
0.0
 34
0.0
 15
420.0
 25
594.0
 35
0.0
146
0.0
 13
0.0
 23
0.0
 33
0.0
 16
1.0
 26
0.0
 36
0.0
 17
0.0
 27
1.0
 37
0.0
 76
     0
330
73
  0
LAYOUT
  5
7E
102
{ACAD_XDICTIONARY
360
C08
102
}
102
{ACAD_REACTORS
330
6D
102
}
330
6D
100
AcDbPlotSettings
  1

  2

  4

  6

 40
0.0
 41
0.0
 42
0.0
 43
0.0
 44
0.0
 45
0.0
 46
0.0
 47
0.0
 48
0.0
 49
0.0
140
0.0
141
0.0
142
1.0
143
1.0
 70
   688
 72
     0
 73
     0
 74
     5
  7

 75
    16
147
1.0
148
0.0
149
0.0
100
AcDbLayout
  1
Layout2
 70
     1
 71
     2
 10
0.0
 20
0.0
 11
12.0
 21
9.0
 12
0.0
 22
0.0
 32
0.0
 14
0.0
 24
0.0
 34
0.0
 15
0.0
 25
0.0
 35
0.0
146
0.0
 13
0.0
 23
0.0
 33
0.0
 16
1.0
 26
0.0
 36
0.0
 17
0.0
 27
1.0
 37
0.0
 76
     0
330
7B
  0
LAYOUT
  5
7A
102
{ACAD_XDICTIONARY
360
C06
102
}
102
{ACAD_REACTORS
330
6D
102
}
330
6D
100
AcDbPlotSettings
  1

  2

  4

  6

 40
0.0
 41
0.0
 42
0.0
 43
0.0
 44
0.0
 45
0.0
 46
0.0
 47
0.0
 48
0.0
 49
0.0
140
0.0
141
0.0
142
1.0
143
1.0
 70
  1712
 72
     0
 73
     0
 74
     0
  7

 75
     0
147
1.0
148
0.0
149
0.0
100
AcDbLayout
  1
Model
 70
     1
 71
     0
 10
0.0
 20
0.0
 11
12.0
 21
9.0
 12
0.0
 22
0.0
 32
0.0
 14
0.0
 24
0.0
 34
0.0
 15
0.0
 25
0.0
 35
0.0
146
0.0
 13
0.0
 23
0.0
 33
0.0
 16
1.0
 26
0.0
 36
0.0
 17
0.0
 27
1.0
 37
0.0
 76
     0
330
77
331
62
  0
MATERIAL
  5
19
102
{ACAD_XDICTIONARY
360
1A
102
}
102
{ACAD_REACTORS
330
10
102
}
330
10
100
AcDbMaterial
  1
ByBlock
 72
     0
 43
0.0208333333333333
 43
0.0
 43
0.0
 43
0.0
 43
0.0
 43
0.0208333333333333
 43
0.0
 43
0.0
 43
0.0
 43
0.0
 43
1.0
 43
0.0
 43
0.0
 43
0.0
 43
0.0
 43
1.0
 77
     0
 47
0.0208333333333333
 47
0.0
 47
0.0
 47
0.0
 47
0.0
 47
0.0208333333333333
 47
0.0
 47
0.0
 47
0.0
 47
0.0
 47
1.0
 47
0.0
 47
0.0
 47
0.0
 47
0.0
 47
1.0
171
     0
 49
0.0208333333333333
 49
0.0
 49
0.0
 49
0.0
 49
0.0
 49
0.0208333333333333
 49
0.0
 49
0.0
 49
0.0
 49
0.0
 49
1.0
 49
0.0
 49
0.0
 49
0.0
 49
0.0
 49
1.0
175
     0
142
0.0208333333333333
142
0.0
142
0.0
142
0.0
142
0.0
142
0.0208333333333333
142
0.0
142
0.0
142
0.0
142
0.0
142
1.0
142
0.0
142
0.0
142
0.0
142
0.0
142
1.0
179
     0
144
0.0208333333333333
144
0.0
144
0.0
144
0.0
144
0.0
144
0.0208333333333333
144
0.0
144
0.0
144
0.0
144
0.0
144
1.0
144
0.0
144
0.0
144
0.0
144
0.0
144
1.0
147
0.0208333333333333
147
0.0
147
0.0
147
0.0
147
0.0
147
0.0208333333333333
147
0.0
147
0.0
147
0.0
147
0.0
147
1.0
147
0.0
147
0.0
147
0.0
147
0.0
147
1.0
  0
MATERIAL
  5
11
102
{ACAD_XDICTIONARY
360
12
102
}
102
{ACAD_REACTORS
330
10
102
}
330
10
100
AcDbMaterial
  1
ByLayer
 72
     0
 43
0.0208333333333333
 43
0.0
 43
0.0
 43
0.0
 43
0.0
 43
0.0208333333333333
 43
0.0
 43
0.0
 43
0.0
 43
0.0
 43
1.0
 43
0.0
 43
0.0
 43
0.0
 43
0.0
 43
1.0
 77
     0
 47
0.0208333333333333
 47
0.0
 47
0.0
 47
0.0
 47
0.0
 47
0.0208333333333333
 47
0.0
 47
0.0
 47
0.0
 47
0.0
 47
1.0
 47
0.0
 47
0.0
 47
0.0
 47
0.0
 47
1.0
171
     0
 49
0.0208333333333333
 49
0.0
 49
0.0
 49
0.0
 49
0.0
 49
0.0208333333333333
 49
0.0
 49
0.0
 49
0.0
 49
0.0
 49
1.0
 49
0.0
 49
0.0
 49
0.0
 49
0.0
 49
1.0
175
     0
142
0.0208333333333333
142
0.0
142
0.0
142
0.0
142
0.0
142
0.0208333333333333
142
0.0
142
0.0
142
0.0
142
0.0
142
1.0
142
0.0
142
0.0
142
0.0
142
0.0
142
1.0
179
     0
144
0.0208333333333333
144
0.0
144
0.0
144
0.0
144
0.0
144
0.0208333333333333
144
0.0
144
0.0
144
0.0
144
0.0
144
1.0
144
0.0
144
0.0
144
0.0
144
0.0
144
1.0
147
0.0208333333333333
147
0.0
147
0.0
147
0.0
147
0.0
147
0.0208333333333333
147
0.0
147
0.0
147
0.0
147
0.0
147
1.0
147
0.0
147
0.0
147
0.0
147
0.0
147
1.0
  0
MATERIAL
  5
21
102
{ACAD_XDICTIONARY
360
22
102
}
102
{ACAD_REACTORS
330
10
102
}
330
10
100
AcDbMaterial
  1
Global
 72
     0
 43
0.0208333333333333
 43
0.0
 43
0.0
 43
0.0
 43
0.0
 43
0.0208333333333333
 43
0.0
 43
0.0
 43
0.0
 43
0.0
 43
1.0
 43
0.0
 43
0.0
 43
0.0
 43
0.0
 43
1.0
 77
     0
 47
0.0208333333333333
 47
0.0
 47
0.0
 47
0.0
 47
0.0
 47
0.0208333333333333
 47
0.0
 47
0.0
 47
0.0
 47
0.0
 47
1.0
 47
0.0
 47
0.0
 47
0.0
 47
0.0
 47
1.0
171
     0
 49
0.0208333333333333
 49
0.0
 49
0.0
 49
0.0
 49
0.0
 49
0.0208333333333333
 49
0.0
 49
0.0
 49
0.0
 49
0.0
 49
1.0
 49
0.0
 49
0.0
 49
0.0
 49
0.0
 49
1.0
175
     0
142
0.0208333333333333
142
0.0
142
0.0
142
0.0
142
0.0
142
0.0208333333333333
142
0.0
142
0.0
142
0.0
142
0.0
142
1.0
142
0.0
142
0.0
142
0.0
142
0.0
142
1.0
179
     0
144
0.0208333333333333
144
0.0
144
0.0
144
0.0
144
0.0
144
0.0208333333333333
144
0.0
144
0.0
144
0.0
144
0.0
144
1.0
144
0.0
144
0.0
144
0.0
144
0.0
144
1.0
147
0.0208333333333333
147
0.0
147
0.0
147
0.0
147
0.0
147
0.0208333333333333
147
0.0
147
0.0
147
0.0
147
0.0
147
1.0
147
0.0
147
0.0
147
0.0
147
0.0
147
1.0
  0
MLEADERSTYLE
  5
72
102
{ACAD_REACTORS
330
71
102
}
330
71
100
AcDbMLeaderStyle
170
     2
171
     1
172
     0
 90
        2
 40
0.0
 41
0.0
173
     1
 91
-1056964608
340
66
 92
       -2
290
     1
 42
0.09
291
     1
 43
0.36
  3
Standard
 44
0.18
300

342
60
174
     1
178
     6
175
     1
176
     0
 93
-1056964608
 45
0.18
292
     0
297
     0
 46
0.18
 94
-1056964608
 47
1.0
 49
1.0
140
1.0
293
     1
141
0.0
294
     1
177
     0
142
1.0
295
     0
296
     0
143
0.125
1001
ACAD_MLEADERVER
1070
     2
  0
MLINESTYLE
  5
6B
102
{ACAD_REACTORS
330
6A
102
}
330
6A
100
AcDbMlineStyle
  2
STANDARD
 70
     0
  3

 62
   256
 51
90.0
 52
90.0
 71
     2
 49
0.5
 62
   256
  6
BYLAYER
 49
-0.5
 62
   256
  6
BYLAYER
  0
ACDBPLACEHOLDER
  5
F
102
{ACAD_REACTORS
330
E
102
}
330
E
  0
SCALE
  5
3E
102
{ACAD_REACTORS
330
3D
102
}
330
3D
100
AcDbScale
 70
     0
300
1:1
140
1.0
141
1.0
290
     1
  0
SCALE
  5
3F
102
{ACAD_REACTORS
330
3D
102
}
330
3D
100
AcDbScale
 70
     0
300
1:2
140
1.0
141
2.0
290
     0
  0
SCALE
  5
40
102
{ACAD_REACTORS
330
3D
102
}
330
3D
100
AcDbScale
 70
     0
300
1:4
140
1.0
141
4.0
290
     0
  0
SCALE
  5
41
102
{ACAD_REACTORS
330
3D
102
}
330
3D
100
AcDbScale
 70
     0
300
1:5
140
1.0
141
5.0
290
     0
  0
SCALE
  5
42
102
{ACAD_REACTORS
330
3D
102
}
330
3D
100
AcDbScale
 70
     0
300
1:8
140
1.0
141
8.0
290
     0
  0
SCALE
  5
43
102
{ACAD_REACTORS
330
3D
102
}
330
3D
100
AcDbScale
 70
     0
300
1:10
140
1.0
141
10.0
290
     0
  0
SCALE
  5
44
102
{ACAD_REACTORS
330
3D
102
}
330
3D
100
AcDbScale
 70
     0
300
1:16
140
1.0
141
16.0
290
     0
  0
SCALE
  5
45
102
{ACAD_REACTORS
330
3D
102
}
330
3D
100
AcDbScale
 70
     0
300
1:20
140
1.0
141
20.0
290
     0
  0
SCALE
  5
46
102
{ACAD_REACTORS
330
3D
102
}
330
3D
100
AcDbScale
 70
     0
300
1:30
140
1.0
141
30.0
290
     0
  0
SCALE
  5
47
102
{ACAD_REACTORS
330
3D
102
}
330
3D
100
AcDbScale
 70
     0
300
1:40
140
1.0
141
40.0
290
     0
  0
SCALE
  5
48
102
{ACAD_REACTORS
330
3D
102
}
330
3D
100
AcDbScale
 70
     0
300
1:50
140
1.0
141
50.0
290
     0
  0
SCALE
  5
49
102
{ACAD_REACTORS
330
3D
102
}
330
3D
100
AcDbScale
 70
     0
300
1:100
140
1.0
141
100.0
290
     0
  0
SCALE
  5
4A
102
{ACAD_REACTORS
330
3D
102
}
330
3D
100
AcDbScale
 70
     0
300
2:1
140
2.0
141
1.0
290
     0
  0
SCALE
  5
4B
102
{ACAD_REACTORS
330
3D
102
}
330
3D
100
AcDbScale
 70
     0
300
4:1
140
4.0
141
1.0
290
     0
  0
SCALE
  5
4C
102
{ACAD_REACTORS
330
3D
102
}
330
3D
100
AcDbScale
 70
     0
300
8:1
140
8.0
141
1.0
290
     0
  0
SCALE
  5
4D
102
{ACAD_REACTORS
330
3D
102
}
330
3D
100
AcDbScale
 70
     0
300
10:1
140
10.0
141
1.0
290
     0
  0
SCALE
  5
4E
102
{ACAD_REACTORS
330
3D
102
}
330
3D
100
AcDbScale
 70
     0
300
100:1
140
100.0
141
1.0
290
     0
  0
SCALE
  5
4F
102
{ACAD_REACTORS
330
3D
102
}
330
3D
100
AcDbScale
 70
     0
300
1/128" = 1'-0"
140
0.0078125
141
12.0
290
     0
  0
SCALE
  5
50
102
{ACAD_REACTORS
330
3D
102
}
330
3D
100
AcDbScale
 70
     0
300
1/64" = 1'-0"
140
0.015625
141
12.0
290
     0
  0
SCALE
  5
51
102
{ACAD_REACTORS
330
3D
102
}
330
3D
100
AcDbScale
 70
     0
300
1/32" = 1'-0"
140
0.03125
141
12.0
290
     0
  0
SCALE
  5
52
102
{ACAD_REACTORS
330
3D
102
}
330
3D
100
AcDbScale
 70
     0
300
1/16" = 1'-0"
140
0.0625
141
12.0
290
     0
  0
SCALE
  5
53
102
{ACAD_REACTORS
330
3D
102
}
330
3D
100
AcDbScale
 70
     0
300
3/32" = 1'-0"
140
0.09375
141
12.0
290
     0
  0
SCALE
  5
54
102
{ACAD_REACTORS
330
3D
102
}
330
3D
100
AcDbScale
 70
     0
300
1/8" = 1'-0"
140
0.125
141
12.0
290
     0
  0
SCALE
  5
55
102
{ACAD_REACTORS
330
3D
102
}
330
3D
100
AcDbScale
 70
     0
300
3/16" = 1'-0"
140
0.1875
141
12.0
290
     0
  0
SCALE
  5
56
102
{ACAD_REACTORS
330
3D
102
}
330
3D
100
AcDbScale
 70
     0
300
1/4" = 1'-0"
140
0.25
141
12.0
290
     0
  0
SCALE
  5
57
102
{ACAD_REACTORS
330
3D
102
}
330
3D
100
AcDbScale
 70
     0
300
3/8" = 1'-0"
140
0.375
141
12.0
290
     0
  0
SCALE
  5
58
102
{ACAD_REACTORS
330
3D
102
}
330
3D
100
AcDbScale
 70
     0
300
1/2" = 1'-0"
140
0.5
141
12.0
290
     0
  0
SCALE
  5
59
102
{ACAD_REACTORS
330
3D
102
}
330
3D
100
AcDbScale
 70
     0
300
3/4" = 1'-0"
140
0.75
141
12.0
290
     0
  0
SCALE
  5
5A
102
{ACAD_REACTORS
330
3D
102
}
330
3D
100
AcDbScale
 70
     0
300
1" = 1'-0"
140
1.0
141
12.0
290
     0
  0
SCALE
  5
5B
102
{ACAD_REACTORS
330
3D
102
}
330
3D
100
AcDbScale
 70
     0
300
1-1/2" = 1'-0"
140
1.5
141
12.0
290
     0
  0
SCALE
  5
5C
102
{ACAD_REACTORS
330
3D
102
}
330
3D
100
AcDbScale
 70
     0
300
3" = 1'-0"
140
3.0
141
12.0
290
     0
  0
SCALE
  5
5D
102
{ACAD_REACTORS
330
3D
102
}
330
3D
100
AcDbScale
 70
     0
300
6" = 1'-0"
140
6.0
141
12.0
290
     0
  0
SCALE
  5
5E
102
{ACAD_REACTORS
330
3D
102
}
330
3D
100
AcDbScale
 70
     0
300
1'-0" = 1'-0"
140
12.0
141
12.0
290
     0
  0
TABLESTYLE
  5
70
102
{ACAD_XDICTIONARY
360
9F9
102
}
102
{ACAD_REACTORS
330
6F
102
}
330
6F
100
AcDbTableStyle
  3
Standard
 70
     0
 71
     0
 40
0.06
 41
0.06
280
     0
281
     0
  7
Standard
140
0.18
170
     2
 62
     0
 63
     7
283
     0
274
    -2
284
     1
 64
     0
275
    -2
285
     1
 65
     0
276
    -2
286
     1
 66
     0
277
    -2
287
     1
 67
     0
278
    -2
288
     1
 68
     0
279
    -2
289
     1
 69
     0
  7
Standard
140
0.25
170
     5
 62
     0
 63
     7
283
     0
274
    -2
284
     1
 64
     0
275
    -2
285
     1
 65
     0
276
    -2
286
     1
 66
     0
277
    -2
287
     1
 67
     0
278
    -2
288
     1
 68
     0
279
    -2
289
     1
 69
     0
  7
Standard
140
0.18
170
     5
 62
     0
 63
     7
283
     0
274
    -2
284
     1
 64
     0
275
    -2
285
     1
 65
     0
276
    -2
286
     1
 66
     0
277
    -2
287
     1
 67
     0
278
    -2
288
     1
 68
     0
279
    -2
289
     1
 69
     0
  0
VISUALSTYLE
  5
2F
102
{ACAD_XDICTIONARY
360
BE7
102
}
102
{ACAD_REACTORS
330
29
102
}
330
29
100
AcDbVisualStyle
  2
2dWireframe
 70
     4
 71
     0
 72
     2
 73
     0
 90
        0
 40
-0.6
 41
-30.0
 62
     5
 63
     7
 74
     1
 91
        4
 64
     7
 65
   257
 75
     1
175
     1
 42
1.0
 92
        0
 66
   257
 43
1.0
 76
     1
 77
     6
 78
     2
 67
     7
 79
     5
170
     0
171
     0
290
     0
174
     0
 93
        1
 44
0.0
173
     0
291
     0
 45
0.0
1001
ACAD
1000
AcDbSavedByObjectVersion
1070
     0
  0
VISUALSTYLE
  5
31
102
{ACAD_XDICTIONARY
360
BEB
102
}
102
{ACAD_REACTORS
330
29
102
}
330
29
100
AcDbVisualStyle
  2
3D Hidden
 70
     6
 71
     1
 72
     2
 73
     2
 90
        0
 40
-0.6
 41
-30.0
 62
     5
 63
     7
 74
     2
 91
        2
 64
     7
 65
   257
 75
     2
175
     1
 42
179.0
 92
        0
 66
   257
 43
1.0
 76
     1
 77
     6
 78
     2
 67
     7
 79
     3
170
     0
171
     0
290
     0
174
     0
 93
        1
 44
0.0
173
     0
291
     0
 45
0.0
1001
ACAD
1000
AcDbSavedByObjectVersion
1070
     0
  0
VISUALSTYLE
  5
30
102
{ACAD_XDICTIONARY
360
BE9
102
}
102
{ACAD_REACTORS
330
29
102
}
330
29
100
AcDbVisualStyle
  2
3dWireframe
 70
     5
 71
     0
 72
     2
 73
     0
 90
        0
 40
-0.6
 41
-30.0
 62
     5
 63
     7
 74
     1
 91
        4
 64
     7
 65
   257
 75
     1
175
     1
 42
1.0
 92
        0
 66
   257
 43
1.0
 76
     1
 77
     6
 78
     2
 67
     7
 79
     5
170
     0
171
     0
290
     0
174
     0
 93
        1
 44
0.0
173
     0
291
     0
 45
0.0
1001
ACAD
1000
AcDbSavedByObjectVersion
1070
     0
  0
VISUALSTYLE
  5
2E
102
{ACAD_XDICTIONARY
360
BE5
102
}
102
{ACAD_REACTORS
330
29
102
}
330
29
100
AcDbVisualStyle
  2
Basic
 70
     7
 71
     1
 72
     0
 73
     1
 90
        0
 40
-0.6
 41
-30.0
 62
     5
 63
     7
 74
     0
 91
        4
 64
     7
 65
   257
 75
     1
175
     1
 42
1.0
 92
        8
 66
     7
 43
1.0
 76
     1
 77
     6
 78
     2
 67
     7
 79
     5
170
     0
171
     0
290
     0
174
     0
 93
        1
 44
0.0
173
     0
291
     1
 45
0.0
1001
ACAD
1000
AcDbSavedByObjectVersion
1070
     0
  0
VISUALSTYLE
  5
35
102
{ACAD_XDICTIONARY
360
BF3
102
}
102
{ACAD_REACTORS
330
29
102
}
330
29
100
AcDbVisualStyle
  2
Brighten
 70
    12
 71
     2
 72
     2
 73
     0
 90
        0
 40
-0.6
 41
-30.0
 62
     5
 63
     7
 74
     1
 91
        4
 64
     7
 65
   257
 75
     1
175
     1
 42
1.0
 92
        8
 66
     7
 43
1.0
 76
     1
 77
     6
 78
     2
 67
     7
 79
     5
170
     0
171
     0
290
     0
174
     0
 93
        1
 44
50.0
173
     0
291
     1
 45
0.0
1001
ACAD
1000
AcDbSavedByObjectVersion
1070
     0
  0
VISUALSTYLE
  5
39
102
{ACAD_XDICTIONARY
360
BFB
102
}
102
{ACAD_REACTORS
330
29
102
}
330
29
100
AcDbVisualStyle
  2
ColorChange
 70
    16
 71
     2
 72
     2
 73
     3
 90
        0
 40
-0.6
 41
-30.0
 62
     5
 63
     8
 74
     1
 91
        4
 64
     7
 65
   257
 75
     1
175
     1
 42
1.0
 92
        8
 66
     8
 43
1.0
 76
     1
 77
     6
 78
     2
 67
     7
 79
     5
170
     0
171
     0
290
     0
174
     0
 93
        1
 44
0.0
173
     0
291
     1
 45
0.0
1001
ACAD
1000
AcDbSavedByObjectVersion
1070
     0
  0
VISUALSTYLE
  5
32
102
{ACAD_XDICTIONARY
360
BED
102
}
102
{ACAD_REACTORS
330
29
102
}
330
29
100
AcDbVisualStyle
  2
Conceptual
 70
     9
 71
     3
 72
     2
 73
     0
 90
        0
 40
-0.6
 41
-30.0
 62
     5
 63
     7
 74
     2
 91
        2
 64
     7
 65
   257
 75
     1
175
     1
 42
179.0
 92
        8
 66
     7
 43
1.0
 76
     1
 77
     6
 78
     2
 67
     7
 79
     3
170
     0
171
     0
290
     0
174
     0
 93
        1
 44
0.0
173
     0
291
     0
 45
0.0
1001
ACAD
1000
AcDbSavedByObjectVersion
1070
     0
  0
VISUALSTYLE
  5
34
102
{ACAD_XDICTIONARY
360
BF1
102
}
102
{ACAD_REACTORS
330
29
102
}
330
29
100
AcDbVisualStyle
  2
Dim
 70
    11
 71
     2
 72
     2
 73
     0
 90
        0
 40
-0.6
 41
-30.0
 62
     5
 63
     7
 74
     1
 91
        4
 64
     7
 65
   257
 75
     1
175
     1
 42
1.0
 92
        8
 66
     7
 43
1.0
 76
     1
 77
     6
 78
     2
 67
     7
 79
     5
170
     0
171
     0
290
     0
174
     0
 93
        1
 44
-50.0
173
     0
291
     1
 45
0.0
1001
ACAD
1000
AcDbSavedByObjectVersion
1070
     0
  0
VISUALSTYLE
  5
3C
102
{ACAD_XDICTIONARY
360
C01
102
}
102
{ACAD_REACTORS
330
29
102
}
330
29
100
AcDbVisualStyle
  2
EdgeColorOff
 70
    22
 71
     2
 72
     2
 73
     0
 90
        0
 40
-0.6
 41
-30.0
 62
     5
 63
     7
 74
     1
 91
        4
 64
     7
 65
   257
 75
     1
175
     1
 42
1.0
 92
        8
 66
     7
 43
1.0
 76
     1
 77
     6
 78
     2
 67
     7
 79
     5
170
     0
171
     0
290
     0
174
     0
 93
        1
 44
0.0
173
     0
291
     1
 45
0.0
1001
ACAD
1000
AcDbSavedByObjectVersion
1070
     0
  0
VISUALSTYLE
  5
38
102
{ACAD_XDICTIONARY
360
BF9
102
}
102
{ACAD_REACTORS
330
29
102
}
330
29
100
AcDbVisualStyle
  2
Facepattern
 70
    15
 71
     2
 72
     2
 73
     0
 90
        0
 40
-0.6
 41
-30.0
 62
     5
 63
     7
 74
     1
 91
        4
 64
     7
 65
   257
 75
     1
175
     1
 42
1.0
 92
        8
 66
     7
 43
1.0
 76
     1
 77
     6
 78
     2
 67
     7
 79
     5
170
     0
171
     0
290
     0
174
     0
 93
        1
 44
0.0
173
     0
291
     1
 45
0.0
1001
ACAD
1000
AcDbSavedByObjectVersion
1070
     0
  0
VISUALSTYLE
  5
2A
102
{ACAD_XDICTIONARY
360
BDD
102
}
102
{ACAD_REACTORS
330
29
102
}
330
29
100
AcDbVisualStyle
  2
Flat
 70
     0
 71
     2
 72
     1
 73
     1
 90
        2
 40
-0.6
 41
30.0
 62
     5
 63
     7
 74
     0
 91
        4
 64
     7
 65
   257
 75
     1
175
     1
 42
1.0
 92
        8
 66
     7
 43
1.0
 76
     1
 77
     6
 78
     2
 67
     7
 79
     5
170
     0
171
     0
290
     0
174
     0
 93
       13
 44
0.0
173
     0
291
     1
 45
0.0
1001
ACAD
1000
AcDbSavedByObjectVersion
1070
     0
  0
VISUALSTYLE
  5
2B
102
{ACAD_XDICTIONARY
360
BDF
102
}
102
{ACAD_REACTORS
330
29
102
}
330
29
100
AcDbVisualStyle
  2
FlatWithEdges
 70
     1
 71
     2
 72
     1
 73
     1
 90
        2
 40
-0.6
 41
30.0
 62
     5
 63
     7
 74
     1
 91
        4
 64
     7
 65
   257
 75
     1
175
     1
 42
1.0
 92
        0
 66
   257
 43
1.0
 76
     1
 77
     6
 78
     2
 67
     7
 79
     5
170
     0
171
     0
290
     0
174
     0
 93
       13
 44
0.0
173
     0
291
     1
 45
0.0
1001
ACAD
1000
AcDbSavedByObjectVersion
1070
     0
  0
VISUALSTYLE
  5
2C
102
{ACAD_XDICTIONARY
360
BE1
102
}
102
{ACAD_REACTORS
330
29
102
}
330
29
100
AcDbVisualStyle
  2
Gouraud
 70
     2
 71
     2
 72
     2
 73
     1
 90
        2
 40
-0.6
 41
30.0
 62
     5
 63
     7
 74
     0
 91
        4
 64
     7
 65
   257
 75
     1
175
     1
 42
1.0
 92
        0
 66
     7
 43
1.0
 76
     1
 77
     6
 78
     2
 67
     7
 79
     5
170
     0
171
     0
290
     0
174
     0
 93
       13
 44
0.0
173
     0
291
     1
 45
0.0
1001
ACAD
1000
AcDbSavedByObjectVersion
1070
     0
  0
VISUALSTYLE
  5
2D
102
{ACAD_XDICTIONARY
360
BE3
102
}
102
{ACAD_REACTORS
330
29
102
}
330
29
100
AcDbVisualStyle
  2
GouraudWithEdges
 70
     3
 71
     2
 72
     2
 73
     1
 90
        2
 40
-0.6
 41
30.0
 62
     5
 63
     7
 74
     1
 91
        4
 64
     7
 65
   257
 75
     1
175
     1
 42
1.0
 92
        0
 66
   257
 43
1.0
 76
     1
 77
     6
 78
     2
 67
     7
 79
     5
170
     0
171
     0
290
     0
174
     0
 93
       13
 44
0.0
173
     0
291
     1
 45
0.0
1001
ACAD
1000
AcDbSavedByObjectVersion
1070
     0
  0
VISUALSTYLE
  5
3A
102
{ACAD_XDICTIONARY
360
BFD
102
}
102
{ACAD_REACTORS
330
29
102
}
330
29
100
AcDbVisualStyle
  2
JitterOff
 70
    20
 71
     2
 72
     2
 73
     0
 90
        0
 40
-0.6
 41
-30.0
 62
     5
 63
     7
 74
     1
 91
        4
 64
     7
 65
   257
 75
     1
175
     1
 42
1.0
 92
       10
 66
     7
 43
1.0
 76
     1
 77
     6
 78
     2
 67
     7
 79
     5
170
     0
171
     0
290
     0
174
     0
 93
        1
 44
0.0
173
     0
291
     1
 45
0.0
1001
ACAD
1000
AcDbSavedByObjectVersion
1070
     0
  0
VISUALSTYLE
  5
37
102
{ACAD_XDICTIONARY
360
BF7
102
}
102
{ACAD_REACTORS
330
29
102
}
330
29
100
AcDbVisualStyle
  2
Linepattern
 70
    14
 71
     2
 72
     2
 73
     0
 90
        0
 40
-0.6
 41
-30.0
 62
     5
 63
     7
 74
     1
 91
        4
 64
     7
 65
   257
 75
     7
175
     7
 42
1.0
 92
        8
 66
     7
 43
1.0
 76
     1
 77
     6
 78
     2
 67
     7
 79
     5
170
     0
171
     0
290
     0
174
     0
 93
        1
 44
0.0
173
     0
291
     1
 45
0.0
1001
ACAD
1000
AcDbSavedByObjectVersion
1070
     0
  0
VISUALSTYLE
  5
3B
102
{ACAD_XDICTIONARY
360
BFF
102
}
102
{ACAD_REACTORS
330
29
102
}
330
29
100
AcDbVisualStyle
  2
OverhangOff
 70
    21
 71
     2
 72
     2
 73
     0
 90
        0
 40
-0.6
 41
-30.0
 62
     5
 63
     7
 74
     1
 91
        4
 64
     7
 65
   257
 75
     1
175
     1
 42
1.0
 92
        9
 66
     7
 43
1.0
 76
     1
 77
     6
 78
     2
 67
     7
 79
     5
170
     0
171
     0
290
     0
174
     0
 93
        1
 44
0.0
173
     0
291
     1
 45
0.0
1001
ACAD
1000
AcDbSavedByObjectVersion
1070
     0
  0
VISUALSTYLE
  5
33
102
{ACAD_XDICTIONARY
360
BEF
102
}
102
{ACAD_REACTORS
330
29
102
}
330
29
100
AcDbVisualStyle
  2
Realistic
 70
     8
 71
     2
 72
     2
 73
     0
 90
        0
 40
-0.6
 41
-30.0
 62
     5
 63
     7
 74
     1
 91
        0
 64
     7
 65
   257
 75
     1
175
     1
 42
1.0
 92
        8
 66
     8
 43
1.0
 76
     1
 77
     6
 78
     2
 67
     7
 79
     5
170
     0
171
     0
290
     0
174
     0
 93
       13
 44
0.0
173
     0
291
     0
 45
0.0
1001
ACAD
1000
AcDbSavedByObjectVersion
1070
     0
  0
VISUALSTYLE
  5
36
102
{ACAD_XDICTIONARY
360
BF5
102
}
102
{ACAD_REACTORS
330
29
102
}
330
29
100
AcDbVisualStyle
  2
Thicken
 70
    13
 71
     2
 72
     2
 73
     0
 90
        0
 40
-0.6
 41
-30.0
 62
     5
 63
     7
 74
     1
 91
        4
 64
     7
 65
   257
 75
     1
175
     1
 42
1.0
 92
       12
 66
     7
 43
1.0
 76
     1
 77
     6
 78
     2
 67
     7
 79
     5
170
     0
171
     0
290
     0
174
     0
 93
        1
 44
0.0
173
     0
291
     1
 45
0.0
1001
ACAD
1000
AcDbSavedByObjectVersion
1070
     0
  0
DICTIONARYVAR
  5
AEC
102
{ACAD_REACTORS
330
AE8
102
}
330
AE8
100
DictionaryVariables
280
     0
  1
1:1
  0
DICTIONARYVAR
  5
AEA
102
{ACAD_REACTORS
330
AE8
102
}
330
AE8
100
DictionaryVariables
280
     0
  1
STANDARD
  0
DICTIONARYVAR
  5
AE9
102
{ACAD_REACTORS
330
AE8
102
}
330
AE8
100
DictionaryVariables
280
     0
  1
STANDARD
  0
DICTIONARYVAR
  5
AF3
102
{ACAD_REACTORS
330
AE8
102
}
330
AE8
100
DictionaryVariables
280
     0
  1
1
  0
DICTIONARYVAR
  5
AF2
102
{ACAD_REACTORS
330
AE8
102
}
330
AE8
100
DictionaryVariables
280
     0
  1
1
  0
DICTIONARYVAR
  5
AF1
102
{ACAD_REACTORS
330
AE8
102
}
330
AE8
100
DictionaryVariables
280
     0
  1
0
  0
DICTIONARYVAR
  5
AEE
102
{ACAD_REACTORS
330
AE8
102
}
330
AE8
100
DictionaryVariables
280
     0
  1
0
  0
DICTIONARYVAR
  5
AEF
102
{ACAD_REACTORS
330
AE8
102
}
330
AE8
100
DictionaryVariables
280
     0
  1
0
  0
DICTIONARYVAR
  5
AED
102
{ACAD_REACTORS
330
AE8
102
}
330
AE8
100
DictionaryVariables
280
     0
  1
2
  0
DICTIONARYVAR
  5
AEB
102
{ACAD_REACTORS
330
AE8
102
}
330
AE8
100
DictionaryVariables
280
     0
  1
1
  0
DICTIONARYVAR
  5
AF0
102
{ACAD_REACTORS
330
AE8
102
}
330
AE8
100
DictionaryVariables
280
     0
  1
127
  0
DICTIONARYVAR
  5
B98
102
{ACAD_REACTORS
330
AE8
102
}
330
AE8
100
DictionaryVariables
280
     0
  1
2
  0
DICTIONARY
  5
B66
102
{ACAD_REACTORS
330
B5A
102
}
330
B5A
100
AcDbDictionary
281
     1
  0
DICTIONARY
  5
C04
330
76
100
AcDbDictionary
280
     1
281
     1
  3
ACAD_XREC_ROUNDTRIP
360
C05
  0
DICTIONARY
  5
C08
330
7E
100
AcDbDictionary
280
     1
281
     1
  3
ACAD_XREC_ROUNDTRIP
360
C09
  0
DICTIONARY
  5
C06
330
7A
100
AcDbDictionary
280
     1
281
     1
  3
ACAD_XREC_ROUNDTRIP
360
C07
  0
DICTIONARY
  5
1A
330
19
100
AcDbDictionary
280
     1
281
     1
  3
ACAD_XREC_ROUNDTRIP
360
BDB
  3
BUMPTILE
360
1C
  3
DIFFUSETILE
360
1B
  3
OPACITYTILE
360
1F
  3
REFLECTIONTILE
360
1E
  3
REFRACTIONTILE
360
20
  3
SPECULARTILE
360
1D
  0
DICTIONARY
  5
12
330
11
100
AcDbDictionary
280
     1
281
     1
  3
ACAD_XREC_ROUNDTRIP
360
BDA
  3
BUMPTILE
360
14
  3
DIFFUSETILE
360
13
  3
OPACITYTILE
360
17
  3
REFLECTIONTILE
360
16
  3
REFRACTIONTILE
360
18
  3
SPECULARTILE
360
15
  0
DICTIONARY
  5
22
330
21
100
AcDbDictionary
280
     1
281
     1
  3
ACAD_XREC_ROUNDTRIP
360
BDC
  3
BUMPTILE
360
24
  3
DIFFUSETILE
360
23
  3
OPACITYTILE
360
27
  3
REFLECTIONTILE
360
26
  3
REFRACTIONTILE
360
28
  3
SPECULARTILE
360
25
  0
DICTIONARY
  5
9F9
330
70
100
AcDbDictionary
280
     1
281
     1
  3
ACAD_ROUNDTRIP_2008_TABLESTYLE_CELLSTYLEMAP
360
B99
  3
ACAD_XREC_ROUNDTRIP
360
C03
  0
DICTIONARY
  5
BE7
330
2F
100
AcDbDictionary
280
     1
281
     1
  3
ACAD_XREC_ROUNDTRIP
360
BE8
  0
DICTIONARY
  5
BEB
330
31
100
AcDbDictionary
280
     1
281
     1
  3
ACAD_XREC_ROUNDTRIP
360
BEC
  0
DICTIONARY
  5
BE9
330
30
100
AcDbDictionary
280
     1
281
     1
  3
ACAD_XREC_ROUNDTRIP
360
BEA
  0
DICTIONARY
  5
BE5
330
2E
100
AcDbDictionary
280
     1
281
     1
  3
ACAD_XREC_ROUNDTRIP
360
BE6
  0
DICTIONARY
  5
BF3
330
35
100
AcDbDictionary
280
     1
281
     1
  3
ACAD_XREC_ROUNDTRIP
360
BF4
  0
DICTIONARY
  5
BFB
330
39
100
AcDbDictionary
280
     1
281
     1
  3
ACAD_XREC_ROUNDTRIP
360
BFC
  0
DICTIONARY
  5
BED
330
32
100
AcDbDictionary
280
     1
281
     1
  3
ACAD_XREC_ROUNDTRIP
360
BEE
  0
DICTIONARY
  5
BF1
330
34
100
AcDbDictionary
280
     1
281
     1
  3
ACAD_XREC_ROUNDTRIP
360
BF2
  0
DICTIONARY
  5
C01
330
3C
100
AcDbDictionary
280
     1
281
     1
  3
ACAD_XREC_ROUNDTRIP
360
C02
  0
DICTIONARY
  5
BF9
330
38
100
AcDbDictionary
280
     1
281
     1
  3
ACAD_XREC_ROUNDTRIP
360
BFA
  0
DICTIONARY
  5
BDD
330
2A
100
AcDbDictionary
280
     1
281
     1
  3
ACAD_XREC_ROUNDTRIP
360
BDE
  0
DICTIONARY
  5
BDF
330
2B
100
AcDbDictionary
280
     1
281
     1
  3
ACAD_XREC_ROUNDTRIP
360
BE0
  0
DICTIONARY
  5
BE1
330
2C
100
AcDbDictionary
280
     1
281
     1
  3
ACAD_XREC_ROUNDTRIP
360
BE2
  0
DICTIONARY
  5
BE3
330
2D
100
AcDbDictionary
280
     1
281
     1
  3
ACAD_XREC_ROUNDTRIP
360
BE4
  0
DICTIONARY
  5
BFD
330
3A
100
AcDbDictionary
280
     1
281
     1
  3
ACAD_XREC_ROUNDTRIP
360
BFE
  0
DICTIONARY
  5
BF7
330
37
100
AcDbDictionary
280
     1
281
     1
  3
ACAD_XREC_ROUNDTRIP
360
BF8
  0
DICTIONARY
  5
BFF
330
3B
100
AcDbDictionary
280
     1
281
     1
  3
ACAD_XREC_ROUNDTRIP
360
C00
  0
DICTIONARY
  5
BEF
330
33
100
AcDbDictionary
280
     1
281
     1
  3
ACAD_XREC_ROUNDTRIP
360
BF0
  0
DICTIONARY
  5
BF5
330
36
100
AcDbDictionary
280
     1
281
     1
  3
ACAD_XREC_ROUNDTRIP
360
BF6
  0
XRECORD
  5
C05
102
{ACAD_REACTORS
330
C04
102
}
330
C04
100
AcDbXrecord
280
     1
102
SHADEPLOT
 70
     0
102
SHADEPLOTRESLEVEL
 70
     2
102
SHADEPLOTCUSTOMDPI
 70
   300
  0
XRECORD
  5
C09
102
{ACAD_REACTORS
330
C08
102
}
330
C08
100
AcDbXrecord
280
     1
102
SHADEPLOT
 70
     0
102
SHADEPLOTRESLEVEL
 70
     2
102
SHADEPLOTCUSTOMDPI
 70
   300
  0
XRECORD
  5
C07
102
{ACAD_REACTORS
330
C06
102
}
330
C06
100
AcDbXrecord
280
     1
102
SHADEPLOT
 70
     0
102
SHADEPLOTRESLEVEL
 70
     2
102
SHADEPLOTCUSTOMDPI
 70
   300
  0
XRECORD
  5
BDB
102
{ACAD_REACTORS
330
1A
102
}
330
1A
100
AcDbXrecord
280
     1
102
MATERIAL
148
0.0
149
0.0
149
0.0
 93
        0
 94
      127
282
     0
 72
     0
 77
     0
171
     0
175
     0
179
     0
273
     0
  0
XRECORD
  5
1C
102
{ACAD_REACTORS
330
1A
102
}
330
1A
100
AcDbXrecord
280
     1
270
     1
271
     1
  0
XRECORD
  5
1B
102
{ACAD_REACTORS
330
1A
102
}
330
1A
100
AcDbXrecord
280
     1
270
     1
271
     1
  0
XRECORD
  5
1F
102
{ACAD_REACTORS
330
1A
102
}
330
1A
100
AcDbXrecord
280
     1
270
     1
271
     1
  0
XRECORD
  5
1E
102
{ACAD_REACTORS
330
1A
102
}
330
1A
100
AcDbXrecord
280
     1
270
     1
271
     1
  0
XRECORD
  5
20
102
{ACAD_REACTORS
330
1A
102
}
330
1A
100
AcDbXrecord
280
     1
270
     1
271
     1
  0
XRECORD
  5
1D
102
{ACAD_REACTORS
330
1A
102
}
330
1A
100
AcDbXrecord
280
     1
270
     1
271
     1
  0
XRECORD
  5
BDA
102
{ACAD_REACTORS
330
12
102
}
330
12
100
AcDbXrecord
280
     1
102
MATERIAL
148
0.0
149
0.0
149
0.0
 93
        0
 94
      127
282
     0
 72
     0
 77
     0
171
     0
175
     0
179
     0
273
     0
  0
XRECORD
  5
14
102
{ACAD_REACTORS
330
12
102
}
330
12
100
AcDbXrecord
280
     1
270
     1
271
     1
  0
XRECORD
  5
13
102
{ACAD_REACTORS
330
12
102
}
330
12
100
AcDbXrecord
280
     1
270
     1
271
     1
  0
XRECORD
  5
17
102
{ACAD_REACTORS
330
12
102
}
330
12
100
AcDbXrecord
280
     1
270
     1
271
     1
  0
XRECORD
  5
16
102
{ACAD_REACTORS
330
12
102
}
330
12
100
AcDbXrecord
280
     1
270
     1
271
     1
  0
XRECORD
  5
18
102
{ACAD_REACTORS
330
12
102
}
330
12
100
AcDbXrecord
280
     1
270
     1
271
     1
  0
XRECORD
  5
15
102
{ACAD_REACTORS
330
12
102
}
330
12
100
AcDbXrecord
280
     1
270
     1
271
     1
  0
XRECORD
  5
BDC
102
{ACAD_REACTORS
330
22
102
}
330
22
100
AcDbXrecord
280
     1
102
MATERIAL
148
0.0
149
0.0
149
0.0
 93
        0
 94
      127
282
     0
 72
     0
 77
     0
171
     0
175
     0
179
     0
273
     0
  0
XRECORD
  5
24
102
{ACAD_REACTORS
330
22
102
}
330
22
100
AcDbXrecord
280
     1
270
     1
271
     1
  0
XRECORD
  5
23
102
{ACAD_REACTORS
330
22
102
}
330
22
100
AcDbXrecord
280
     1
270
     1
271
     1
  0
XRECORD
  5
27
102
{ACAD_REACTORS
330
22
102
}
330
22
100
AcDbXrecord
280
     1
270
     1
271
     1
  0
XRECORD
  5
26
102
{ACAD_REACTORS
330
22
102
}
330
22
100
AcDbXrecord
280
     1
270
     1
271
     1
  0
XRECORD
  5
28
102
{ACAD_REACTORS
330
22
102
}
330
22
100
AcDbXrecord
280
     1
270
     1
271
     1
  0
XRECORD
  5
25
102
{ACAD_REACTORS
330
22
102
}
330
22
100
AcDbXrecord
280
     1
270
     1
271
     1
  0
CELLSTYLEMAP
  5
B99
102
{ACAD_REACTORS
330
9F9
102
}
330
9F9
100
AcDbCellStyleMap
 90
        3
300
CELLSTYLE
  1
TABLEFORMAT_BEGIN
 90
        5
170
     1
 91
        0
 92
    32768
 62
   257
 93
        1
300
CONTENTFORMAT
  1
CONTENTFORMAT_BEGIN
 90
        0
 91
        0
 92
      512
 93
        0
300

 40
0.0
140
1.0
 94
        5
 62
     0
340
60
144
0.25
309
CONTENTFORMAT_END
171
     0
 94
        0
309
TABLEFORMAT_END
  1
CELLSTYLE_BEGIN
 90
        1
 91
        1
300
_TITLE
309
CELLSTYLE_END
300
CELLSTYLE
  1
TABLEFORMAT_BEGIN
 90
        5
170
     1
 91
        0
 92
        0
 62
   257
 93
        1
300
CONTENTFORMAT
  1
CONTENTFORMAT_BEGIN
 90
        0
 91
        0
 92
      512
 93
        0
300

 40
0.0
140
1.0
 94
        5
 62
     0
340
60
144
0.18
309
CONTENTFORMAT_END
171
     0
 94
        0
309
TABLEFORMAT_END
  1
CELLSTYLE_BEGIN
 90
        2
 91
        1
300
_HEADER
309
CELLSTYLE_END
300
CELLSTYLE
  1
TABLEFORMAT_BEGIN
 90
        5
170
     1
 91
        0
 92
        0
 62
   257
 93
        1
300
CONTENTFORMAT
  1
CONTENTFORMAT_BEGIN
 90
        0
 91
        0
 92
      512
 93
        0
300

 40
0.0
140
1.0
 94
        2
 62
     0
340
60
144
0.18
309
CONTENTFORMAT_END
171
     0
 94
        0
309
TABLEFORMAT_END
  1
CELLSTYLE_BEGIN
 90
        3
 91
        2
300
_DATA
309
CELLSTYLE_END
  0
XRECORD
  5
C03
102
{ACAD_REACTORS
330
9F9
102
}
330
9F9
100
AcDbXrecord
280
     1
102
ACAD_ROUNDTRIP_PRE2007_TABLESTYLE
 90
      512
 91
        0
  1

 92
      512
 93
        0
  2

 94
      512
 95
        0
  3

  0
XRECORD
  5
BE8
102
{ACAD_REACTORS
330
BE7
102
}
330
BE7
100
AcDbXrecord
280
     1
102
RTVSPropertyOp0
 70
     1
102
RTVSPropertyOp1
 70
     1
102
RTVSPropertyOp2
 70
     1
102
RTVSPropertyOp3
 70
     1
102
RTVSPropertyOp4
 70
     1
102
RTVSPropertyOp5
 70
     1
102
RTVSPropertyOp6
 70
     1
102
RTVSPropertyOp7
 70
     1
102
RTVSPropertyOp8
 70
     1
102
RTVSPropertyOp9
 70
     1
102
RTVSPropertyOp10
 70
     1
102
RTVSPropertyOp11
 70
     1
102
RTVSPropertyOp12
 70
     1
102
RTVSPropertyOp13
 70
     1
102
RTVSPropertyOp14
 70
     1
102
RTVSPropertyOp15
 70
     1
102
RTVSPropertyOp16
 70
     1
102
RTVSPropertyOp17
 70
     1
102
RTVSPropertyOp18
 70
     1
102
RTVSPropertyOp19
 70
     1
102
RTVSPropertyOp20
 70
     1
102
RTVSPropertyOp21
 70
     1
102
RTVSPropertyOp22
 70
     1
102
RTVSPropertyOp23
 70
     1
102
RTVSPropertyOp24
 70
     1
102
RTVSPropertyOp25
 70
     1
102
RTVSPropertyOp26
 70
     1
102
RTVSPropertyOp27
 70
     1
  0
XRECORD
  5
BEC
102
{ACAD_REACTORS
330
BEB
102
}
330
BEB
100
AcDbXrecord
280
     1
102
RTVSPropertyOp0
 70
     1
102
RTVSPropertyOp1
 70
     1
102
RTVSPropertyOp2
 70
     1
102
RTVSPropertyOp3
 70
     1
102
RTVSPropertyOp4
 70
     1
102
RTVSPropertyOp5
 70
     1
102
RTVSPropertyOp6
 70
     1
102
RTVSPropertyOp7
 70
     1
102
RTVSPropertyOp8
 70
     1
102
RTVSPropertyOp9
 70
     1
102
RTVSPropertyOp10
 70
     1
102
RTVSPropertyOp11
 70
     1
102
RTVSPropertyOp12
 70
     1
102
RTVSPropertyOp13
 70
     1
102
RTVSPropertyOp14
 70
     1
102
RTVSPropertyOp15
 70
     1
102
RTVSPropertyOp16
 70
     1
102
RTVSPropertyOp17
 70
     1
102
RTVSPropertyOp18
 70
     1
102
RTVSPropertyOp19
 70
     1
102
RTVSPropertyOp20
 70
     1
102
RTVSPropertyOp21
 70
     1
102
RTVSPropertyOp22
 70
     1
102
RTVSPropertyOp23
 70
     1
102
RTVSPropertyOp24
 70
     1
102
RTVSPropertyOp25
 70
     1
102
RTVSPropertyOp26
 70
     1
102
RTVSPropertyOp27
 70
     1
  0
XRECORD
  5
BEA
102
{ACAD_REACTORS
330
BE9
102
}
330
BE9
100
AcDbXrecord
280
     1
102
RTVSPropertyOp0
 70
     1
102
RTVSPropertyOp1
 70
     1
102
RTVSPropertyOp2
 70
     1
102
RTVSPropertyOp3
 70
     1
102
RTVSPropertyOp4
 70
     1
102
RTVSPropertyOp5
 70
     1
102
RTVSPropertyOp6
 70
     1
102
RTVSPropertyOp7
 70
     1
102
RTVSPropertyOp8
 70
     1
102
RTVSPropertyOp9
 70
     1
102
RTVSPropertyOp10
 70
     1
102
RTVSPropertyOp11
 70
     1
102
RTVSPropertyOp12
 70
     1
102
RTVSPropertyOp13
 70
     1
102
RTVSPropertyOp14
 70
     1
102
RTVSPropertyOp15
 70
     1
102
RTVSPropertyOp16
 70
     1
102
RTVSPropertyOp17
 70
     1
102
RTVSPropertyOp18
 70
     1
102
RTVSPropertyOp19
 70
     1
102
RTVSPropertyOp20
 70
     1
102
RTVSPropertyOp21
 70
     1
102
RTVSPropertyOp22
 70
     1
102
RTVSPropertyOp23
 70
     1
102
RTVSPropertyOp24
 70
     1
102
RTVSPropertyOp25
 70
     1
102
RTVSPropertyOp26
 70
     1
102
RTVSPropertyOp27
 70
     1
  0
XRECORD
  5
BE6
102
{ACAD_REACTORS
330
BE5
102
}
330
BE5
100
AcDbXrecord
280
     1
102
RTVSPropertyOp0
 70
     1
102
RTVSPropertyOp1
 70
     1
102
RTVSPropertyOp2
 70
     1
102
RTVSPropertyOp3
 70
     1
102
RTVSPropertyOp4
 70
     1
102
RTVSPropertyOp5
 70
     1
102
RTVSPropertyOp6
 70
     1
102
RTVSPropertyOp7
 70
     1
102
RTVSPropertyOp8
 70
     1
102
RTVSPropertyOp9
 70
     1
102
RTVSPropertyOp10
 70
     1
102
RTVSPropertyOp11
 70
     1
102
RTVSPropertyOp12
 70
     1
102
RTVSPropertyOp13
 70
     1
102
RTVSPropertyOp14
 70
     1
102
RTVSPropertyOp15
 70
     1
102
RTVSPropertyOp16
 70
     1
102
RTVSPropertyOp17
 70
     1
102
RTVSPropertyOp18
 70
     1
102
RTVSPropertyOp19
 70
     1
102
RTVSPropertyOp20
 70
     1
102
RTVSPropertyOp21
 70
     1
102
RTVSPropertyOp22
 70
     1
102
RTVSPropertyOp23
 70
     1
102
RTVSPropertyOp24
 70
     1
102
RTVSPropertyOp25
 70
     1
102
RTVSPropertyOp26
 70
     1
102
RTVSPropertyOp27
 70
     1
  0
XRECORD
  5
BF4
102
{ACAD_REACTORS
330
BF3
102
}
330
BF3
100
AcDbXrecord
280
     1
102
RTVSPropertyOp0
 70
     1
102
RTVSPropertyOp1
 70
     1
102
RTVSPropertyOp2
 70
     1
102
RTVSPropertyOp3
 70
     1
102
RTVSPropertyOp4
 70
     1
102
RTVSPropertyOp5
 70
     1
102
RTVSPropertyOp6
 70
     1
102
RTVSPropertyOp7
 70
     1
102
RTVSPropertyOp8
 70
     1
102
RTVSPropertyOp9
 70
     1
102
RTVSPropertyOp10
 70
     1
102
RTVSPropertyOp11
 70
     1
102
RTVSPropertyOp12
 70
     1
102
RTVSPropertyOp13
 70
     1
102
RTVSPropertyOp14
 70
     1
102
RTVSPropertyOp15
 70
     1
102
RTVSPropertyOp16
 70
     1
102
RTVSPropertyOp17
 70
     1
102
RTVSPropertyOp18
 70
     1
102
RTVSPropertyOp19
 70
     1
102
RTVSPropertyOp20
 70
     1
102
RTVSPropertyOp21
 70
     1
102
RTVSPropertyOp22
 70
     1
102
RTVSPropertyOp23
 70
     1
102
RTVSPropertyOp24
 70
     1
102
RTVSPropertyOp25
 70
     1
102
RTVSPropertyOp26
 70
     1
102
RTVSPropertyOp27
 70
     1
  0
XRECORD
  5
BFC
102
{ACAD_REACTORS
330
BFB
102
}
330
BFB
100
AcDbXrecord
280
     1
102
RTVSPropertyOp0
 70
     1
102
RTVSPropertyOp1
 70
     1
102
RTVSPropertyOp2
 70
     1
102
RTVSPropertyOp3
 70
     1
102
RTVSPropertyOp4
 70
     1
102
RTVSPropertyOp5
 70
     1
102
RTVSPropertyOp6
 70
     1
102
RTVSPropertyOp7
 70
     1
102
RTVSPropertyOp8
 70
     1
102
RTVSPropertyOp9
 70
     1
102
RTVSPropertyOp10
 70
     1
102
RTVSPropertyOp11
 70
     1
102
RTVSPropertyOp12
 70
     1
102
RTVSPropertyOp13
 70
     1
102
RTVSPropertyOp14
 70
     1
102
RTVSPropertyOp15
 70
     1
102
RTVSPropertyOp16
 70
     1
102
RTVSPropertyOp17
 70
     1
102
RTVSPropertyOp18
 70
     1
102
RTVSPropertyOp19
 70
     1
102
RTVSPropertyOp20
 70
     1
102
RTVSPropertyOp21
 70
     1
102
RTVSPropertyOp22
 70
     1
102
RTVSPropertyOp23
 70
     1
102
RTVSPropertyOp24
 70
     1
102
RTVSPropertyOp25
 70
     1
102
RTVSPropertyOp26
 70
     1
102
RTVSPropertyOp27
 70
     1
  0
XRECORD
  5
BEE
102
{ACAD_REACTORS
330
BED
102
}
330
BED
100
AcDbXrecord
280
     1
102
RTVSPropertyOp0
 70
     1
102
RTVSPropertyOp1
 70
     1
102
RTVSPropertyOp2
 70
     1
102
RTVSPropertyOp3
 70
     1
102
RTVSPropertyOp4
 70
     1
102
RTVSPropertyOp5
 70
     1
102
RTVSPropertyOp6
 70
     1
102
RTVSPropertyOp7
 70
     1
102
RTVSPropertyOp8
 70
     1
102
RTVSPropertyOp9
 70
     1
102
RTVSPropertyOp10
 70
     1
102
RTVSPropertyOp11
 70
     1
102
RTVSPropertyOp12
 70
     1
102
RTVSPropertyOp13
 70
     1
102
RTVSPropertyOp14
 70
     1
102
RTVSPropertyOp15
 70
     1
102
RTVSPropertyOp16
 70
     1
102
RTVSPropertyOp17
 70
     1
102
RTVSPropertyOp18
 70
     1
102
RTVSPropertyOp19
 70
     1
102
RTVSPropertyOp20
 70
     1
102
RTVSPropertyOp21
 70
     1
102
RTVSPropertyOp22
 70
     1
102
RTVSPropertyOp23
 70
     1
102
RTVSPropertyOp24
 70
     1
102
RTVSPropertyOp25
 70
     1
102
RTVSPropertyOp26
 70
     1
102
RTVSPropertyOp27
 70
     1
  0
XRECORD
  5
BF2
102
{ACAD_REACTORS
330
BF1
102
}
330
BF1
100
AcDbXrecord
280
     1
102
RTVSPropertyOp0
 70
     1
102
RTVSPropertyOp1
 70
     1
102
RTVSPropertyOp2
 70
     1
102
RTVSPropertyOp3
 70
     1
102
RTVSPropertyOp4
 70
     1
102
RTVSPropertyOp5
 70
     1
102
RTVSPropertyOp6
 70
     1
102
RTVSPropertyOp7
 70
     1
102
RTVSPropertyOp8
 70
     1
102
RTVSPropertyOp9
 70
     1
102
RTVSPropertyOp10
 70
     1
102
RTVSPropertyOp11
 70
     1
102
RTVSPropertyOp12
 70
     1
102
RTVSPropertyOp13
 70
     1
102
RTVSPropertyOp14
 70
     1
102
RTVSPropertyOp15
 70
     1
102
RTVSPropertyOp16
 70
     1
102
RTVSPropertyOp17
 70
     1
102
RTVSPropertyOp18
 70
     1
102
RTVSPropertyOp19
 70
     1
102
RTVSPropertyOp20
 70
     1
102
RTVSPropertyOp21
 70
     1
102
RTVSPropertyOp22
 70
     1
102
RTVSPropertyOp23
 70
     1
102
RTVSPropertyOp24
 70
     1
102
RTVSPropertyOp25
 70
     1
102
RTVSPropertyOp26
 70
     1
102
RTVSPropertyOp27
 70
     1
  0
XRECORD
  5
C02
102
{ACAD_REACTORS
330
C01
102
}
330
C01
100
AcDbXrecord
280
     1
102
RTVSPropertyOp0
 70
     0
102
RTVSPropertyOp1
 70
     0
102
RTVSPropertyOp2
 70
     0
102
RTVSPropertyOp3
 70
     0
102
RTVSPropertyOp4
 70
     0
102
RTVSPropertyOp5
 70
     0
102
RTVSPropertyOp6
 70
     0
102
RTVSPropertyOp7
 70
     0
102
RTVSPropertyOp8
 70
     0
102
RTVSPropertyOp9
 70
     0
102
RTVSPropertyOp10
 70
     0
102
RTVSPropertyOp11
 70
     0
102
RTVSPropertyOp12
 70
     0
102
RTVSPropertyOp13
 70
     0
102
RTVSPropertyOp14
 70
     2
102
RTVSPropertyOp15
 70
     0
102
RTVSPropertyOp16
 70
     0
102
RTVSPropertyOp17
 70
     0
102
RTVSPropertyOp18
 70
     0
102
RTVSPropertyOp19
 70
     0
102
RTVSPropertyOp20
 70
     0
102
RTVSPropertyOp21
 70
     0
102
RTVSPropertyOp22
 70
     0
102
RTVSPropertyOp23
 70
     0
102
RTVSPropertyOp24
 70
     0
102
RTVSPropertyOp25
 70
     0
102
RTVSPropertyOp26
 70
     0
102
RTVSPropertyOp27
 70
     0
  0
XRECORD
  5
BFA
102
{ACAD_REACTORS
330
BF9
102
}
330
BF9
100
AcDbXrecord
280
     1
102
RTVSPropertyOp0
 70
     1
102
RTVSPropertyOp1
 70
     1
102
RTVSPropertyOp2
 70
     1
102
RTVSPropertyOp3
 70
     1
102
RTVSPropertyOp4
 70
     1
102
RTVSPropertyOp5
 70
     1
102
RTVSPropertyOp6
 70
     1
102
RTVSPropertyOp7
 70
     1
102
RTVSPropertyOp8
 70
     1
102
RTVSPropertyOp9
 70
     1
102
RTVSPropertyOp10
 70
     1
102
RTVSPropertyOp11
 70
     1
102
RTVSPropertyOp12
 70
     1
102
RTVSPropertyOp13
 70
     1
102
RTVSPropertyOp14
 70
     1
102
RTVSPropertyOp15
 70
     1
102
RTVSPropertyOp16
 70
     1
102
RTVSPropertyOp17
 70
     1
102
RTVSPropertyOp18
 70
     1
102
RTVSPropertyOp19
 70
     1
102
RTVSPropertyOp20
 70
     1
102
RTVSPropertyOp21
 70
     1
102
RTVSPropertyOp22
 70
     1
102
RTVSPropertyOp23
 70
     1
102
RTVSPropertyOp24
 70
     1
102
RTVSPropertyOp25
 70
     1
102
RTVSPropertyOp26
 70
     1
102
RTVSPropertyOp27
 70
     1
  0
XRECORD
  5
BDE
102
{ACAD_REACTORS
330
BDD
102
}
330
BDD
100
AcDbXrecord
280
     1
102
RTVSPropertyOp0
 70
     1
102
RTVSPropertyOp1
 70
     1
102
RTVSPropertyOp2
 70
     1
102
RTVSPropertyOp3
 70
     1
102
RTVSPropertyOp4
 70
     1
102
RTVSPropertyOp5
 70
     1
102
RTVSPropertyOp6
 70
     1
102
RTVSPropertyOp7
 70
     1
102
RTVSPropertyOp8
 70
     1
102
RTVSPropertyOp9
 70
     1
102
RTVSPropertyOp10
 70
     1
102
RTVSPropertyOp11
 70
     1
102
RTVSPropertyOp12
 70
     1
102
RTVSPropertyOp13
 70
     1
102
RTVSPropertyOp14
 70
     1
102
RTVSPropertyOp15
 70
     1
102
RTVSPropertyOp16
 70
     1
102
RTVSPropertyOp17
 70
     1
102
RTVSPropertyOp18
 70
     1
102
RTVSPropertyOp19
 70
     1
102
RTVSPropertyOp20
 70
     1
102
RTVSPropertyOp21
 70
     1
102
RTVSPropertyOp22
 70
     1
102
RTVSPropertyOp23
 70
     1
102
RTVSPropertyOp24
 70
     1
102
RTVSPropertyOp25
 70
     1
102
RTVSPropertyOp26
 70
     1
102
RTVSPropertyOp27
 70
     1
  0
XRECORD
  5
BE0
102
{ACAD_REACTORS
330
BDF
102
}
330
BDF
100
AcDbXrecord
280
     1
102
RTVSPropertyOp0
 70
     1
102
RTVSPropertyOp1
 70
     1
102
RTVSPropertyOp2
 70
     1
102
RTVSPropertyOp3
 70
     1
102
RTVSPropertyOp4
 70
     1
102
RTVSPropertyOp5
 70
     1
102
RTVSPropertyOp6
 70
     1
102
RTVSPropertyOp7
 70
     1
102
RTVSPropertyOp8
 70
     1
102
RTVSPropertyOp9
 70
     1
102
RTVSPropertyOp10
 70
     1
102
RTVSPropertyOp11
 70
     1
102
RTVSPropertyOp12
 70
     1
102
RTVSPropertyOp13
 70
     1
102
RTVSPropertyOp14
 70
     1
102
RTVSPropertyOp15
 70
     1
102
RTVSPropertyOp16
 70
     1
102
RTVSPropertyOp17
 70
     1
102
RTVSPropertyOp18
 70
     1
102
RTVSPropertyOp19
 70
     1
102
RTVSPropertyOp20
 70
     1
102
RTVSPropertyOp21
 70
     1
102
RTVSPropertyOp22
 70
     1
102
RTVSPropertyOp23
 70
     1
102
RTVSPropertyOp24
 70
     1
102
RTVSPropertyOp25
 70
     1
102
RTVSPropertyOp26
 70
     1
102
RTVSPropertyOp27
 70
     1
  0
XRECORD
  5
BE2
102
{ACAD_REACTORS
330
BE1
102
}
330
BE1
100
AcDbXrecord
280
     1
102
RTVSPropertyOp0
 70
     1
102
RTVSPropertyOp1
 70
     1
102
RTVSPropertyOp2
 70
     1
102
RTVSPropertyOp3
 70
     1
102
RTVSPropertyOp4
 70
     1
102
RTVSPropertyOp5
 70
     1
102
RTVSPropertyOp6
 70
     1
102
RTVSPropertyOp7
 70
     1
102
RTVSPropertyOp8
 70
     1
102
RTVSPropertyOp9
 70
     1
102
RTVSPropertyOp10
 70
     1
102
RTVSPropertyOp11
 70
     1
102
RTVSPropertyOp12
 70
     1
102
RTVSPropertyOp13
 70
     1
102
RTVSPropertyOp14
 70
     1
102
RTVSPropertyOp15
 70
     1
102
RTVSPropertyOp16
 70
     1
102
RTVSPropertyOp17
 70
     1
102
RTVSPropertyOp18
 70
     1
102
RTVSPropertyOp19
 70
     1
102
RTVSPropertyOp20
 70
     1
102
RTVSPropertyOp21
 70
     1
102
RTVSPropertyOp22
 70
     1
102
RTVSPropertyOp23
 70
     1
102
RTVSPropertyOp24
 70
     1
102
RTVSPropertyOp25
 70
     1
102
RTVSPropertyOp26
 70
     1
102
RTVSPropertyOp27
 70
     1
  0
XRECORD
  5
BE4
102
{ACAD_REACTORS
330
BE3
102
}
330
BE3
100
AcDbXrecord
280
     1
102
RTVSPropertyOp0
 70
     1
102
RTVSPropertyOp1
 70
     1
102
RTVSPropertyOp2
 70
     1
102
RTVSPropertyOp3
 70
     1
102
RTVSPropertyOp4
 70
     1
102
RTVSPropertyOp5
 70
     1
102
RTVSPropertyOp6
 70
     1
102
RTVSPropertyOp7
 70
     1
102
RTVSPropertyOp8
 70
     1
102
RTVSPropertyOp9
 70
     1
102
RTVSPropertyOp10
 70
     1
102
RTVSPropertyOp11
 70
     1
102
RTVSPropertyOp12
 70
     1
102
RTVSPropertyOp13
 70
     1
102
RTVSPropertyOp14
 70
     1
102
RTVSPropertyOp15
 70
     1
102
RTVSPropertyOp16
 70
     1
102
RTVSPropertyOp17
 70
     1
102
RTVSPropertyOp18
 70
     1
102
RTVSPropertyOp19
 70
     1
102
RTVSPropertyOp20
 70
     1
102
RTVSPropertyOp21
 70
     1
102
RTVSPropertyOp22
 70
     1
102
RTVSPropertyOp23
 70
     1
102
RTVSPropertyOp24
 70
     1
102
RTVSPropertyOp25
 70
     1
102
RTVSPropertyOp26
 70
     1
102
RTVSPropertyOp27
 70
     1
  0
XRECORD
  5
BFE
102
{ACAD_REACTORS
330
BFD
102
}
330
BFD
100
AcDbXrecord
280
     1
102
RTVSPropertyOp0
 70
     0
102
RTVSPropertyOp1
 70
     0
102
RTVSPropertyOp2
 70
     0
102
RTVSPropertyOp3
 70
     0
102
RTVSPropertyOp4
 70
     0
102
RTVSPropertyOp5
 70
     0
102
RTVSPropertyOp6
 70
     0
102
RTVSPropertyOp7
 70
     0
102
RTVSPropertyOp8
 70
     0
102
RTVSPropertyOp9
 70
     0
102
RTVSPropertyOp10
 70
     0
102
RTVSPropertyOp11
 70
     0
102
RTVSPropertyOp12
 70
     0
102
RTVSPropertyOp13
 70
     0
102
RTVSPropertyOp14
 70
     2
102
RTVSPropertyOp15
 70
     0
102
RTVSPropertyOp16
 70
     0
102
RTVSPropertyOp17
 70
     0
102
RTVSPropertyOp18
 70
     0
102
RTVSPropertyOp19
 70
     0
102
RTVSPropertyOp20
 70
     0
102
RTVSPropertyOp21
 70
     0
102
RTVSPropertyOp22
 70
     0
102
RTVSPropertyOp23
 70
     0
102
RTVSPropertyOp24
 70
     0
102
RTVSPropertyOp25
 70
     0
102
RTVSPropertyOp26
 70
     0
102
RTVSPropertyOp27
 70
     0
  0
XRECORD
  5
BF8
102
{ACAD_REACTORS
330
BF7
102
}
330
BF7
100
AcDbXrecord
280
     1
102
RTVSPropertyOp0
 70
     1
102
RTVSPropertyOp1
 70
     1
102
RTVSPropertyOp2
 70
     1
102
RTVSPropertyOp3
 70
     1
102
RTVSPropertyOp4
 70
     1
102
RTVSPropertyOp5
 70
     1
102
RTVSPropertyOp6
 70
     1
102
RTVSPropertyOp7
 70
     1
102
RTVSPropertyOp8
 70
     1
102
RTVSPropertyOp9
 70
     1
102
RTVSPropertyOp10
 70
     1
102
RTVSPropertyOp11
 70
     1
102
RTVSPropertyOp12
 70
     1
102
RTVSPropertyOp13
 70
     1
102
RTVSPropertyOp14
 70
     1
102
RTVSPropertyOp15
 70
     1
102
RTVSPropertyOp16
 70
     1
102
RTVSPropertyOp17
 70
     1
102
RTVSPropertyOp18
 70
     1
102
RTVSPropertyOp19
 70
     1
102
RTVSPropertyOp20
 70
     1
102
RTVSPropertyOp21
 70
     1
102
RTVSPropertyOp22
 70
     1
102
RTVSPropertyOp23
 70
     1
102
RTVSPropertyOp24
 70
     1
102
RTVSPropertyOp25
 70
     1
102
RTVSPropertyOp26
 70
     1
102
RTVSPropertyOp27
 70
     1
  0
XRECORD
  5
C00
102
{ACAD_REACTORS
330
BFF
102
}
330
BFF
100
AcDbXrecord
280
     1
102
RTVSPropertyOp0
 70
     0
102
RTVSPropertyOp1
 70
     0
102
RTVSPropertyOp2
 70
     0
102
RTVSPropertyOp3
 70
     0
102
RTVSPropertyOp4
 70
     0
102
RTVSPropertyOp5
 70
     0
102
RTVSPropertyOp6
 70
     0
102
RTVSPropertyOp7
 70
     0
102
RTVSPropertyOp8
 70
     0
102
RTVSPropertyOp9
 70
     0
102
RTVSPropertyOp10
 70
     0
102
RTVSPropertyOp11
 70
     0
102
RTVSPropertyOp12
 70
     0
102
RTVSPropertyOp13
 70
     0
102
RTVSPropertyOp14
 70
     2
102
RTVSPropertyOp15
 70
     0
102
RTVSPropertyOp16
 70
     0
102
RTVSPropertyOp17
 70
     0
102
RTVSPropertyOp18
 70
     0
102
RTVSPropertyOp19
 70
     0
102
RTVSPropertyOp20
 70
     0
102
RTVSPropertyOp21
 70
     0
102
RTVSPropertyOp22
 70
     0
102
RTVSPropertyOp23
 70
     0
102
RTVSPropertyOp24
 70
     0
102
RTVSPropertyOp25
 70
     0
102
RTVSPropertyOp26
 70
     0
102
RTVSPropertyOp27
 70
     0
  0
XRECORD
  5
BF0
102
{ACAD_REACTORS
330
BEF
102
}
330
BEF
100
AcDbXrecord
280
     1
102
RTVSPropertyOp0
 70
     1
102
RTVSPropertyOp1
 70
     1
102
RTVSPropertyOp2
 70
     1
102
RTVSPropertyOp3
 70
     1
102
RTVSPropertyOp4
 70
     1
102
RTVSPropertyOp5
 70
     1
102
RTVSPropertyOp6
 70
     1
102
RTVSPropertyOp7
 70
     1
102
RTVSPropertyOp8
 70
     1
102
RTVSPropertyOp9
 70
     1
102
RTVSPropertyOp10
 70
     1
102
RTVSPropertyOp11
 70
     1
102
RTVSPropertyOp12
 70
     1
102
RTVSPropertyOp13
 70
     1
102
RTVSPropertyOp14
 70
     1
102
RTVSPropertyOp15
 70
     1
102
RTVSPropertyOp16
 70
     1
102
RTVSPropertyOp17
 70
     1
102
RTVSPropertyOp18
 70
     1
102
RTVSPropertyOp19
 70
     1
102
RTVSPropertyOp20
 70
     1
102
RTVSPropertyOp21
 70
     1
102
RTVSPropertyOp22
 70
     1
102
RTVSPropertyOp23
 70
     1
102
RTVSPropertyOp24
 70
     1
102
RTVSPropertyOp25
 70
     1
102
RTVSPropertyOp26
 70
     1
102
RTVSPropertyOp27
 70
     1
  0
XRECORD
  5
BF6
102
{ACAD_REACTORS
330
BF5
102
}
330
BF5
100
AcDbXrecord
280
     1
102
RTVSPropertyOp0
 70
     1
102
RTVSPropertyOp1
 70
     1
102
RTVSPropertyOp2
 70
     1
102
RTVSPropertyOp3
 70
     1
102
RTVSPropertyOp4
 70
     1
102
RTVSPropertyOp5
 70
     1
102
RTVSPropertyOp6
 70
     1
102
RTVSPropertyOp7
 70
     1
102
RTVSPropertyOp8
 70
     1
102
RTVSPropertyOp9
 70
     1
102
RTVSPropertyOp10
 70
     1
102
RTVSPropertyOp11
 70
     1
102
RTVSPropertyOp12
 70
     1
102
RTVSPropertyOp13
 70
     1
102
RTVSPropertyOp14
 70
     1
102
RTVSPropertyOp15
 70
     1
102
RTVSPropertyOp16
 70
     1
102
RTVSPropertyOp17
 70
     1
102
RTVSPropertyOp18
 70
     1
102
RTVSPropertyOp19
 70
     1
102
RTVSPropertyOp20
 70
     1
102
RTVSPropertyOp21
 70
     1
102
RTVSPropertyOp22
 70
     1
102
RTVSPropertyOp23
 70
     1
102
RTVSPropertyOp24
 70
     1
102
RTVSPropertyOp25
 70
     1
102
RTVSPropertyOp26
 70
     1
102
RTVSPropertyOp27
 70
     1
  0
ENDSEC
  0
EOF
