  0
SECTION
  2
HEADER
  9
$ACADVER
  1
AC1015
  9
$ACADMAINTVER
 70
    20
  9
$DWGCODEPAGE
  3
ANSI_1252
  9
$INSBASE
 10
0.0
 20
0.0
 30
0.0
  9
$EXTMIN
 10
16.01852443304207
 20
61.16425365182135
 30
-0.0015258207003583
  9
$EXTMAX
 10
83.19763205502841
 20
126.6722949370419
 30
0.0000000349246037
  9
$LIMMIN
 10
0.0
 20
0.0
  9
$LIMMAX
 10
105.0
 20
148.5
  9
$ORTHOMODE
 70
     0
  9
$REGENMODE
 70
     1
  9
$FILLMODE
 70
     1
  9
$QTEXTMODE
 70
     0
  9
$MIRRTEXT
 70
     0
  9
$LTSCALE
 40
0.5
  9
$ATTMODE
 70
     1
  9
$TEXTSIZE
 40
0.2
  9
$TRACEWID
 40
0.05
  9
$TEXTSTYLE
  7
Standard
  9
$CLAYER
  8
0
  9
$CELTYPE
  6
ByLayer
  9
$CECOLOR
 62
   256
  9
$CELTSCALE
 40
1.0
  9
$DISPSILH
 70
     0
  9
$DIMSCALE
 40
1.0
  9
$DIMASZ
 40
1.799999999999999
  9
$DIMEXO
 40
0.0625
  9
$DIMDLI
 40
0.38
  9
$DIMRND
 40
0.0
  9
$DIMDLE
 40
0.0
  9
$DIMEXE
 40
0.18
  9
$DIMTP
 40
0.0
  9
$DIMTM
 40
0.0
  9
$DIMTXT
 40
0.3499999940395355
  9
$DIMCEN
 40
0.09
  9
$DIMTSZ
 40
0.0
  9
$DIMTOL
 70
     0
  9
$DIMLIM
 70
     0
  9
$DIMTIH
 70
     1
  9
$DIMTOH
 70
     1
  9
$DIMSE1
 70
     0
  9
$DIMSE2
 70
     0
  9
$DIMTAD
 70
     0
  9
$DIMZIN
 70
     0
  9
$DIMBLK
  1

  9
$DIMASO
 70
     1
  9
$DIMSHO
 70
     1
  9
$DIMPOST
  1

  9
$DIMAPOST
  1

  9
$DIMALT
 70
     0
  9
$DIMALTD
 70
     2
  9
$DIMALTF
 40
25.4
  9
$DIMLFAC
 40
1.0
  9
$DIMTOFL
 70
     0
  9
$DIMTVP
 40
0.0
  9
$DIMTIX
 70
     0
  9
$DIMSOXD
 70
     0
  9
$DIMSAH
 70
     0
  9
$DIMBLK1
  1

  9
$DIMBLK2
  1

  9
$DIMSTYLE
  2
Standard
  9
$DIMCLRD
 70
     0
  9
$DIMCLRE
 70
     0
  9
$DIMCLRT
 70
     0
  9
$DIMTFAC
 40
1.0
  9
$DIMGAP
 40
0.09
  9
$DIMJUST
 70
     0
  9
$DIMSD1
 70
     0
  9
$DIMSD2
 70
     0
  9
$DIMTOLJ
 70
     1
  9
$DIMTZIN
 70
     0
  9
$DIMALTZ
 70
     0
  9
$DIMALTTZ
 70
     0
  9
$DIMUPT
 70
     0
  9
$DIMDEC
 70
     4
  9
$DIMTDEC
 70
     4
  9
$DIMALTU
 70
     2
  9
$DIMALTTD
 70
     2
  9
$DIMTXSTY
  7
Standard
  9
$DIMAUNIT
 70
     0
  9
$DIMADEC
 70
     0
  9
$DIMALTRND
 40
0.0
  9
$DIMAZIN
 70
     0
  9
$DIMDSEP
 70
    46
  9
$DIMATFIT
 70
     3
  9
$DIMFRAC
 70
     0
  9
$DIMLDRBLK
  1

  9
$DIMLUNIT
 70
     2
  9
$DIMLWD
 70
    -2
  9
$DIMLWE
 70
    -2
  9
$DIMTMOVE
 70
     0
  9
$LUNITS
 70
     2
  9
$LUPREC
 70
     4
  9
$SKETCHINC
 40
0.1
  9
$FILLETRAD
 40
0.0
  9
$AUNITS
 70
     0
  9
$AUPREC
 70
     0
  9
$MENU
  1
.
  9
$ELEVATION
 40
0.0
  9
$PELEVATION
 40
0.0
  9
$THICKNESS
 40
0.0
  9
$LIMCHECK
 70
     0
  9
$CHAMFERA
 40
0.0
  9
$CHAMFERB
 40
0.0
  9
$CHAMFERC
 40
0.0
  9
$CHAMFERD
 40
0.0
  9
$SKPOLY
 70
     0
  9
$TDCREATE
 40
2456105.622493982
  9
$TDUCREATE
 40
2456105.539160648
  9
$TDUPDATE
 40
2456105.645073495
  9
$TDUUPDATE
 40
2456105.561740162
  9
$TDINDWG
 40
0.0004089005
  9
$TDUSRTIMER
 40
0.0004089005
  9
$USRTIMER
 70
     1
  9
$ANGBASE
 50
0.0
  9
$ANGDIR
 70
     0
  9
$PDMODE
 70
     0
  9
$PDSIZE
 40
0.0
  9
$PLINEWID
 40
0.0
  9
$SPLFRAME
 70
     0
  9
$SPLINETYPE
 70
     6
  9
$SPLINESEGS
 70
     8
  9
$HANDSEED
  5
AD1
  9
$SURFTAB1
 70
     6
  9
$SURFTAB2
 70
     6
  9
$SURFTYPE
 70
     6
  9
$SURFU
 70
     6
  9
$SURFV
 70
     6
  9
$UCSBASE
  2

  9
$UCSNAME
  2

  9
$UCSORG
 10
0.0
 20
0.0
 30
0.0
  9
$UCSXDIR
 10
1.0
 20
0.0
 30
0.0
  9
$UCSYDIR
 10
0.0
 20
1.0
 30
0.0
  9
$UCSORTHOREF
  2

  9
$UCSORTHOVIEW
 70
     0
  9
$UCSORGTOP
 10
0.0
 20
0.0
 30
0.0
  9
$UCSORGBOTTOM
 10
0.0
 20
0.0
 30
0.0
  9
$UCSORGLEFT
 10
0.0
 20
0.0
 30
0.0
  9
$UCSORGRIGHT
 10
0.0
 20
0.0
 30
0.0
  9
$UCSORGFRONT
 10
0.0
 20
0.0
 30
0.0
  9
$UCSORGBACK
 10
0.0
 20
0.0
 30
0.0
  9
$PUCSBASE
  2

  9
$PUCSNAME
  2

  9
$PUCSORG
 10
0.0
 20
0.0
 30
0.0
  9
$PUCSXDIR
 10
1.0
 20
0.0
 30
0.0
  9
$PUCSYDIR
 10
0.0
 20
1.0
 30
0.0
  9
$PUCSORTHOREF
  2

  9
$PUCSORTHOVIEW
 70
     0
  9
$PUCSORGTOP
 10
0.0
 20
0.0
 30
0.0
  9
$PUCSORGBOTTOM
 10
0.0
 20
0.0
 30
0.0
  9
$PUCSORGLEFT
 10
0.0
 20
0.0
 30
0.0
  9
$PUCSORGRIGHT
 10
0.0
 20
0.0
 30
0.0
  9
$PUCSORGFRONT
 10
0.0
 20
0.0
 30
0.0
  9
$PUCSORGBACK
 10
0.0
 20
0.0
 30
0.0
  9
$USERI1
 70
     0
  9
$USERI2
 70
     0
  9
$USERI3
 70
     0
  9
$USERI4
 70
     0
  9
$USERI5
 70
     0
  9
$USERR1
 40
0.0
  9
$USERR2
 40
0.0
  9
$USERR3
 40
0.0
  9
$USERR4
 40
0.0
  9
$USERR5
 40
0.0
  9
$WORLDVIEW
 70
     1
  9
$SHADEDGE
 70
     3
  9
$SHADEDIF
 70
    70
  9
$TILEMODE
 70
     1
  9
$MAXACTVP
 70
    64
  9
$PINSBASE
 10
0.0
 20
0.0
 30
0.0
  9
$PLIMCHECK
 70
     0
  9
$PEXTMIN
 10
0.0
 20
0.0
 30
0.0
  9
$PEXTMAX
 10
105.0
 20
148.5
 30
0.0
  9
$PLIMMIN
 10
0.0
 20
0.0
  9
$PLIMMAX
 10
105.0
 20
148.5
  9
$UNITMODE
 70
     0
  9
$VISRETAIN
 70
     1
  9
$PLINEGEN
 70
     0
  9
$PSLTSCALE
 70
     1
  9
$TREEDEPTH
 70
  3020
  9
$CMLSTYLE
  2
Standard
  9
$CMLJUST
 70
     0
  9
$CMLSCALE
 40
1.0
  9
$PROXYGRAPHICS
 70
     1
  9
$MEASUREMENT
 70
     1
  9
$CELWEIGHT
370
    -1
  9
$ENDCAPS
280
     0
  9
$JOINSTYLE
280
     0
  9
$LWDISPLAY
290
     0
  9
$INSUNITS
 70
     4
  9
$HYPERLINKBASE
  1

  9
$STYLESHEET
  1

  9
$XEDIT
290
     1
  9
$CEPSNTYPE
380
     0
  9
$PSTYLEMODE
290
     1
  9
$FINGERPRINTGUID
  2
{EAD3577A-FF95-4081-AA2C-E69C50B67B00}
  9
$VERSIONGUID
  2
{8EBFBE3D-5D6A-4ADA-8B84-6CB3F9841BAF}
  9
$EXTNAMES
290
     1
  9
$PSVPSCALE
 40
0.0
  9
$OLESTARTUP
290
     0
  0
ENDSEC
  0
SECTION
  2
CLASSES
  0
CLASS
  1
ACDBDICTIONARYWDFLT
  2
AcDbDictionaryWithDefault
  3
ObjectDBX Classes
 90
        0
280
     0
281
     0
  0
CLASS
  1
MATERIAL
  2
AcDbMaterial
  3
ObjectDBX Classes
 90
     1153
280
     0
281
     0
  0
CLASS
  1
VISUALSTYLE
  2
AcDbVisualStyle
  3
ObjectDBX Classes
 90
     4095
280
     0
281
     0
  0
CLASS
  1
SCALE
  2
AcDbScale
  3
ObjectDBX Classes
 90
     1153
280
     0
281
     0
  0
CLASS
  1
TABLESTYLE
  2
AcDbTableStyle
  3
ObjectDBX Classes
 90
     4095
280
     0
281
     0
  0
CLASS
  1
MLEADERSTYLE
  2
AcDbMLeaderStyle
  3
ACDB_MLEADERSTYLE_CLASS
 90
     4095
280
     0
281
     0
  0
CLASS
  1
CELLSTYLEMAP
  2
AcDbCellStyleMap
  3
ObjectDBX Classes
 90
     1152
280
     0
281
     0
  0
CLASS
  1
DICTIONARYVAR
  2
AcDbDictionaryVar
  3
ObjectDBX Classes
 90
        0
280
     0
281
     0
  0
CLASS
  1
ACDBPLACEHOLDER
  2
AcDbPlaceHolder
  3
ObjectDBX Classes
 90
        0
280
     0
281
     0
  0
CLASS
  1
LAYOUT
  2
AcDbLayout
  3
ObjectDBX Classes
 90
        0
280
     0
281
     0
  0
CLASS
  1
ACME_DOCUMENT
  2
AcMeDbDoc
  3
AcMeServices
 90
     1024
280
     0
281
     0
  0
CLASS
  1
AMGSETTINGSOBJ
  2
AmgSettingsObj
  3
"AcadM|Product Description: AutoCAD Mechanical|Company: Autodesk, Inc."
 90
     1024
280
     0
281
     0
  0
CLASS
  1
ACMESCOPE
  2
AcMeScope
  3
AcMeServices
 90
     1024
280
     0
281
     0
  0
CLASS
  1
ACMECOMMANDHISTORY
  2
AcMeCommandHistory
  3
AcMeServices
 90
     1024
280
     0
281
     0
  0
CLASS
  1
ACIMSYSVARMAN
  2
AcImSysVarManager
  3
AcMeServices
 90
     1024
280
     0
281
     0
  0
CLASS
  1
ACIMINTSYSVAR
  2
AcImIntSysVar
  3
AcMeServices
 90
     1024
280
     0
281
     0
  0
CLASS
  1
ACMEDRAWINGMAN
  2
AcMeDrawingMan
  3
AcMeServices
 90
     1024
280
     0
281
     0
  0
CLASS
  1
ACMEVIEW
  2
AcMeView
  3
AcMeServices
 90
     1024
280
     0
281
     0
  0
CLASS
  1
ACDBENTITYCACHE
  2
AcMeEntityCache
  3
AcMeServices
 90
     1024
280
     0
281
     0
  0
CLASS
  1
ACMESTATEMGR
  2
AcMeStateMgr
  3
AcMeServices
 90
     1024
280
     0
281
     0
  0
CLASS
  1
ACGREFMASTER
  2
AcGrefMaster
  3
AcAttribServices
 90
     1024
280
     0
281
     0
  0
CLASS
  1
AM_DRAWING_MGR
  2
AcDmDwgMgr
  3
AcMechDwgViewMgmt
 90
     1024
280
     0
281
     0
  0
CLASS
  1
AM_DWG_DOCUMENT
  2
AcDmDwgDocument
  3
AcMechDwgViewMgmt
 90
     1024
280
     0
281
     0
  0
CLASS
  1
AM_DWG_SHEET
  2
AcDmSheet
  3
AcMechDwgViewMgmt
 90
     1024
280
     0
281
     0
  0
CLASS
  1
AM_VIEWDIMPARMAP
  2
AcDmViewDimParMap
  3
AcMechDwgViewMgmt
 90
     1024
280
     0
281
     0
  0
CLASS
  1
AMDTINTERNALREACTOR
  2
AmdtInternalReactor
  3
AcMeServices
 90
     1024
280
     0
281
     0
  0
CLASS
  1
ACIMREALSYSVAR
  2
AcImRealSysVar
  3
AcMeServices
 90
     1024
280
     0
281
     0
  0
CLASS
  1
AM_DWGMGR_NAME
  2
AcDmDwgMgrName
  3
AcMechDwgViewMgmt
 90
     1024
280
     0
281
     0
  0
CLASS
  1
ACME_DATABASE
  2
AcMeDbDatabase
  3
AcMeServices
 90
     1024
280
     0
281
     0
  0
CLASS
  1
ACRFINSADJUSTERMGR
  2
AcRfInsAdjusterMgr
  3
AcMeServices
 90
     1024
280
     0
281
     0
  0
CLASS
  1
ACGREFACADMASTER
  2
AcGrefacadMaster
  3
AcGrefServices
 90
     1024
280
     0
281
     0
  0
CLASS
  1
AMDTMENUSTATEMGR
  2
AmdtMenuStateMgr
  3
McadcomServices
 90
     1024
280
     0
281
     0
  0
CLASS
  1
AMDTMCOMMENUSTATE
  2
AmdtMcomMenuState
  3
McadcomServices
 90
     1024
280
     0
281
     0
  0
CLASS
  1
AMIMASTER
  2
AmiMaster
  3
AmiServices
 90
     1024
280
     0
281
     0
  0
CLASS
  1
MAPIAMMOUDLE
  2
MApiAmModule
  3
MApiAmServices
 90
     1024
280
     0
281
     0
  0
CLASS
  1
ACIMSTRSYSVAR
  2
AcImStrSysVar
  3
AcMeServices
 90
     1024
280
     0
281
     0
  0
CLASS
  1
AMDTADMENUSTATE
  2
AmdtAdMenuState
  3
DesignerServices
 90
     1024
280
     0
281
     0
  0
CLASS
  1
ADAPPL
  2
AcAdAppl
  3
DesignerServices
 90
     1024
280
     0
281
     0
  0
CLASS
  1
DEPMGR
  2
AcAdDepMgr
  3
DesignerServices
 90
     1024
280
     0
281
     0
  0
CLASS
  1
PARAMMGR
  2
AcAdParamMgr
  3
DesignerServices
 90
     1024
280
     0
281
     0
  0
CLASS
  1
PARAMSCOPE
  2
AcAdParamScope
  3
DesignerServices
 90
     1024
280
     0
281
     0
  0
CLASS
  1
NAMEDAPPL
  2
AcAdNamedAppl
  3
DesignerServices
 90
     1024
280
     0
281
     0
  0
CLASS
  1
AMDTDMMENUSTATE
  2
AmdtDmMenuState
  3
AcMechDwgViewMgmt
 90
     1024
280
     0
281
     0
  0
CLASS
  1
AMDTAMMENUSTATE
  2
AmdtAmMenuState
  3
DesignerAssemblies
 90
     1024
280
     0
281
     0
  0
CLASS
  1
ACAMPROJECT
  2
AcAmProject
  3
DesignerAssemblies
 90
     1024
280
     0
281
     0
  0
CLASS
  1
ACAMGRCOMPDEF
  2
AcAmGrCompDef
  3
DesignerAssemblies
 90
     1024
280
     0
281
     0
  0
CLASS
  1
ACAMCOMPDEF
  2
AcAmCompDef
  3
DesignerAssemblies
 90
     1024
280
     0
281
     0
  0
CLASS
  1
ACAMCOMPDEFMGR
  2
AcAmCompDefMgr
  3
DesignerAssemblies
 90
     1024
280
     0
281
     0
  0
CLASS
  1
AMCONTEXTMGR
  2
AcAmContextMgr
  3
DesignerAssemblies
 90
     1024
280
     0
281
     0
  0
CLASS
  1
ACAMCONTEXTMODELER
  2
AcAmContextModeler
  3
DesignerAssemblies
 90
     1024
280
     0
281
     0
  0
CLASS
  1
ACMDATADICTIONARY
  2
AcmDataDictionary
  3
"AcmSymBB|Product Description: AutoCAD Mechanical|Company: Autodesk, Inc."
 90
     1024
280
     0
281
     0
  0
CLASS
  1
CATALOGSTATE
  2
AcAmCatalogState
  3
DesignerAssemblies
 90
     1024
280
     0
281
     0
  0
CLASS
  1
ACAMGRCOMPDEFSET
  2
AcAmGrCompDefSet
  3
DesignerAssemblies
 90
     1024
280
     0
281
     0
  0
CLASS
  1
AMDTBROWSERDBTAB
  2
AmdtBrowserDbTab
  3
McadcomServices
 90
     1024
280
     0
281
     0
  0
CLASS
  1
CBROWSERAPPOBJECT
  2
CBrowserAppObject
  3
McadcomServices
 90
     1024
280
     0
281
     0
  0
CLASS
  1
DM_PLACEHOLDER
  2
AcDmSelsetPlaceholder
  3
AcMechDwgViewMgmt
 90
     1024
280
     0
281
     0
  0
CLASS
  1
EXACXREFPANELOBJECT
  2
ExAcXREFPanelObject
  3
EXAC_ESW
 90
     1025
280
     0
281
     0
  0
CLASS
  1
NPOCOLLECTION
  2
AcDbImpNonPersistentObjectsCollection
  3
ObjectDBX Classes
 90
     1153
280
     0
281
     0
  0
CLASS
  1
ACMSTANDARDISO
  2
AcmStandardISO
  3
"Amdt_StdImp|Product Description: AutoCAD Mechanical|Company: Autodesk, Inc."
 90
     1024
280
     0
281
     0
  0
CLASS
  1
AMDTEDGESTANDARDISO13715
  2
AmdtEdgeStdISO13715
  3
"Amdt_StdImp|Product Description: AutoCAD Mechanical|Company: Autodesk, Inc."
 90
     1024
280
     0
281
     0
  0
CLASS
  1
ACMSURFSTANDARDISO2002
  2
AcmSurfTextStdISO2002
  3
"Amdt_StdImp|Product Description: AutoCAD Mechanical|Company: Autodesk, Inc."
 90
     1024
280
     0
281
     0
  0
CLASS
  1
ACMFCFSTANDARDISO
  2
AcmFCFStdISO
  3
"Amdt_StdImp|Product Description: AutoCAD Mechanical|Company: Autodesk, Inc."
 90
     1024
280
     0
281
     0
  0
CLASS
  1
ACMWELDSTANDARDISO
  2
AcmWeldingStdISO
  3
"Amdt_StdImp|Product Description: AutoCAD Mechanical|Company: Autodesk, Inc."
 90
     1024
280
     0
281
     0
  0
CLASS
  1
ACMIDSTANDARDISO
  2
AcmIdStdISO
  3
"Amdt_StdImp|Product Description: AutoCAD Mechanical|Company: Autodesk, Inc."
 90
     1024
280
     0
281
     0
  0
CLASS
  1
ACMDATUMSTANDARDISO
  2
AcmDatumStdISO
  3
"Amdt_StdImp|Product Description: AutoCAD Mechanical|Company: Autodesk, Inc."
 90
     1024
280
     0
281
     0
  0
CLASS
  1
ACMBOMSTANDARDISO
  2
AcmBOMStdISO
  3
"Amdt_StdImp|Product Description: AutoCAD Mechanical|Company: Autodesk, Inc."
 90
     1024
280
     0
281
     0
  0
CLASS
  1
ACMDETAILSTANDARDISO
  2
AmdtDetailSymStdISO
  3
"Amdt_StdImp|Product Description: AutoCAD Mechanical|Company: Autodesk, Inc."
 90
     1024
280
     0
281
     0
  0
CLASS
  1
ACMSECTIONSTANDARDISO2001
  2
AmdtSectionSymStdISO2001
  3
"Amdt_StdImp|Product Description: AutoCAD Mechanical|Company: Autodesk, Inc."
 90
     1024
280
     0
281
     0
  0
CLASS
  1
ACMCENTERLINESTANDARDISO
  2
AmdtCenterLineStdISO
  3
"Amdt_StdImp|Product Description: AutoCAD Mechanical|Company: Autodesk, Inc."
 90
     1024
280
     0
281
     0
  0
CLASS
  1
ACMTHREADLINESTANDARDISO
  2
AmdtThreadLineStdISO
  3
"Amdt_StdImp|Product Description: AutoCAD Mechanical|Company: Autodesk, Inc."
 90
     1024
280
     0
281
     0
  0
CLASS
  1
ACMNOTESTANDARDISO
  2
AmdtNoteStdISO
  3
"Amdt_StdImp|Product Description: AutoCAD Mechanical|Company: Autodesk, Inc."
 90
     1024
280
     0
281
     0
  0
CLASS
  1
ACMTAPERSTANDARDISO
  2
AcmTaperStdISO
  3
"Amdt_StdImp|Product Description: AutoCAD Mechanical|Company: Autodesk, Inc."
 90
     1024
280
     0
281
     0
  0
CLASS
  1
ACMANOOTATIONVIEWSTANDARDISO
  2
AmdtAnViewStdISO
  3
"Amdt_StdImp|Product Description: AutoCAD Mechanical|Company: Autodesk, Inc."
 90
     1024
280
     0
281
     0
  0
CLASS
  1
ACAMGLAYSTD
  2
AcAmgLayStd
  3
"AmgLay|Product Description: AutoCAD Mechanical|Company: Autodesk, Inc."
 90
     1024
280
     0
281
     0
  0
CLASS
  1
ACAMGDIMSTD
  2
AcAmgDimStd
  3
"AmgDim|Product Description: AutoCAD Mechanical|Company: Autodesk, Inc."
 90
     1024
280
     0
281
     0
  0
CLASS
  1
ACAMGHOLECHARTSTDISO
  2
AcAmgHoleChartStdISO
  3
AmgDim|Product Description: AutoCAD Mechanical|Company: Autodesk, Inc.
 90
     1024
280
     0
281
     0
  0
CLASS
  1
AMGOBJPROPCFG
  2
AmgObjPropCfg
  3
"AmgLay|Product Description: AutoCAD Mechanical|Company: Autodesk, Inc."
 90
     1025
280
     0
281
     0
  0
CLASS
  1
ACAMGTITLESTD
  2
AcAmgTitleStd
  3
"AmgTitle|Product Description: AutoCAD Mechanical|Company: Autodesk, Inc."
 90
     4095
280
     0
281
     0
  0
CLASS
  1
AMDTNOTETEMPLATEDB
  2
AmdtNoteTemplateDB
  3
AcmSymBB|Product Description: AutoCAD Mechanical|Company: Autodesk, Inc.
 90
     1024
280
     0
281
     0
  0
CLASS
  1
ACAMGFILTERDAT
  2
AcAmgFilterDat
  3
"AcadM|Product Description: AutoCAD Mechanical|Company: Autodesk, Inc."
 90
     1024
280
     0
281
     0
  0
ENDSEC
  0
SECTION
  2
TABLES
  0
TABLE
  2
VPORT
  5
8
102
{ACAD_XDICTIONARY
360
95F
102
}
330
0
100
AcDbSymbolTable
 70
     1
  0
VPORT
  5
62
330
8
100
AcDbSymbolTableRecord
100
AcDbViewportTableRecord
  2
*Active
 70
     0
 10
0.0
 20
0.0
 11
1.0
 21
1.0
 12
64.94318176884275
 22
89.18181775434117
 13
0.0
 23
0.0
 14
1.0
 24
1.0
 15
0.0
 25
0.0
 16
0.0
 26
0.0
 36
1.0
 17
0.0
 27
0.0
 37
0.0
 40
148.4999999308498
 41
1.610192837465564
 42
50.0
 43
0.0
 44
0.0
 50
0.0
 51
0.0
 71
     0
 72
   100
 73
     1
 74
     1
 75
     0
 76
     0
 77
     0
 78
     0
281
     0
 65
     1
110
0.0
120
0.0
130
0.0
111
1.0
121
0.0
131
0.0
112
0.0
122
1.0
132
0.0
 79
     0
146
0.0
  0
ENDTAB
  0
TABLE
  2
LTYPE
  5
5
330
0
100
AcDbSymbolTable
 70
    69
  0
LTYPE
  5
66
330
5
100
AcDbSymbolTableRecord
100
AcDbLinetypeTableRecord
  2
ByBlock
 70
     0
  3

 72
    65
 73
     0
 40
0.0
  0
LTYPE
  5
67
330
5
100
AcDbSymbolTableRecord
100
AcDbLinetypeTableRecord
  2
ByLayer
 70
     0
  3

 72
    65
 73
     0
 40
0.0
  0
LTYPE
  5
68
330
5
100
AcDbSymbolTableRecord
100
AcDbLinetypeTableRecord
  2
Continuous
 70
     0
  3
Solid line
 72
    65
 73
     0
 40
0.0
  0
LTYPE
  5
7F
330
5
100
AcDbSymbolTableRecord
100
AcDbLinetypeTableRecord
  2
Section_View_Lines
 70
     0
  3
Section View Lines
 72
    65
 73
     4
 40
0.8406
 49
0.6614
 74
     0
 49
-0.0827
 74
     0
 49
0.0138
 74
     0
 49
-0.0827
 74
     0
  0
LTYPE
  5
80
330
5
100
AcDbSymbolTableRecord
100
AcDbLinetypeTableRecord
  2
CHAIN
 70
     0
  3
Chain ____ _ ____ _ ____ _ ____ _ ____ _ ____
 72
    65
 73
     4
 40
0.3543
 49
0.2362
 74
     0
 49
-0.0295
 74
     0
 49
0.0591
 74
     0
 49
-0.0295
 74
     0
  0
LTYPE
  5
81
330
5
100
AcDbSymbolTableRecord
100
AcDbLinetypeTableRecord
  2
DASH_DOT
 70
     0
  3
Dash dot _._._._._._._._._._._._._._._.
 72
    65
 73
     4
 40
0.182
 49
0.1181
 74
     0
 49
-0.0295
 74
     0
 49
0.0049
 74
     0
 49
-0.0295
 74
     0
  0
LTYPE
  5
82
330
5
100
AcDbSymbolTableRecord
100
AcDbLinetypeTableRecord
  2
DASH_DOUBLE_DOT
 70
     0
  3
Dash Double Dot __ __ . __ __ . __ __ . __ _
 72
    65
 73
     6
 40
0.2164
 49
0.1181
 74
     0
 49
-0.0295
 74
     0
 49
0.0049
 74
     0
 49
-0.0295
 74
     0
 49
0.0049
 74
     0
 49
-0.0295
 74
     0
  0
LTYPE
  5
83
330
5
100
AcDbSymbolTableRecord
100
AcDbLinetypeTableRecord
  2
DASH_TRIPLE_DOT
 70
     0
  3
Dash Triple-Dot _ . . . _ . . . _ . . . _
 72
    65
 73
     8
 40
0.2508
 49
0.1181
 74
     0
 49
-0.0295
 74
     0
 49
0.0049
 74
     0
 49
-0.0295
 74
     0
 49
0.0049
 74
     0
 49
-0.0295
 74
     0
 49
0.0049
 74
     0
 49
-0.0295
 74
     0
  0
LTYPE
  5
84
330
5
100
AcDbSymbolTableRecord
100
AcDbLinetypeTableRecord
  2
DASHED
 70
     0
  3
Dashed __ __ __ __ __ __ __ __ __ __ __ __ __ _
 72
    65
 73
     2
 40
0.2068
 49
0.1655
 74
     0
 49
-0.0413
 74
     0
  0
LTYPE
  5
85
330
5
100
AcDbSymbolTableRecord
100
AcDbLinetypeTableRecord
  2
DASHED_SPACE
 70
     0
  3
Dashed Space __ __ __ __ __ __ __ __ __ __ __ _
 72
    65
 73
     2
 40
0.2067
 49
0.1654
 74
     0
 49
-0.0413
 74
     0
  0
LTYPE
  5
86
330
5
100
AcDbSymbolTableRecord
100
AcDbLinetypeTableRecord
  2
DOTTED
 70
     0
  3
Dotted . . . . . . . . . . . . . . . . . . . . 
 72
    65
 73
     2
 40
0.0481
 49
0.0068
 74
     0
 49
-0.0413
 74
     0
  0
LTYPE
  5
87
330
5
100
AcDbSymbolTableRecord
100
AcDbLinetypeTableRecord
  2
DOUBLE_DASH_CHAIN
 70
     0
  3
Double Dash Chain ___ _ _ ___ _ _ ___ _ _ ___ _
 72
    65
 73
     6
 40
1.240299999999999
 49
0.6614
 74
     0
 49
-0.0827
 74
     0
 49
0.1654
 74
     0
 49
-0.0827
 74
     0
 49
0.1654
 74
     0
 49
-0.0827
 74
     0
  0
LTYPE
  5
88
330
5
100
AcDbSymbolTableRecord
100
AcDbLinetypeTableRecord
  2
DOUBLE_DASH_DOT
 70
     0
  3
Double Dash Dot __ __ . __ __ . __ __ . __ _
 72
    65
 73
     6
 40
0.3296
 49
0.1181
 74
     0
 49
-0.0295
 74
     0
 49
0.1181
 74
     0
 49
-0.0295
 74
     0
 49
0.0049
 74
     0
 49
-0.0295
 74
     0
  0
LTYPE
  5
89
330
5
100
AcDbSymbolTableRecord
100
AcDbLinetypeTableRecord
  2
DOUBLE_DASH_DOUBLE_DOT
 70
     0
  3
Double Dash Double Dot _ _ . . _ _ . . _ _
 72
    65
 73
     8
 40
0.364
 49
0.1181
 74
     0
 49
-0.0295
 74
     0
 49
0.1181
 74
     0
 49
-0.0295
 74
     0
 49
0.0049
 74
     0
 49
-0.0295
 74
     0
 49
0.0049
 74
     0
 49
-0.0295
 74
     0
  0
LTYPE
  5
8A
330
5
100
AcDbSymbolTableRecord
100
AcDbLinetypeTableRecord
  2
DOUBLE_DASH_TRIPLE_DOT
 70
     0
  3
Double Dash Triple Dot __ __ . . . __ __ . . .
 72
    65
 73
    10
 40
0.3984
 49
0.1181
 74
     0
 49
-0.0295
 74
     0
 49
0.1181
 74
     0
 49
-0.0295
 74
     0
 49
0.0049
 74
     0
 49
-0.0295
 74
     0
 49
0.0049
 74
     0
 49
-0.0295
 74
     0
 49
0.0049
 74
     0
 49
-0.0295
 74
     0
  0
LTYPE
  5
8B
330
5
100
AcDbSymbolTableRecord
100
AcDbLinetypeTableRecord
  2
LONG_DASH_DOTTED
 70
     0
  3
Long Dash Dotted ____ . ____ . ____ . ____ . _
 72
    65
 73
     4
 40
0.3001
 49
0.2362
 74
     0
 49
-0.0295
 74
     0
 49
0.0049
 74
     0
 49
-0.0295
 74
     0
  0
LTYPE
  5
8C
330
5
100
AcDbSymbolTableRecord
100
AcDbLinetypeTableRecord
  2
LONG_DASH_DOUBLE_DOT
 70
     0
  3
Long Dash Double Dot ____ . . ____ . . ____ . .
 72
    65
 73
     6
 40
0.3345
 49
0.2362
 74
     0
 49
-0.0295
 74
     0
 49
0.0049
 74
     0
 49
-0.0295
 74
     0
 49
0.0049
 74
     0
 49
-0.0295
 74
     0
  0
LTYPE
  5
8D
330
5
100
AcDbSymbolTableRecord
100
AcDbLinetypeTableRecord
  2
LONG_DASH_TRIPLE_DOT
 70
     0
  3
Long Dash Triple Dot ____ ... ____ ... ____
 72
    65
 73
     8
 40
0.3689
 49
0.2362
 74
     0
 49
-0.0295
 74
     0
 49
0.0049
 74
     0
 49
-0.0295
 74
     0
 49
0.0049
 74
     0
 49
-0.0295
 74
     0
 49
0.0049
 74
     0
 49
-0.0295
 74
     0
  0
LTYPE
  5
8E
330
5
100
AcDbSymbolTableRecord
100
AcDbLinetypeTableRecord
  2
BORDER
 70
     0
  3
Border __ __ . __ __ . __ __ . __ __ . __ __ .
 72
    65
 73
     6
 40
44.45
 49
12.7
 74
     0
 49
-6.349999999999999
 74
     0
 49
12.7
 74
     0
 49
-6.349999999999999
 74
     0
 49
0.0
 74
     0
 49
-6.349999999999999
 74
     0
  0
LTYPE
  5
8F
330
5
100
AcDbSymbolTableRecord
100
AcDbLinetypeTableRecord
  2
BORDER2
 70
     0
  3
Border (.5x) __.__.__.__.__.__.__.__.__.__.__.
 72
    65
 73
     6
 40
22.225
 49
6.349999999999999
 74
     0
 49
-3.174999999999999
 74
     0
 49
6.349999999999999
 74
     0
 49
-3.174999999999999
 74
     0
 49
0.0
 74
     0
 49
-3.174999999999999
 74
     0
  0
LTYPE
  5
90
330
5
100
AcDbSymbolTableRecord
100
AcDbLinetypeTableRecord
  2
BORDERX2
 70
     0
  3
Border (2x) ____  ____  .  ____  ____  .  ___
 72
    65
 73
     6
 40
88.9
 49
25.4
 74
     0
 49
-12.7
 74
     0
 49
25.4
 74
     0
 49
-12.7
 74
     0
 49
0.0
 74
     0
 49
-12.7
 74
     0
  0
LTYPE
  5
91
330
5
100
AcDbSymbolTableRecord
100
AcDbLinetypeTableRecord
  2
CENTER
 70
     0
  3
Center ____ _ ____ _ ____ _ ____ _ ____ _ ____
 72
    65
 73
     4
 40
50.8
 49
31.75
 74
     0
 49
-6.349999999999999
 74
     0
 49
6.349999999999999
 74
     0
 49
-6.349999999999999
 74
     0
  0
LTYPE
  5
92
330
5
100
AcDbSymbolTableRecord
100
AcDbLinetypeTableRecord
  2
CENTER2
 70
     0
  3
Center (.5x) ___ _ ___ _ ___ _ ___ _ ___ _ ___
 72
    65
 73
     4
 40
28.575
 49
19.05
 74
     0
 49
-3.174999999999999
 74
     0
 49
3.174999999999999
 74
     0
 49
-3.174999999999999
 74
     0
  0
LTYPE
  5
93
330
5
100
AcDbSymbolTableRecord
100
AcDbLinetypeTableRecord
  2
CENTERX2
 70
     0
  3
Center (2x) ________  __  ________  __  _____
 72
    65
 73
     4
 40
101.6
 49
63.5
 74
     0
 49
-12.7
 74
     0
 49
12.7
 74
     0
 49
-12.7
 74
     0
  0
LTYPE
  5
94
330
5
100
AcDbSymbolTableRecord
100
AcDbLinetypeTableRecord
  2
DASHDOT2
 70
     0
  3
Dash dot (.5x) _._._._._._._._._._._._._._._.
 72
    65
 73
     4
 40
12.7
 49
6.349999999999999
 74
     0
 49
-3.174999999999999
 74
     0
 49
0.0
 74
     0
 49
-3.174999999999999
 74
     0
  0
LTYPE
  5
95
330
5
100
AcDbSymbolTableRecord
100
AcDbLinetypeTableRecord
  2
DASHDOTX2
 70
     0
  3
Dash dot (2x) ____  .  ____  .  ____  .  ___
 72
    65
 73
     4
 40
50.8
 49
25.4
 74
     0
 49
-12.7
 74
     0
 49
0.0
 74
     0
 49
-12.7
 74
     0
  0
LTYPE
  5
96
330
5
100
AcDbSymbolTableRecord
100
AcDbLinetypeTableRecord
  2
DASHED2
 70
     0
  3
Dashed (.5x) _ _ _ _ _ _ _ _ _ _ _ _ _ _ _ _ _
 72
    65
 73
     2
 40
9.524999999999998
 49
6.349999999999999
 74
     0
 49
-3.174999999999999
 74
     0
  0
LTYPE
  5
97
330
5
100
AcDbSymbolTableRecord
100
AcDbLinetypeTableRecord
  2
DASHEDX2
 70
     0
  3
Dashed (2x) ____  ____  ____  ____  ____  ___
 72
    65
 73
     2
 40
38.1
 49
25.4
 74
     0
 49
-12.7
 74
     0
  0
LTYPE
  5
98
330
5
100
AcDbSymbolTableRecord
100
AcDbLinetypeTableRecord
  2
DIVIDE
 70
     0
  3
Divide ____ . . ____ . . ____ . . ____ . . ____
 72
    65
 73
     6
 40
31.75
 49
12.7
 74
     0
 49
-6.349999999999999
 74
     0
 49
0.0
 74
     0
 49
-6.349999999999999
 74
     0
 49
0.0
 74
     0
 49
-6.349999999999999
 74
     0
  0
LTYPE
  5
99
330
5
100
AcDbSymbolTableRecord
100
AcDbLinetypeTableRecord
  2
DIVIDE2
 70
     0
  3
Divide (.5x) __..__..__..__..__..__..__..__.._
 72
    65
 73
     6
 40
15.875
 49
6.349999999999999
 74
     0
 49
-3.174999999999999
 74
     0
 49
0.0
 74
     0
 49
-3.174999999999999
 74
     0
 49
0.0
 74
     0
 49
-3.174999999999999
 74
     0
  0
LTYPE
  5
9A
330
5
100
AcDbSymbolTableRecord
100
AcDbLinetypeTableRecord
  2
DIVIDEX2
 70
     0
  3
Divide (2x) ________  .  .  ________  .  .  _
 72
    65
 73
     6
 40
63.49999999999999
 49
25.4
 74
     0
 49
-12.7
 74
     0
 49
0.0
 74
     0
 49
-12.7
 74
     0
 49
0.0
 74
     0
 49
-12.7
 74
     0
  0
LTYPE
  5
9B
330
5
100
AcDbSymbolTableRecord
100
AcDbLinetypeTableRecord
  2
DOT
 70
     0
  3
Dot . . . . . . . . . . . . . . . . . . . . . .
 72
    65
 73
     2
 40
6.349999999999999
 49
0.0
 74
     0
 49
-6.349999999999999
 74
     0
  0
LTYPE
  5
9C
330
5
100
AcDbSymbolTableRecord
100
AcDbLinetypeTableRecord
  2
DOT2
 70
     0
  3
Dot (.5x) .....................................
 72
    65
 73
     2
 40
3.174999999999999
 49
0.0
 74
     0
 49
-3.174999999999999
 74
     0
  0
LTYPE
  5
9D
330
5
100
AcDbSymbolTableRecord
100
AcDbLinetypeTableRecord
  2
DOTX2
 70
     0
  3
Dot (2x) .  .  .  .  .  .  .  .  .  .  .  .  . 
 72
    65
 73
     2
 40
12.7
 49
0.0
 74
     0
 49
-12.7
 74
     0
  0
LTYPE
  5
9E
330
5
100
AcDbSymbolTableRecord
100
AcDbLinetypeTableRecord
  2
HIDDEN
 70
     0
  3
Hidden __ __ __ __ __ __ __ __ __ __ __ __ __ _
 72
    65
 73
     2
 40
9.524999999999998
 49
6.349999999999999
 74
     0
 49
-3.174999999999999
 74
     0
  0
LTYPE
  5
9F
330
5
100
AcDbSymbolTableRecord
100
AcDbLinetypeTableRecord
  2
HIDDEN2
 70
     0
  3
Hidden (.5x) _ _ _ _ _ _ _ _ _ _ _ _ _ _ _ _ _
 72
    65
 73
     2
 40
4.762499999999999
 49
3.174999999999999
 74
     0
 49
-1.587499999999999
 74
     0
  0
LTYPE
  5
A0
330
5
100
AcDbSymbolTableRecord
100
AcDbLinetypeTableRecord
  2
HIDDENX2
 70
     0
  3
Hidden (2x) ____ ____ ____ ____ ____ ____ ____
 72
    65
 73
     2
 40
19.05
 49
12.7
 74
     0
 49
-6.349999999999999
 74
     0
  0
LTYPE
  5
A1
330
5
100
AcDbSymbolTableRecord
100
AcDbLinetypeTableRecord
  2
PHANTOM
 70
     0
  3
Phantom ______  __  __  ______  __  __  ______
 72
    65
 73
     6
 40
63.5
 49
31.75
 74
     0
 49
-6.349999999999999
 74
     0
 49
6.349999999999999
 74
     0
 49
-6.349999999999999
 74
     0
 49
6.349999999999999
 74
     0
 49
-6.349999999999999
 74
     0
  0
LTYPE
  5
A2
330
5
100
AcDbSymbolTableRecord
100
AcDbLinetypeTableRecord
  2
PHANTOM2
 70
     0
  3
Phantom (.5x) ___ _ _ ___ _ _ ___ _ _ ___ _ _
 72
    65
 73
     6
 40
31.75
 49
15.875
 74
     0
 49
-3.174999999999999
 74
     0
 49
3.174999999999999
 74
     0
 49
-3.174999999999999
 74
     0
 49
3.174999999999999
 74
     0
 49
-3.174999999999999
 74
     0
  0
LTYPE
  5
A3
330
5
100
AcDbSymbolTableRecord
100
AcDbLinetypeTableRecord
  2
PHANTOMX2
 70
     0
  3
Phantom (2x) ____________    ____    ____   _
 72
    65
 73
     6
 40
127.0
 49
63.5
 74
     0
 49
-12.7
 74
     0
 49
12.7
 74
     0
 49
-12.7
 74
     0
 49
12.7
 74
     0
 49
-12.7
 74
     0
  0
LTYPE
  5
A4
330
5
100
AcDbSymbolTableRecord
100
AcDbLinetypeTableRecord
  2
ACAD_ISO02W100
 70
     0
  3
ISO dash __ __ __ __ __ __ __ __ __ __ __ __ __
 72
    65
 73
     2
 40
15.0
 49
12.0
 74
     0
 49
-3.0
 74
     0
  0
LTYPE
  5
A5
330
5
100
AcDbSymbolTableRecord
100
AcDbLinetypeTableRecord
  2
ACAD_ISO03W100
 70
     0
  3
ISO dash space __    __    __    __    __    __
 72
    65
 73
     2
 40
30.0
 49
12.0
 74
     0
 49
-18.0
 74
     0
  0
LTYPE
  5
A6
330
5
100
AcDbSymbolTableRecord
100
AcDbLinetypeTableRecord
  2
ACAD_ISO04W100
 70
     0
  3
ISO long-dash dot ____ . ____ . ____ . ____ . _
 72
    65
 73
     4
 40
30.0
 49
24.0
 74
     0
 49
-3.0
 74
     0
 49
0.0
 74
     0
 49
-3.0
 74
     0
  0
LTYPE
  5
A7
330
5
100
AcDbSymbolTableRecord
100
AcDbLinetypeTableRecord
  2
ACAD_ISO05W100
 70
     0
  3
ISO long-dash double-dot ____ .. ____ .. ____ .
 72
    65
 73
     6
 40
33.0
 49
24.0
 74
     0
 49
-3.0
 74
     0
 49
0.0
 74
     0
 49
-3.0
 74
     0
 49
0.0
 74
     0
 49
-3.0
 74
     0
  0
LTYPE
  5
A8
330
5
100
AcDbSymbolTableRecord
100
AcDbLinetypeTableRecord
  2
ACAD_ISO06W100
 70
     0
  3
ISO long-dash triple-dot ____ ... ____ ... ____
 72
    65
 73
     8
 40
36.0
 49
24.0
 74
     0
 49
-3.0
 74
     0
 49
0.0
 74
     0
 49
-3.0
 74
     0
 49
0.0
 74
     0
 49
-3.0
 74
     0
 49
0.0
 74
     0
 49
-3.0
 74
     0
  0
LTYPE
  5
A9
330
5
100
AcDbSymbolTableRecord
100
AcDbLinetypeTableRecord
  2
ACAD_ISO07W100
 70
     0
  3
ISO dot . . . . . . . . . . . . . . . . . . . .
 72
    65
 73
     2
 40
3.0
 49
0.0
 74
     0
 49
-3.0
 74
     0
  0
LTYPE
  5
AA
330
5
100
AcDbSymbolTableRecord
100
AcDbLinetypeTableRecord
  2
ACAD_ISO08W100
 70
     0
  3
ISO long-dash short-dash ____ __ ____ __ ____ _
 72
    65
 73
     4
 40
36.0
 49
24.0
 74
     0
 49
-3.0
 74
     0
 49
6.0
 74
     0
 49
-3.0
 74
     0
  0
LTYPE
  5
AB
330
5
100
AcDbSymbolTableRecord
100
AcDbLinetypeTableRecord
  2
ACAD_ISO09W100
 70
     0
  3
ISO long-dash double-short-dash ____ __ __ ____
 72
    65
 73
     6
 40
45.0
 49
24.0
 74
     0
 49
-3.0
 74
     0
 49
6.0
 74
     0
 49
-3.0
 74
     0
 49
6.0
 74
     0
 49
-3.0
 74
     0
  0
LTYPE
  5
AC
330
5
100
AcDbSymbolTableRecord
100
AcDbLinetypeTableRecord
  2
ACAD_ISO10W100
 70
     0
  3
ISO dash dot __ . __ . __ . __ . __ . __ . __ .
 72
    65
 73
     4
 40
18.0
 49
12.0
 74
     0
 49
-3.0
 74
     0
 49
0.0
 74
     0
 49
-3.0
 74
     0
  0
LTYPE
  5
AD
330
5
100
AcDbSymbolTableRecord
100
AcDbLinetypeTableRecord
  2
ACAD_ISO11W100
 70
     0
  3
ISO double-dash dot __ __ . __ __ . __ __ . __ 
 72
    65
 73
     6
 40
33.0
 49
12.0
 74
     0
 49
-3.0
 74
     0
 49
12.0
 74
     0
 49
-3.0
 74
     0
 49
0.0
 74
     0
 49
-3.0
 74
     0
  0
LTYPE
  5
AE
330
5
100
AcDbSymbolTableRecord
100
AcDbLinetypeTableRecord
  2
ACAD_ISO12W100
 70
     0
  3
ISO dash double-dot __ . . __ . . __ . . __ . .
 72
    65
 73
     6
 40
21.0
 49
12.0
 74
     0
 49
-3.0
 74
     0
 49
0.0
 74
     0
 49
-3.0
 74
     0
 49
0.0
 74
     0
 49
-3.0
 74
     0
  0
LTYPE
  5
AF
330
5
100
AcDbSymbolTableRecord
100
AcDbLinetypeTableRecord
  2
ACAD_ISO13W100
 70
     0
  3
ISO double-dash double-dot __ __ . . __ __ . . 
 72
    65
 73
     8
 40
36.0
 49
12.0
 74
     0
 49
-3.0
 74
     0
 49
12.0
 74
     0
 49
-3.0
 74
     0
 49
0.0
 74
     0
 49
-3.0
 74
     0
 49
0.0
 74
     0
 49
-3.0
 74
     0
  0
LTYPE
  5
B0
330
5
100
AcDbSymbolTableRecord
100
AcDbLinetypeTableRecord
  2
ACAD_ISO14W100
 70
     0
  3
ISO dash triple-dot __ . . . __ . . . __ . . . 
 72
    65
 73
     8
 40
24.0
 49
12.0
 74
     0
 49
-3.0
 74
     0
 49
0.0
 74
     0
 49
-3.0
 74
     0
 49
0.0
 74
     0
 49
-3.0
 74
     0
 49
0.0
 74
     0
 49
-3.0
 74
     0
  0
LTYPE
  5
B1
330
5
100
AcDbSymbolTableRecord
100
AcDbLinetypeTableRecord
  2
ACAD_ISO15W100
 70
     0
  3
ISO double-dash triple-dot __ __ . . . __ __ . 
 72
    65
 73
    10
 40
39.0
 49
12.0
 74
     0
 49
-3.0
 74
     0
 49
12.0
 74
     0
 49
-3.0
 74
     0
 49
0.0
 74
     0
 49
-3.0
 74
     0
 49
0.0
 74
     0
 49
-3.0
 74
     0
 49
0.0
 74
     0
 49
-3.0
 74
     0
  0
LTYPE
  5
B4
330
5
100
AcDbSymbolTableRecord
100
AcDbLinetypeTableRecord
  2
FENCELINE1
 70
     0
  3
Fenceline circle ----0-----0----0-----0----0---
 72
    65
 73
     4
 40
36.83
 49
6.349999999999999
 74
     0
 49
-2.54
 74
     4
 75
   133
340
B3
 46
2.54
 50
0.0
 44
-2.54
 45
0.0
 49
-2.54
 74
     0
 49
25.4
 74
     0
  0
LTYPE
  5
B5
330
5
100
AcDbSymbolTableRecord
100
AcDbLinetypeTableRecord
  2
FENCELINE2
 70
     0
  3
Fenceline square ----[]-----[]----[]-----[]----
 72
    65
 73
     4
 40
36.83
 49
6.349999999999999
 74
     0
 49
-2.54
 74
     4
 75
   132
340
B3
 46
2.54
 50
0.0
 44
-2.54
 45
0.0
 49
-2.54
 74
     0
 49
25.4
 74
     0
  0
LTYPE
  5
B6
330
5
100
AcDbSymbolTableRecord
100
AcDbLinetypeTableRecord
  2
TRACKS
 70
     0
  3
Tracks -|-|-|-|-|-|-|-|-|-|-|-|-|-|-|-|-|-|-|-|
 72
    65
 73
     2
 40
7.62
 49
3.81
 74
     4
 75
   130
340
B3
 46
6.349999999999999
 50
0.0
 44
0.0
 45
0.0
 49
3.81
 74
     0
  0
LTYPE
  5
B7
330
5
100
AcDbSymbolTableRecord
100
AcDbLinetypeTableRecord
  2
BATTING
 70
     0
  3
Batting SSSSSSSSSSSSSSSSSSSSSSSSSSSSSSSSSSSSSSS
 72
    65
 73
     4
 40
10.16254
 49
0.00254
 74
     0
 49
-2.54
 74
     4
 75
   134
340
B3
 46
2.54
 50
0.0
 44
-2.54
 45
0.0
 49
-5.08
 74
     4
 75
   134
340
B3
 46
2.54
 50
180.0
 44
2.54
 45
0.0
 49
-2.54
 74
     0
  0
LTYPE
  5
B8
330
5
100
AcDbSymbolTableRecord
100
AcDbLinetypeTableRecord
  2
HOT_WATER_SUPPLY
 70
     0
  3
Hot water supply ---- HW ---- HW ---- HW ----
 72
    65
 73
     3
 40
22.86
 49
12.7
 74
     0
 49
-5.08
 74
     2
 75
     0
340
60
 46
2.54
 50
0.0
 44
-2.54
 45
-1.27
  9
HW
 49
-5.08
 74
     0
  0
LTYPE
  5
B9
330
5
100
AcDbSymbolTableRecord
100
AcDbLinetypeTableRecord
  2
GAS_LINE
 70
     0
  3
Gas line ----GAS----GAS----GAS----GAS----GAS---
 72
    65
 73
     3
 40
24.13
 49
12.7
 74
     0
 49
-5.08
 74
     2
 75
     0
340
60
 46
2.54
 50
0.0
 44
-2.54
 45
-1.27
  9
GAS
 49
-6.349999999999999
 74
     0
  0
LTYPE
  5
BA
330
5
100
AcDbSymbolTableRecord
100
AcDbLinetypeTableRecord
  2
ZIGZAG
 70
     0
  3
Zig zag /\/\/\/\/\/\/\/\/\/\/\/\/\/\/\/\/\/\/\/
 72
    65
 73
     4
 40
20.32254
 49
0.00254
 74
     0
 49
-5.08
 74
     4
 75
   131
340
B3
 46
5.08
 50
0.0
 44
-5.08
 45
0.0
 49
-10.16
 74
     4
 75
   131
340
B3
 46
5.08
 50
180.0
 44
5.08
 45
0.0
 49
-5.08
 74
     0
  0
LTYPE
  5
A36
330
5
100
AcDbSymbolTableRecord
100
AcDbLinetypeTableRecord
  2
AM_ISO02W050
 70
     0
  3
__ __ __ __ __ __ __ __ __ __ __ __ __ __ __
 72
    65
 73
     2
 40
7.5
 49
6.0
 74
     0
 49
-1.5
 74
     0
  0
LTYPE
  5
A37
330
5
100
AcDbSymbolTableRecord
100
AcDbLinetypeTableRecord
  2
AM_ISO08W050
 70
     0
  3
____ . ____ . ____ . ____ . ____ . ____ . ____
 72
    65
 73
     4
 40
18.0
 49
12.0
 74
     0
 49
-1.5
 74
     0
 49
3.0
 74
     0
 49
-1.5
 74
     0
  0
LTYPE
  5
A38
330
5
100
AcDbSymbolTableRecord
100
AcDbLinetypeTableRecord
  2
AM_ISO09W050
 70
     0
  3
_____ . . _____ . . _____ . . ____ .. ____
 72
    65
 73
     6
 40
22.5
 49
12.0
 74
     0
 49
-1.5
 74
     0
 49
3.0
 74
     0
 49
-1.5
 74
     0
 49
3.0
 74
     0
 49
-1.5
 74
     0
  0
LTYPE
  5
A39
330
5
100
AcDbSymbolTableRecord
100
AcDbLinetypeTableRecord
  2
Amconstr
 70
     0
  3
_______________________
 72
    65
 73
     2
 40
9999.0
 49
9999.0
 74
     0
 49
0.0
 74
     0
  0
LTYPE
  5
A3A
330
5
100
AcDbSymbolTableRecord
100
AcDbLinetypeTableRecord
  2
AM_ISO08W050x2
 70
     0
  3
__ . __ . __ . __ . __ . __
 72
    65
 73
     4
 40
9.0
 49
6.0
 74
     0
 49
-0.75
 74
     0
 49
1.5
 74
     0
 49
-0.75
 74
     0
  0
LTYPE
  5
A3B
330
5
100
AcDbSymbolTableRecord
100
AcDbLinetypeTableRecord
  2
AM_ISO02W050x2
 70
     0
  3
 _ _ _ _ _ _ _ _ _ _ _ _
 72
    65
 73
     2
 40
3.75
 49
3.0
 74
     0
 49
-0.75
 74
     0
  0
LTYPE
  5
A3E
330
5
100
AcDbSymbolTableRecord
100
AcDbLinetypeTableRecord
  2
Amzigzag
 70
     0
  3
/\/-/\/-/\/-/\/-/\/-/\/
 72
    65
 73
     2
 40
11.0001
 49
0.0001
 74
     4
 75
   136
340
A3D
 46
0.04
 50
0.0
 44
0.0
 45
0.0
 49
-11.0
 74
     0
  0
LTYPE
  5
A42
330
5
100
AcDbSymbolTableRecord
100
AcDbLinetypeTableRecord
  2
ACISOWELD
 70
     0
  3
_ _ _ _ _
 72
    65
 73
     2
 40
2.0
 49
2.0
 74
     0
 49
-1.0
 74
     0
  0
LTYPE
  5
A43
330
5
100
AcDbSymbolTableRecord
100
AcDbLinetypeTableRecord
  2
ACISOTGB
 70
     0
  3
__ . . __ . .
 72
    65
 73
     6
 40
9.0
 49
4.0
 74
     0
 49
-1.0
 74
     0
 49
1.0
 74
     0
 49
-1.0
 74
     0
 49
1.0
 74
     0
 49
-1.0
 74
     0
  0
LTYPE
  5
A44
330
5
100
AcDbSymbolTableRecord
100
AcDbLinetypeTableRecord
  2
ACISOTGL
 70
     0
  3
_ _ _ _ _
 72
    65
 73
     2
 40
3.0
 49
2.0
 74
     0
 49
-1.0
 74
     0
  0
ENDTAB
  0
TABLE
  2
LAYER
  5
2
330
0
100
AcDbSymbolTable
 70
     7
  0
LAYER
  5
5F
330
2
100
AcDbSymbolTableRecord
100
AcDbLayerTableRecord
  2
0
 70
     0
 62
     7
  6
Continuous
370
    -3
390
F
  0
LAYER
  5
BB
330
2
100
AcDbSymbolTableRecord
100
AcDbLayerTableRecord
  2
AM_0
 70
     0
 62
   179
  6
Continuous
370
    35
390
F
  0
LAYER
  5
BF
330
2
100
AcDbSymbolTableRecord
100
AcDbLayerTableRecord
  2
AM_5
 70
     0
 62
     3
  6
Continuous
370
    18
390
F
  0
LAYER
  5
C1
330
2
100
AcDbSymbolTableRecord
100
AcDbLayerTableRecord
  2
AM_8
 70
     0
 62
     1
  6
Continuous
370
    18
390
F
  0
LAYER
  5
E3
330
2
100
AcDbSymbolTableRecord
100
AcDbLayerTableRecord
  2
I-AM_0
 70
     0
 62
   179
  6
Continuous
370
    35
390
F
  0
LAYER
  5
E5
330
2
100
AcDbSymbolTableRecord
100
AcDbLayerTableRecord
  2
II-AM_0
 70
     0
 62
   179
  6
Continuous
370
    18
390
F
  0
LAYER
  5
2D6
330
2
100
AcDbSymbolTableRecord
100
AcDbLayerTableRecord
  2
Defpoints
 70
     0
 62
     7
  6
Continuous
290
     0
370
    -3
390
F
  0
ENDTAB
  0
TABLE
  2
STYLE
  5
3
330
0
100
AcDbSymbolTable
 70
    66
  0
STYLE
  5
60
330
3
100
AcDbSymbolTableRecord
100
AcDbTextStyleTableRecord
  2
Standard
 70
     0
 40
0.0
 41
1.0
 50
0.0
 71
     0
 42
0.2
  3
ARIAL.TTF
  4

1001
ACAD
1000
Arial
1071
      256
  0
STYLE
  5
65
330
3
100
AcDbSymbolTableRecord
100
AcDbTextStyleTableRecord
  2
Annotative
 70
     0
 40
0.0
 41
1.0
 50
0.0
 71
     0
 42
0.2
  3
txt
  4

1001
AcadAnnotative
1000
AnnotativeData
1002
{
1070
     1
1070
     1
1002
}
  0
STYLE
  5
B3
330
3
100
AcDbSymbolTableRecord
100
AcDbTextStyleTableRecord
  2

 70
     1
 40
0.0
 41
1.0
 50
0.0
 71
     0
 42
0.2
  3
ltypeshp.shx
  4

  0
STYLE
  5
18B
330
3
100
AcDbSymbolTableRecord
100
AcDbTextStyleTableRecord
  2
Bordo_1
 70
     0
 40
0.0
 41
1.0
 50
0.0
 71
     0
 42
0.2
  3
ARIAL.TTF
  4

1001
ACAD
1000
Arial
1071
      256
  0
STYLE
  5
18C
330
3
100
AcDbSymbolTableRecord
100
AcDbTextStyleTableRecord
  2
Corrente-ANSI
 70
     0
 40
0.0
 41
1.0
 50
0.0
 71
     0
 42
0.2
  3
ARIAL.TTF
  4

1001
ACAD
1000
Arial
1071
      256
  0
STYLE
  5
18D
330
3
100
AcDbSymbolTableRecord
100
AcDbTextStyleTableRecord
  2
Corrente-BSI
 70
     0
 40
0.0
 41
1.0
 50
0.0
 71
     0
 42
0.2
  3
ARIAL.TTF
  4

1001
ACAD
1000
Arial
1071
      256
  0
STYLE
  5
18E
330
3
100
AcDbSymbolTableRecord
100
AcDbTextStyleTableRecord
  2
Corrente-DIN
 70
     0
 40
0.0
 41
1.0
 50
0.0
 71
     0
 42
0.2
  3
ARIAL.TTF
  4

1001
ACAD
1000
Arial
1071
      256
  0
STYLE
  5
18F
330
3
100
AcDbSymbolTableRecord
100
AcDbTextStyleTableRecord
  2
Corrente-GB
 70
     0
 40
0.0
 41
1.0
 50
0.0
 71
     0
 42
0.2
  3
ARIAL.TTF
  4

1001
ACAD
1000
Arial
1071
      256
  0
STYLE
  5
190
330
3
100
AcDbSymbolTableRecord
100
AcDbTextStyleTableRecord
  2
Corrente-ISO
 70
     0
 40
0.0
 41
1.0
 50
0.0
 71
     0
 42
0.2
  3
ARIAL.TTF
  4

1001
ACAD
1000
Arial
1071
      256
  0
STYLE
  5
191
330
3
100
AcDbSymbolTableRecord
100
AcDbTextStyleTableRecord
  2
Corrente-JIS
 70
     0
 40
0.0
 41
1.0
 50
0.0
 71
     0
 42
0.2
  3
ARIAL.TTF
  4

1001
ACAD
1000
Arial
1071
      256
  0
STYLE
  5
192
330
3
100
AcDbSymbolTableRecord
100
AcDbTextStyleTableRecord
  2
DEFAULT-ANSI
 70
     0
 40
0.0
 41
1.0
 50
0.0
 71
     0
 42
0.2
  3
ARIAL.TTF
  4

1001
ACAD
1000
Arial
1071
      256
  0
STYLE
  5
193
330
3
100
AcDbSymbolTableRecord
100
AcDbTextStyleTableRecord
  2
DEFAULT-ANSI~0
 70
     0
 40
0.0
 41
1.0
 50
0.0
 71
     0
 42
0.2
  3
ARIAL.TTF
  4

1001
ACAD
1000
Arial
1071
      256
  0
STYLE
  5
194
330
3
100
AcDbSymbolTableRecord
100
AcDbTextStyleTableRecord
  2
DEFAULT-ANSIDa layer
 70
     0
 40
0.0
 41
1.0
 50
0.0
 71
     0
 42
0.2
  3
ARIAL.TTF
  4

1001
ACAD
1000
Arial
1071
      256
  0
STYLE
  5
195
330
3
100
AcDbSymbolTableRecord
100
AcDbTextStyleTableRecord
  2
DEFAULT-ANSITesto caratteri grandi
 70
     0
 40
0.0
 41
1.0
 50
0.0
 71
     0
 42
0.2
  3
ARIAL.TTF
  4

1001
ACAD
1000
Arial
1071
      256
  0
STYLE
  5
196
330
3
100
AcDbSymbolTableRecord
100
AcDbTextStyleTableRecord
  2
DEFAULT-BSI
 70
     0
 40
0.0
 41
1.0
 50
0.0
 71
     0
 42
0.2
  3
ARIAL.TTF
  4

1001
ACAD
1000
Arial
1071
      256
  0
STYLE
  5
197
330
3
100
AcDbSymbolTableRecord
100
AcDbTextStyleTableRecord
  2
DEFAULT-BSIDa layer
 70
     0
 40
0.0
 41
1.0
 50
0.0
 71
     0
 42
0.2
  3
ARIAL.TTF
  4

1001
ACAD
1000
Arial
1071
      256
  0
STYLE
  5
198
330
3
100
AcDbSymbolTableRecord
100
AcDbTextStyleTableRecord
  2
DEFAULT-BSITesto caratteri grandi
 70
     0
 40
0.0
 41
1.0
 50
0.0
 71
     0
 42
0.2
  3
ARIAL.TTF
  4

1001
ACAD
1000
Arial
1071
      256
  0
STYLE
  5
199
330
3
100
AcDbSymbolTableRecord
100
AcDbTextStyleTableRecord
  2
DEFAULT-DIN
 70
     0
 40
0.0
 41
1.0
 50
0.0
 71
     0
 42
0.2
  3
ARIAL.TTF
  4

1001
ACAD
1000
Arial
1071
      256
  0
STYLE
  5
19A
330
3
100
AcDbSymbolTableRecord
100
AcDbTextStyleTableRecord
  2
DEFAULT-DINDa layer
 70
     0
 40
0.0
 41
1.0
 50
0.0
 71
     0
 42
0.2
  3
ARIAL.TTF
  4

1001
ACAD
1000
Arial
1071
      256
  0
STYLE
  5
19B
330
3
100
AcDbSymbolTableRecord
100
AcDbTextStyleTableRecord
  2
DEFAULT-DINTesto caratteri grandi
 70
     0
 40
0.0
 41
1.0
 50
0.0
 71
     0
 42
0.2
  3
ARIAL.TTF
  4

1001
ACAD
1000
Arial
1071
      256
  0
STYLE
  5
19C
330
3
100
AcDbSymbolTableRecord
100
AcDbTextStyleTableRecord
  2
DEFAULT-GB
 70
     0
 40
0.0
 41
1.0
 50
0.0
 71
     0
 42
0.2
  3
ARIAL.TTF
  4

1001
ACAD
1000
Arial
1071
      256
  0
STYLE
  5
19D
330
3
100
AcDbSymbolTableRecord
100
AcDbTextStyleTableRecord
  2
DEFAULT-GBDa layer
 70
     0
 40
0.0
 41
1.0
 50
0.0
 71
     0
 42
0.2
  3
ARIAL.TTF
  4

1001
ACAD
1000
Arial
1071
      256
  0
STYLE
  5
19E
330
3
100
AcDbSymbolTableRecord
100
AcDbTextStyleTableRecord
  2
DEFAULT-GBTesto caratteri grandi
 70
     0
 40
0.0
 41
1.0
 50
0.0
 71
     0
 42
0.2
  3
ARIAL.TTF
  4

1001
ACAD
1000
Arial
1071
      256
  0
STYLE
  5
19F
330
3
100
AcDbSymbolTableRecord
100
AcDbTextStyleTableRecord
  2
DEFAULT-ISO
 70
     0
 40
0.0
 41
1.0
 50
0.0
 71
     0
 42
0.2
  3
ARIAL.TTF
  4

1001
ACAD
1000
Arial
1071
      256
  0
STYLE
  5
1A0
330
3
100
AcDbSymbolTableRecord
100
AcDbTextStyleTableRecord
  2
DEFAULT-ISO~0
 70
     0
 40
0.0
 41
1.0
 50
0.0
 71
     0
 42
0.2
  3
ARIAL.TTF
  4

1001
ACAD
1000
Arial
1071
      256
  0
STYLE
  5
1A1
330
3
100
AcDbSymbolTableRecord
100
AcDbTextStyleTableRecord
  2
DEFAULT-ISODa layer
 70
     0
 40
0.0
 41
1.0
 50
0.0
 71
     0
 42
0.2
  3
ARIAL.TTF
  4

1001
ACAD
1000
Arial
1071
      256
  0
STYLE
  5
1A2
330
3
100
AcDbSymbolTableRecord
100
AcDbTextStyleTableRecord
  2
DEFAULT-ISOTesto caratteri grandi
 70
     0
 40
0.0
 41
1.0
 50
0.0
 71
     0
 42
0.2
  3
ARIAL.TTF
  4

1001
ACAD
1000
Arial
1071
      256
  0
STYLE
  5
1A3
330
3
100
AcDbSymbolTableRecord
100
AcDbTextStyleTableRecord
  2
DEFAULT-JIS
 70
     0
 40
0.0
 41
1.0
 50
0.0
 71
     0
 42
0.2
  3
ARIAL.TTF
  4

1001
ACAD
1000
Arial
1071
      256
  0
STYLE
  5
1A4
330
3
100
AcDbSymbolTableRecord
100
AcDbTextStyleTableRecord
  2
DEFAULT-JIS~0
 70
     0
 40
0.0
 41
1.0
 50
0.0
 71
     0
 42
0.2
  3
ARIAL.TTF
  4

1001
ACAD
1000
Arial
1071
      256
  0
STYLE
  5
1A5
330
3
100
AcDbSymbolTableRecord
100
AcDbTextStyleTableRecord
  2
DEFAULT-JISDa layer
 70
     0
 40
0.0
 41
1.0
 50
0.0
 71
     0
 42
0.2
  3
ARIAL.TTF
  4

1001
ACAD
1000
Arial
1071
      256
  0
STYLE
  5
1A6
330
3
100
AcDbSymbolTableRecord
100
AcDbTextStyleTableRecord
  2
DEFAULT-JISTesto caratteri grandi
 70
     0
 40
0.0
 41
1.0
 50
0.0
 71
     0
 42
0.2
  3
ARIAL.TTF
  4

1001
ACAD
1000
Arial
1071
      256
  0
STYLE
  5
1A7
330
3
100
AcDbSymbolTableRecord
100
AcDbTextStyleTableRecord
  2
ISOCADMEC_1-1
 70
     0
 40
0.0
 41
1.064000010490417
 50
0.0
 71
     0
 42
0.2
  3
ARIAL.TTF
  4

1001
ACAD
1000
Arial
1071
      256
  0
STYLE
  5
1A8
330
3
100
AcDbSymbolTableRecord
100
AcDbTextStyleTableRecord
  2
MM-ANSI
 70
     0
 40
0.0
 41
1.0
 50
0.0
 71
     0
 42
0.2
  3
ARIAL.TTF
  4

1001
ACAD
1000
Arial
1071
      256
  0
STYLE
  5
1A9
330
3
100
AcDbSymbolTableRecord
100
AcDbTextStyleTableRecord
  2
STANDARDAM_ISO
 70
     0
 40
0.0
 41
1.064000010490417
 50
0.0
 71
     0
 42
0.2
  3
ISOCP.shx
  4

  0
STYLE
  5
1AA
330
3
100
AcDbSymbolTableRecord
100
AcDbTextStyleTableRecord
  2
STANDARDAM_ISO$3
 70
     0
 40
0.0
 41
1.064000010490417
 50
0.0
 71
     0
 42
0.2
  3
ISOCP.shx
  4

  0
STYLE
  5
1AB
330
3
100
AcDbSymbolTableRecord
100
AcDbTextStyleTableRecord
  2
STANDARDAM_ISO$4
 70
     0
 40
0.0
 41
1.064000010490417
 50
0.0
 71
     0
 42
0.2
  3
ISOCP.shx
  4

  0
STYLE
  5
1AC
330
3
100
AcDbSymbolTableRecord
100
AcDbTextStyleTableRecord
  2
STANDARDAM_ISO$6
 70
     0
 40
0.0
 41
1.064000010490417
 50
0.0
 71
     0
 42
0.2
  3
ISOCP.shx
  4

  0
STYLE
  5
1AD
330
3
100
AcDbSymbolTableRecord
100
AcDbTextStyleTableRecord
  2
STANDARDAM_ISO$7
 70
     0
 40
0.0
 41
1.064000010490417
 50
0.0
 71
     0
 42
0.2
  3
ISOCP.shx
  4

  0
STYLE
  5
1AE
330
3
100
AcDbSymbolTableRecord
100
AcDbTextStyleTableRecord
  2
STANDARDAM_ISO$SF
 70
     0
 40
0.0
 41
1.064000010490417
 50
0.0
 71
     0
 42
0.2
  3
ISOCP.shx
  4

  0
STYLE
  5
1AF
330
3
100
AcDbSymbolTableRecord
100
AcDbTextStyleTableRecord
  2
STANDARDAM_ISO$SH
 70
     0
 40
0.0
 41
1.064000010490417
 50
0.0
 71
     0
 42
0.2
  3
ISOCP.shx
  4

  0
STYLE
  5
1B0
330
3
100
AcDbSymbolTableRecord
100
AcDbTextStyleTableRecord
  2
STANDARDGEN-ISO
 70
     0
 40
0.0
 41
1.064000010490417
 50
0.0
 71
     0
 42
0.2
  3
ISOCP.shx
  4

  0
STYLE
  5
1B1
330
3
100
AcDbSymbolTableRecord
100
AcDbTextStyleTableRecord
  2
STANDARDGEN-ISO-AXE-F
 70
     0
 40
0.0
 41
1.064000010490417
 50
0.0
 71
     0
 42
0.2
  3
ISOCP.shx
  4

  0
STYLE
  5
1B2
330
3
100
AcDbSymbolTableRecord
100
AcDbTextStyleTableRecord
  2
STANDARDGEN-ISO-AXE-H
 70
     0
 40
0.0
 41
1.064000010490417
 50
0.0
 71
     0
 42
0.2
  3
ISOCP.shx
  4

  0
STYLE
  5
1B3
330
3
100
AcDbSymbolTableRecord
100
AcDbTextStyleTableRecord
  2
STANDARDGEN-ISO-POS
 70
     0
 40
0.0
 41
1.064000010490417
 50
0.0
 71
     0
 42
0.2
  3
ISOCP.shx
  4

  0
STYLE
  5
1B4
330
3
100
AcDbSymbolTableRecord
100
AcDbTextStyleTableRecord
  2
STANDARDGEN-ISO$3
 70
     0
 40
0.0
 41
1.064000010490417
 50
0.0
 71
     0
 42
0.2
  3
ISOCP.shx
  4

  0
STYLE
  5
1B5
330
3
100
AcDbSymbolTableRecord
100
AcDbTextStyleTableRecord
  2
STANDARDGEN-ISO$4
 70
     0
 40
0.0
 41
1.064000010490417
 50
0.0
 71
     0
 42
0.2
  3
ISOCP.shx
  4

  0
STYLE
  5
1B6
330
3
100
AcDbSymbolTableRecord
100
AcDbTextStyleTableRecord
  2
STANDARDGEN-ISO$6
 70
     0
 40
0.0
 41
1.064000010490417
 50
0.0
 71
     0
 42
0.2
  3
ISOCP.shx
  4

  0
STYLE
  5
1B7
330
3
100
AcDbSymbolTableRecord
100
AcDbTextStyleTableRecord
  2
STANDARDISO-25
 70
     0
 40
0.0
 41
1.064000010490417
 50
0.0
 71
     0
 42
0.2
  3
ISOCP.shx
  4

  0
STYLE
  5
1B8
330
3
100
AcDbSymbolTableRecord
100
AcDbTextStyleTableRecord
  2
STANDARDISO-35
 70
     0
 40
0.0
 41
1.064000010490417
 50
0.0
 71
     0
 42
0.2
  3
ISOCP.shx
  4

  0
STYLE
  5
1B9
330
3
100
AcDbSymbolTableRecord
100
AcDbTextStyleTableRecord
  2
STANDARDISO-5
 70
     0
 40
0.0
 41
1.064000010490417
 50
0.0
 71
     0
 42
0.2
  3
ISOCP.shx
  4

  0
STYLE
  5
1BA
330
3
100
AcDbSymbolTableRecord
100
AcDbTextStyleTableRecord
  2
STANDARDISO-7
 70
     0
 40
0.0
 41
1.064000010490417
 50
0.0
 71
     0
 42
0.2
  3
ISOCP.shx
  4

  0
STYLE
  5
1BB
330
3
100
AcDbSymbolTableRecord
100
AcDbTextStyleTableRecord
  2
STANDARDISO1
 70
     0
 40
0.0
 41
1.064000010490417
 50
0.0
 71
     0
 42
0.2
  3
ISOCP.shx
  4

  0
STYLE
  5
1BC
330
3
100
AcDbSymbolTableRecord
100
AcDbTextStyleTableRecord
  2
STANDARDISO1-4
 70
     0
 40
0.0
 41
1.064000010490417
 50
0.0
 71
     0
 42
0.2
  3
ISOCP.shx
  4

  0
STYLE
  5
1BD
330
3
100
AcDbSymbolTableRecord
100
AcDbTextStyleTableRecord
  2
STANDARDISO2
 70
     0
 40
0.0
 41
1.064000010490417
 50
0.0
 71
     0
 42
0.2
  3
ISOCP.shx
  4

  0
STYLE
  5
1BE
330
3
100
AcDbSymbolTableRecord
100
AcDbTextStyleTableRecord
  2
STANDARDSTANDARD
 70
     0
 40
0.0
 41
1.064000010490417
 50
0.0
 71
     0
 42
0.2
  3
ISOCP.shx
  4

  0
STYLE
  5
1BF
330
3
100
AcDbSymbolTableRecord
100
AcDbTextStyleTableRecord
  2
X . XXX
 70
     0
 40
0.0
 41
1.0
 50
0.0
 71
     0
 42
0.2
  3
ARIAL.TTF
  4

1001
ACAD
1000
Arial
1071
      256
  0
STYLE
  5
1C0
330
3
100
AcDbSymbolTableRecord
100
AcDbTextStyleTableRecord
  2
X.X spazio grande e testo
 70
     0
 40
0.0
 41
1.0
 50
0.0
 71
     0
 42
0.2
  3
ARIAL.TTF
  4

1001
ACAD
1000
Arial
1071
      256
  0
STYLE
  5
27C
330
3
100
AcDbSymbolTableRecord
100
AcDbTextStyleTableRecord
  2
Stile testo15
 70
     0
 40
0.0
 41
1.0
 50
0.0
 71
     0
 42
0.2
  3
ARIAL.TTF
  4

1001
ACAD
1000
Arial
1071
      256
  0
STYLE
  5
281
330
3
100
AcDbSymbolTableRecord
100
AcDbTextStyleTableRecord
  2
Stile testo116
 70
     0
 40
0.0
 41
0.899999976158142
 50
0.0
 71
     0
 42
0.2
  3
ARIAL.TTF
  4

1001
ACAD
1000
Arial
1071
      256
  0
STYLE
  5
283
330
3
100
AcDbSymbolTableRecord
100
AcDbTextStyleTableRecord
  2
Stile testo115
 70
     0
 40
0.0
 41
0.899999976158142
 50
0.0
 71
     0
 42
0.2
  3
ARIAL.TTF
  4

1001
ACAD
1000
Arial
1071
      256
  0
STYLE
  5
866
330
3
100
AcDbSymbolTableRecord
100
AcDbTextStyleTableRecord
  2
Stile testo6
 70
     0
 40
0.0
 41
1.0
 50
0.0
 71
     0
 42
0.2
  3
ARIAL.TTF
  4

1001
ACAD
1000
Arial
1071
      256
  0
STYLE
  5
869
330
3
100
AcDbSymbolTableRecord
100
AcDbTextStyleTableRecord
  2
Stile testo135
 70
     0
 40
0.0
 41
0.75
 50
0.0
 71
     0
 42
0.2
  3

  4

1001
ACAD
1000
Arial Black
1071
      256
  0
STYLE
  5
A3D
330
3
100
AcDbSymbolTableRecord
100
AcDbTextStyleTableRecord
  2

 70
     1
 40
0.0
 41
1.0
 50
0.0
 71
     0
 42
0.2
  3
genltshp.shx
  4

  0
STYLE
  5
A40
330
3
100
AcDbSymbolTableRecord
100
AcDbTextStyleTableRecord
  2
ACISOTS
 70
     0
 40
1.0
 41
1.0
 50
0.0
 71
     0
 42
0.2
  3
isocp.shx
  4

  0
STYLE
  5
A41
330
3
100
AcDbSymbolTableRecord
100
AcDbTextStyleTableRecord
  2
ACISOGDT
 70
     0
 40
0.0
 41
1.0
 50
0.0
 71
     0
 42
0.2
  3
amgdt.shx
  4

  0
ENDTAB
  0
TABLE
  2
VIEW
  5
6
330
0
100
AcDbSymbolTable
 70
     0
  0
ENDTAB
  0
TABLE
  2
UCS
  5
7
330
0
100
AcDbSymbolTable
 70
     0
  0
ENDTAB
  0
TABLE
  2
APPID
  5
9
330
0
100
AcDbSymbolTable
 70
    15
  0
APPID
  5
61
330
9
100
AcDbSymbolTableRecord
100
AcDbRegAppTableRecord
  2
ACAD
 70
     0
  0
APPID
  5
69
330
9
100
AcDbSymbolTableRecord
100
AcDbRegAppTableRecord
  2
AcadAnnotative
 70
     0
  0
APPID
  5
27F
330
9
100
AcDbSymbolTableRecord
100
AcDbRegAppTableRecord
  2
AcadAnnoPO
 70
     0
  0
APPID
  5
7D8
330
9
100
AcDbSymbolTableRecord
100
AcDbRegAppTableRecord
  2
ACAD_DSTYLE_DIMRADIAL_EXTENSION
 70
     0
  0
APPID
  5
98B
330
9
100
AcDbSymbolTableRecord
100
AcDbRegAppTableRecord
  2
ACAD_MLEADERVER
 70
     0
  0
APPID
  5
9C2
330
9
100
AcDbSymbolTableRecord
100
AcDbRegAppTableRecord
  2
MCAD_NO_VIS
 70
     0
  0
APPID
  5
9C3
330
9
100
AcDbSymbolTableRecord
100
AcDbRegAppTableRecord
  2
ACAD_TEMP_GRAPHIC
 70
     0
  0
APPID
  5
9F0
330
9
100
AcDbSymbolTableRecord
100
AcDbRegAppTableRecord
  2
AD_DRAW
 70
     0
  0
APPID
  5
9F3
330
9
100
AcDbSymbolTableRecord
100
AcDbRegAppTableRecord
  2
ACATTRIBSERVICES
 70
     0
  0
APPID
  5
A13
330
9
100
AcDbSymbolTableRecord
100
AcDbRegAppTableRecord
  2
DESIGNERASSEMBLIES
 70
     0
  0
APPID
  5
A19
330
9
100
AcDbSymbolTableRecord
100
AcDbRegAppTableRecord
  2
ACADM_DIM_EDIT
 70
     0
  0
APPID
  5
A1A
330
9
100
AcDbSymbolTableRecord
100
AcDbRegAppTableRecord
  2
AMDT_DM_ADJ
 70
     0
  0
APPID
  5
A32
330
9
100
AcDbSymbolTableRecord
100
AcDbRegAppTableRecord
  2
ACAD_DSTYLE_DIMBREAK
 70
     0
  0
APPID
  5
A33
330
9
100
AcDbSymbolTableRecord
100
AcDbRegAppTableRecord
  2
ACAD_DSTYLE_DIMJAG
 70
     0
  0
APPID
  5
A52
330
9
100
AcDbSymbolTableRecord
100
AcDbRegAppTableRecord
  2
ACAD_PSEXT
 70
     0
  0
ENDTAB
  0
TABLE
  2
DIMSTYLE
  5
A
330
0
100
AcDbSymbolTable
 70
   101
100
AcDbDimStyleTable
 71
     2
340
63
340
1E5
  0
DIMSTYLE
105
63
330
A
100
AcDbSymbolTableRecord
100
AcDbDimStyleTableRecord
  2
Standard
 70
     0
 40
0.5
 41
2.5
340
60
342
1EE
  0
DIMSTYLE
105
64
330
A
100
AcDbSymbolTableRecord
100
AcDbDimStyleTableRecord
  2
Annotative
 70
     0
340
60
1001
AcadAnnotative
1000
AnnotativeData
1002
{
1070
     1
1070
     1
1002
}
  0
DIMSTYLE
105
1C1
330
A
100
AcDbSymbolTableRecord
100
AcDbDimStyleTableRecord
  2
BSI - Metodo 2
 70
     0
 40
0.5
 41
2.5
 42
0.5
 43
5.999999999999999
 44
2.999999999999999
 45
0.00000001
 46
10.0
 73
     0
 77
     1
 78
     8
 79
     2
140
3.5
143
0.03937
147
0.75
171
     3
172
     1
176
   250
177
   250
178
   250
179
     2
271
     2
272
     2
274
     3
278
    44
285
     8
340
1A0
371
    25
372
    25
  0
DIMSTYLE
105
1C2
330
A
100
AcDbSymbolTableRecord
100
AcDbDimStyleTableRecord
  2
BSI - Metodo 2$7
 70
     0
 40
0.5
 41
2.5
 42
0.5
 43
5.999999999999999
 44
2.999999999999999
 45
0.00000001
 46
10.0
 73
     0
 77
     1
 78
     8
 79
     2
140
3.5
143
0.03937
147
0.75
171
     3
172
     1
176
   179
177
   250
178
   250
179
     2
271
     2
272
     2
274
     3
278
    44
285
     8
340
1A0
371
    25
372
    25
  0
DIMSTYLE
105
1C3
330
A
100
AcDbSymbolTableRecord
100
AcDbDimStyleTableRecord
  2
BSI - Metodo 2Testo caratteri grandi
 70
     0
 40
0.5
 41
5.0
 42
0.5
 43
5.999999999999999
 44
2.999999999999999
 45
0.00000001
 46
10.0
 73
     0
 77
     1
 78
     8
 79
     2
140
5.25
143
0.03937
146
0.6666666666666666
147
0.75
171
     3
172
     1
176
   250
177
   250
178
   179
179
     2
271
     2
272
     2
274
     3
278
    44
285
     8
340
198
371
    25
372
    25
  0
DIMSTYLE
105
1C4
330
A
100
AcDbSymbolTableRecord
100
AcDbDimStyleTableRecord
  2
BSI - Metodo 2Testo caratteri grandi$7
 70
     0
 40
0.5
 41
5.0
 42
0.5
 43
5.999999999999999
 44
2.999999999999999
 45
0.00000001
 46
10.0
 73
     0
 77
     1
 78
     8
 79
     2
140
5.25
143
0.03937
146
0.6666666666666666
147
0.75
171
     3
172
     1
176
   179
177
   250
178
   179
179
     2
271
     2
272
     2
274
     3
278
    44
285
     8
340
198
371
    25
372
    25
  0
DIMSTYLE
105
1D3
330
A
100
AcDbSymbolTableRecord
100
AcDbDimStyleTableRecord
  2
DEFAULT-GB
 70
     0
 40
0.5
 41
4.0
 42
0.0
 43
5.999999999999999
 44
5.0
 45
0.00000001
 46
10.0
 73
     0
 74
     0
 77
     1
 78
     8
 79
     2
140
3.5
143
0.03937
147
0.75
171
     3
172
     1
176
   250
177
   250
178
   250
179
     3
271
     2
272
     2
274
     3
275
     1
285
     8
340
1A0
341
1C5
342
1C5
371
    25
372
    25
  0
DIMSTYLE
105
1D4
330
A
100
AcDbSymbolTableRecord
100
AcDbDimStyleTableRecord
  2
DEFAULT-GB$7
 70
     0
 40
0.5
 41
4.0
 42
0.0
 43
5.999999999999999
 44
5.0
 45
0.00000001
 46
10.0
 73
     0
 74
     0
 77
     1
 78
     8
 79
     2
140
3.5
143
0.03937
147
0.75
171
     3
172
     1
176
   179
177
   250
178
   250
179
     3
271
     2
272
     2
274
     3
275
     1
285
     8
340
1A0
341
1C5
342
1C5
371
    25
372
    25
  0
DIMSTYLE
105
1D5
330
A
100
AcDbSymbolTableRecord
100
AcDbDimStyleTableRecord
  2
DEFAULT-GBTesto caratteri grandi
 70
     0
 40
0.5
 41
8.0
 42
0.0
 43
5.999999999999999
 44
5.0
 45
0.00000001
 46
10.0
 73
     0
 74
     0
 77
     1
 78
     8
 79
     2
140
5.25
143
0.03937
146
0.6666666666666666
147
0.75
171
     3
172
     1
176
   250
177
   250
178
   179
179
     3
271
     2
272
     2
274
     3
275
     1
285
     8
340
19E
341
1C5
342
1C5
371
    25
372
    25
  0
DIMSTYLE
105
1D6
330
A
100
AcDbSymbolTableRecord
100
AcDbDimStyleTableRecord
  2
DEFAULT-GBTesto caratteri grandi$7
 70
     0
 40
0.5
 41
8.0
 42
0.0
 43
5.999999999999999
 44
5.0
 45
0.00000001
 46
10.0
 73
     0
 74
     0
 77
     1
 78
     8
 79
     2
140
5.25
143
0.03937
146
0.6666666666666666
147
0.75
171
     3
172
     1
176
   179
177
   250
178
   179
179
     3
271
     2
272
     2
274
     3
275
     1
285
     8
340
19E
341
1C5
342
1C5
371
    25
372
    25
  0
DIMSTYLE
105
1D7
330
A
100
AcDbSymbolTableRecord
100
AcDbDimStyleTableRecord
  2
DEFAULT-JIS - Metodo 2
 70
     0
 40
0.5
 41
2.5
 42
0.0
 43
5.999999999999999
 44
3.174999999999999
 45
0.00000001
 46
10.0
 77
     1
140
4.5
143
0.03937
147
0.8
171
     3
172
     1
176
   250
177
   250
178
   250
271
     2
272
     2
274
     3
340
1A4
341
1D8
342
1D8
371
    25
372
    25
  0
DIMSTYLE
105
1DE
330
A
100
AcDbSymbolTableRecord
100
AcDbDimStyleTableRecord
  2
DEFAULT-JIS - Metodo 2$7
 70
     0
 40
0.5
 41
2.5
 42
0.0
 43
5.999999999999999
 44
3.174999999999999
 45
0.00000001
 46
10.0
 77
     1
140
4.5
143
0.03937
147
0.8
171
     3
172
     1
176
   179
177
   250
178
   250
271
     2
272
     2
274
     3
340
1A4
341
1D8
342
1D8
371
    25
372
    25
  0
DIMSTYLE
105
1DF
330
A
100
AcDbSymbolTableRecord
100
AcDbDimStyleTableRecord
  2
DEFAULT-JIS - Metodo 2Testo caratteri grandi
 70
     0
 40
0.5
 41
5.0
 42
0.0
 43
5.999999999999999
 44
3.174999999999999
 45
0.00000001
 46
10.0
 77
     1
140
6.749999523162841
143
0.03937
146
0.666666713761698
147
0.8
171
     3
172
     1
176
   250
177
   250
178
   179
271
     2
272
     2
274
     3
340
1A6
341
1D8
342
1D8
371
    25
372
    25
  0
DIMSTYLE
105
1E0
330
A
100
AcDbSymbolTableRecord
100
AcDbDimStyleTableRecord
  2
DEFAULT-JIS - Metodo 2Testo caratteri grandi$7
 70
     0
 40
0.5
 41
5.0
 42
0.0
 43
5.999999999999999
 44
3.174999999999999
 45
0.00000001
 46
10.0
 77
     1
140
6.749999523162841
143
0.03937
146
0.666666713761698
147
0.8
171
     3
172
     1
176
   179
177
   250
178
   179
271
     2
272
     2
274
     3
340
1A6
341
1D8
342
1D8
371
    25
372
    25
  0
DIMSTYLE
105
1E1
330
A
100
AcDbSymbolTableRecord
100
AcDbDimStyleTableRecord
  2
DIN - Altro
 70
     0
 40
0.5
 41
2.5
 42
0.0
 43
5.999999999999999
 44
3.174999999999999
 45
0.00000001
 46
10.0
 77
     1
140
3.5
143
0.03937
147
0.8
171
     3
172
     1
176
   250
177
   250
178
   250
271
     2
272
     2
274
     3
278
    44
340
1A0
371
    25
372
    25
  0
DIMSTYLE
105
1E2
330
A
100
AcDbSymbolTableRecord
100
AcDbDimStyleTableRecord
  2
DIN - Altro$7
 70
     0
 40
0.5
 41
2.5
 42
0.0
 43
5.999999999999999
 44
3.174999999999999
 45
0.00000001
 46
10.0
 77
     1
140
3.5
143
0.03937
147
0.8
171
     3
172
     1
176
   179
177
   250
178
   250
271
     2
272
     2
274
     3
278
    44
340
1A0
371
    25
372
    25
  0
DIMSTYLE
105
1E3
330
A
100
AcDbSymbolTableRecord
100
AcDbDimStyleTableRecord
  2
DIN - AltroTesto caratteri grandi
 70
     0
 40
0.5
 41
5.0
 42
0.0
 43
5.999999999999999
 44
3.174999999999999
 45
0.00000001
 46
10.0
 77
     1
140
5.25
143
0.03937
146
0.6666666666666666
147
0.8
171
     3
172
     1
176
   250
177
   250
178
   179
271
     2
272
     2
274
     3
278
    44
340
19B
371
    25
372
    25
  0
DIMSTYLE
105
1E4
330
A
100
AcDbSymbolTableRecord
100
AcDbDimStyleTableRecord
  2
DIN - AltroTesto caratteri grandi$7
 70
     0
 40
0.5
 41
5.0
 42
0.0
 43
5.999999999999999
 44
3.174999999999999
 45
0.00000001
 46
10.0
 77
     1
140
5.25
143
0.03937
146
0.6666666666666666
147
0.8
171
     3
172
     1
176
   179
177
   250
178
   179
271
     2
272
     2
274
     3
278
    44
340
19B
371
    25
372
    25
  0
DIMSTYLE
105
1E5
102
{ACAD_REACTORS
330
2D5
330
3B5
330
4A4
330
593
330
672
330
748
102
}
330
A
100
AcDbSymbolTableRecord
100
AcDbDimStyleTableRecord
  2
MAURO
 70
     0
 40
0.5
 41
2.5
 42
1.0
 43
10.0
 44
1.0
 45
0.00000001
 46
10.0
 73
     0
 77
     1
 78
     8
 79
     2
140
3.5
143
0.03937
146
0.7142857142857144
147
0.762
171
     3
172
     1
176
    96
177
    96
178
     7
179
     3
271
     3
272
     3
274
     3
284
     8
286
     8
340
190
371
    25
372
    25
  0
DIMSTYLE
105
1E6
330
A
100
AcDbSymbolTableRecord
100
AcDbDimStyleTableRecord
  2
MAURO$7
 70
     0
 40
0.5
 41
2.5
 42
1.0
 43
10.0
 44
1.0
 45
0.00000001
 46
10.0
 73
     0
 77
     1
 78
     8
 79
     2
140
3.5
143
0.03937
146
0.7142857142857144
147
0.762
171
     3
172
     1
176
   179
177
    96
178
     7
179
     3
271
     3
272
     3
274
     3
284
     8
286
     8
340
190
371
    15
372
    25
  0
DIMSTYLE
105
1E7
330
A
100
AcDbSymbolTableRecord
100
AcDbDimStyleTableRecord
  2
MAUROTesto caratteri grandi
 70
     0
 40
0.5
 41
5.0
 42
1.0
 43
10.0
 44
1.0
 45
0.00000001
 46
10.0
 73
     0
 77
     1
 78
     8
 79
     2
140
5.25
143
0.03937
146
0.4761904761904762
147
0.762
171
     3
172
     1
176
    96
177
    96
178
   179
179
     3
271
     3
272
     3
274
     3
284
     8
286
     8
340
1A2
371
    25
372
    25
  0
DIMSTYLE
105
1E8
330
A
100
AcDbSymbolTableRecord
100
AcDbDimStyleTableRecord
  2
MAUROTesto caratteri grandi$7
 70
     0
 40
0.5
 41
5.0
 42
1.0
 43
10.0
 44
1.0
 45
0.00000001
 46
10.0
 73
     0
 77
     1
 78
     8
 79
     2
140
5.25
143
0.03937
146
0.4761904761904762
147
0.762
171
     3
172
     1
176
   179
177
    96
178
   179
179
     3
271
     3
272
     3
274
     3
284
     8
286
     8
340
1A2
371
    15
372
    25
  0
DIMSTYLE
105
1E9
330
A
100
AcDbSymbolTableRecord
100
AcDbDimStyleTableRecord
  2
X.XX pollici [mm]
 70
     0
  4
 mm
 40
0.5
 41
2.5
 42
2.387599999999999
 43
6.349999999999999
 44
3.174999999999999
 45
0.00000001
 46
10.0
 73
     0
140
3.04800009727478
144
0.0393700787401575
147
1.600199999999999
170
     1
176
     7
177
     7
178
     7
179
     1
271
     3
272
     2
340
1BF
371
    25
372
    25
  0
DIMSTYLE
105
1EA
330
A
100
AcDbSymbolTableRecord
100
AcDbDimStyleTableRecord
  2
X.XX pollici [mm]$7
 70
     0
  4
 mm
 40
0.5
 41
2.5
 42
2.387599999999999
 43
6.349999999999999
 44
3.174999999999999
 45
0.00000001
 46
10.0
 73
     0
140
3.04800009727478
144
0.0393700787401575
147
1.600199999999999
170
     1
176
   179
177
     7
178
     7
179
     1
271
     3
272
     2
340
1BF
371
    25
372
    25
  0
DIMSTYLE
105
1EB
330
A
100
AcDbSymbolTableRecord
100
AcDbDimStyleTableRecord
  2
X.XX pollici [mm]Testo caratteri grandi
 70
     0
  4
 mm
 40
0.5
 41
5.0
 42
2.387599999999999
 43
6.349999999999999
 44
3.174999999999999
 45
0.00000001
 46
10.0
 73
     0
140
4.57200002670288
144
0.0393700787401575
146
0.6666666840491819
147
1.600199999999999
170
     1
176
     7
177
     7
178
   179
179
     1
271
     3
272
     2
340
195
371
    25
372
    25
  0
DIMSTYLE
105
1EC
330
A
100
AcDbSymbolTableRecord
100
AcDbDimStyleTableRecord
  2
X.XX pollici [mm]Testo caratteri grandi$7
 70
     0
  4
 mm
 40
0.5
 41
5.0
 42
2.387599999999999
 43
6.349999999999999
 44
3.174999999999999
 45
0.00000001
 46
10.0
 73
     0
140
4.57200002670288
144
0.0393700787401575
146
0.6666666840491819
147
1.600199999999999
170
     1
176
   179
177
     7
178
   179
179
     1
271
     3
272
     2
340
195
371
    25
372
    25
  0
DIMSTYLE
105
1ED
330
A
100
AcDbSymbolTableRecord
100
AcDbDimStyleTableRecord
  2
1_32 FRAZIONE
 70
     0
 40
0.5
 41
2.5
340
60
342
1EE
  0
DIMSTYLE
105
1F5
330
A
100
AcDbSymbolTableRecord
100
AcDbDimStyleTableRecord
  2
1_64 FRAZIONE
 70
     0
 40
0.5
 41
2.5
340
60
342
1EE
  0
DIMSTYLE
105
1F6
102
{ACAD_REACTORS
330
A21
102
}
330
A
100
AcDbSymbolTableRecord
100
AcDbDimStyleTableRecord
  2
AM_ISO
 70
     0
 40
0.5
 41
2.5
340
60
342
1EE
  0
DIMSTYLE
105
1F7
330
A
100
AcDbSymbolTableRecord
100
AcDbDimStyleTableRecord
  2
AM_ISO$3
 70
     0
 40
0.5
 41
2.5
340
60
342
1EE
  0
DIMSTYLE
105
1F8
330
A
100
AcDbSymbolTableRecord
100
AcDbDimStyleTableRecord
  2
AM_ISO$4
 70
     0
 40
0.5
 41
2.5
340
60
342
1EE
  0
DIMSTYLE
105
1F9
330
A
100
AcDbSymbolTableRecord
100
AcDbDimStyleTableRecord
  2
AM_ISO$6
 70
     0
 40
0.5
 41
2.5
340
60
342
1EE
  0
DIMSTYLE
105
1FA
330
A
100
AcDbSymbolTableRecord
100
AcDbDimStyleTableRecord
  2
AM_ISO$7
 70
     0
 40
0.5
 41
2.5
340
60
342
1EE
  0
DIMSTYLE
105
1FB
330
A
100
AcDbSymbolTableRecord
100
AcDbDimStyleTableRecord
  2
AM_ISO$SF
 70
     0
 40
0.5
 41
2.5
340
60
342
1EE
  0
DIMSTYLE
105
1FC
330
A
100
AcDbSymbolTableRecord
100
AcDbDimStyleTableRecord
  2
AM_ISO$SH
 70
     0
 40
0.5
 41
2.5
340
60
342
1EE
  0
DIMSTYLE
105
1FD
330
A
100
AcDbSymbolTableRecord
100
AcDbDimStyleTableRecord
  2
ANSI ALLINEATI
 70
     0
 40
0.5
 41
2.5
340
60
342
1EE
  0
DIMSTYLE
105
1FE
330
A
100
AcDbSymbolTableRecord
100
AcDbDimStyleTableRecord
  2
ANSI FRAZIONE - ALLINEATI
 70
     0
 40
0.5
 41
2.5
340
60
342
1EE
  0
DIMSTYLE
105
1FF
330
A
100
AcDbSymbolTableRecord
100
AcDbDimStyleTableRecord
  2
CADMEC_1-1
 70
     0
 40
0.5
 41
2.5
340
60
342
1EE
  0
DIMSTYLE
105
200
330
A
100
AcDbSymbolTableRecord
100
AcDbDimStyleTableRecord
  2
DEFAULT-ANSI
 70
     0
 40
0.5
 41
2.5
340
60
342
1EE
  0
DIMSTYLE
105
201
330
A
100
AcDbSymbolTableRecord
100
AcDbDimStyleTableRecord
  2
DEFAULT-ANSI FRAZIONE
 70
     0
 40
0.5
 41
2.5
340
60
342
1EE
  0
DIMSTYLE
105
202
330
A
100
AcDbSymbolTableRecord
100
AcDbDimStyleTableRecord
  2
DEFAULT-BSI
 70
     0
 40
0.5
 41
2.5
340
60
342
1EE
  0
DIMSTYLE
105
203
330
A
100
AcDbSymbolTableRecord
100
AcDbDimStyleTableRecord
  2
DEFAULT-DIN
 70
     0
 40
0.5
 41
2.5
340
60
342
1EE
  0
DIMSTYLE
105
204
330
A
100
AcDbSymbolTableRecord
100
AcDbDimStyleTableRecord
  2
DEFAULT-DIN - Metodo 2a
 70
     0
 40
0.5
 41
2.5
340
60
342
1EE
  0
DIMSTYLE
105
205
330
A
100
AcDbSymbolTableRecord
100
AcDbDimStyleTableRecord
  2
DEFAULT-DIN - Metodo 2b
 70
     0
 40
0.5
 41
2.5
340
60
342
1EE
  0
DIMSTYLE
105
206
330
A
100
AcDbSymbolTableRecord
100
AcDbDimStyleTableRecord
  2
DEFAULT-ISO
 70
     0
 40
0.5
 41
2.5
340
60
342
1EE
  0
DIMSTYLE
105
207
330
A
100
AcDbSymbolTableRecord
100
AcDbDimStyleTableRecord
  2
DEFAULT-ISO-Metodo 1b
 70
     0
 40
0.5
 41
2.5
340
60
342
1EE
  0
DIMSTYLE
105
208
330
A
100
AcDbSymbolTableRecord
100
AcDbDimStyleTableRecord
  2
DEFAULT-ISO-Metodo 2a
 70
     0
 40
0.5
 41
2.5
340
60
342
1EE
  0
DIMSTYLE
105
209
330
A
100
AcDbSymbolTableRecord
100
AcDbDimStyleTableRecord
  2
DEFAULT-ISO-Metodo 2b
 70
     0
 40
0.5
 41
2.5
340
60
342
1EE
  0
DIMSTYLE
105
20A
330
A
100
AcDbSymbolTableRecord
100
AcDbDimStyleTableRecord
  2
DEFAULT-JIS
 70
     0
 40
0.5
 41
2.5
340
60
342
1EE
  0
DIMSTYLE
105
20B
330
A
100
AcDbSymbolTableRecord
100
AcDbDimStyleTableRecord
  2
DEFAULT-JIS - Metodo 1b
 70
     0
 40
0.5
 41
2.5
340
60
342
1EE
  0
DIMSTYLE
105
20C
330
A
100
AcDbSymbolTableRecord
100
AcDbDimStyleTableRecord
  2
Direttrice-Indicatore origine(ANSI)
 70
     0
 40
0.5
 41
2.5
340
60
342
1EE
  0
DIMSTYLE
105
20D
330
A
100
AcDbSymbolTableRecord
100
AcDbDimStyleTableRecord
  2
Direttrice-Indicatore origine(BSI)
 70
     0
 40
0.5
 41
2.5
340
60
342
1EE
  0
DIMSTYLE
105
20E
330
A
100
AcDbSymbolTableRecord
100
AcDbDimStyleTableRecord
  2
Direttrice-Indicatore origine(DIN)
 70
     0
 40
0.5
 41
2.5
340
60
342
1EE
  0
DIMSTYLE
105
20F
330
A
100
AcDbSymbolTableRecord
100
AcDbDimStyleTableRecord
  2
Direttrice-Indicatore origine(GB)
 70
     0
 40
0.5
 41
4.0
340
60
342
1EE
  0
DIMSTYLE
105
210
330
A
100
AcDbSymbolTableRecord
100
AcDbDimStyleTableRecord
  2
Direttrice-Indicatore origine(ISO)
 70
     0
 40
0.5
 41
2.5
340
60
342
1EE
  0
DIMSTYLE
105
211
330
A
100
AcDbSymbolTableRecord
100
AcDbDimStyleTableRecord
  2
Direttrice-Indicatore origine(JIS)
 70
     0
 40
0.5
 41
2.5
340
60
342
1EE
  0
DIMSTYLE
105
212
330
A
100
AcDbSymbolTableRecord
100
AcDbDimStyleTableRecord
  2
Direttrice-punto(ANSI)
 70
     0
 40
0.5
 41
2.5
340
60
342
1EE
  0
DIMSTYLE
105
213
330
A
100
AcDbSymbolTableRecord
100
AcDbDimStyleTableRecord
  2
Direttrice-punto(BSI)
 70
     0
 40
0.5
 41
2.5
340
60
342
1EE
  0
DIMSTYLE
105
214
330
A
100
AcDbSymbolTableRecord
100
AcDbDimStyleTableRecord
  2
Direttrice-punto(DIN)
 70
     0
 40
0.5
 41
2.5
340
60
342
1EE
  0
DIMSTYLE
105
215
330
A
100
AcDbSymbolTableRecord
100
AcDbDimStyleTableRecord
  2
Direttrice-punto(GB)
 70
     0
 40
0.5
 41
4.0
340
60
342
1EE
  0
DIMSTYLE
105
216
330
A
100
AcDbSymbolTableRecord
100
AcDbDimStyleTableRecord
  2
Direttrice-punto(ISO)
 70
     0
 40
0.5
 41
2.5
340
60
342
1EE
  0
DIMSTYLE
105
217
330
A
100
AcDbSymbolTableRecord
100
AcDbDimStyleTableRecord
  2
Direttrice-punto(JIS)
 70
     0
 40
0.5
 41
2.5
340
60
342
1EE
  0
DIMSTYLE
105
222
330
A
100
AcDbSymbolTableRecord
100
AcDbDimStyleTableRecord
  2
Direttrice-riferimento(ANSI)
 70
     0
 40
0.5
 41
2.5
340
60
342
1EE
  0
DIMSTYLE
105
223
330
A
100
AcDbSymbolTableRecord
100
AcDbDimStyleTableRecord
  2
Direttrice-riferimento(BSI)
 70
     0
 40
0.5
 41
2.5
340
60
342
1EE
  0
DIMSTYLE
105
224
330
A
100
AcDbSymbolTableRecord
100
AcDbDimStyleTableRecord
  2
Direttrice-riferimento(DIN)
 70
     0
 40
0.5
 41
2.5
340
60
342
1EE
  0
DIMSTYLE
105
246
330
A
100
AcDbSymbolTableRecord
100
AcDbDimStyleTableRecord
  2
Direttrice-riferimento(GB)
 70
     0
 40
0.5
 41
4.0
340
60
342
1EE
  0
DIMSTYLE
105
247
330
A
100
AcDbSymbolTableRecord
100
AcDbDimStyleTableRecord
  2
Direttrice-riferimento(ISO)
 70
     0
 40
0.5
 41
2.5
340
60
342
1EE
  0
DIMSTYLE
105
248
330
A
100
AcDbSymbolTableRecord
100
AcDbDimStyleTableRecord
  2
Direttrice-riferimento(JIS)
 70
     0
 40
0.5
 41
2.5
340
60
342
1EE
  0
DIMSTYLE
105
249
330
A
100
AcDbSymbolTableRecord
100
AcDbDimStyleTableRecord
  2
Direttrice(ANSI)
 70
     0
 40
0.5
 41
2.5
340
60
342
1EE
  0
DIMSTYLE
105
24A
330
A
100
AcDbSymbolTableRecord
100
AcDbDimStyleTableRecord
  2
Direttrice(BSI)
 70
     0
 40
0.5
 41
2.5
340
60
342
1EE
  0
DIMSTYLE
105
24B
330
A
100
AcDbSymbolTableRecord
100
AcDbDimStyleTableRecord
  2
Direttrice(DIN)
 70
     0
 40
0.5
 41
2.5
340
60
342
1EE
  0
DIMSTYLE
105
24C
330
A
100
AcDbSymbolTableRecord
100
AcDbDimStyleTableRecord
  2
Direttrice(GB)
 70
     0
 40
0.5
 41
4.0
340
60
342
1EE
  0
DIMSTYLE
105
24D
330
A
100
AcDbSymbolTableRecord
100
AcDbDimStyleTableRecord
  2
Direttrice(ISO)
 70
     0
 40
0.5
 41
2.5
340
60
342
1EE
  0
DIMSTYLE
105
24E
330
A
100
AcDbSymbolTableRecord
100
AcDbDimStyleTableRecord
  2
Direttrice(JIS)
 70
     0
 40
0.5
 41
2.5
340
60
342
1EE
  0
DIMSTYLE
105
24F
330
A
100
AcDbSymbolTableRecord
100
AcDbDimStyleTableRecord
  2
GEN-ISO
 70
     0
 40
0.5
 41
2.5
340
60
342
1EE
  0
DIMSTYLE
105
250
330
A
100
AcDbSymbolTableRecord
100
AcDbDimStyleTableRecord
  2
GEN-ISO-AXE-F
 70
     0
 40
0.5
 41
2.5
340
60
342
1EE
  0
DIMSTYLE
105
251
330
A
100
AcDbSymbolTableRecord
100
AcDbDimStyleTableRecord
  2
GEN-ISO-AXE-H
 70
     0
 40
0.5
 41
2.5
340
60
342
1EE
  0
DIMSTYLE
105
252
330
A
100
AcDbSymbolTableRecord
100
AcDbDimStyleTableRecord
  2
GEN-ISO-POS
 70
     0
 40
0.5
 41
2.5
340
60
342
1EE
  0
DIMSTYLE
105
253
330
A
100
AcDbSymbolTableRecord
100
AcDbDimStyleTableRecord
  2
GEN-ISO$3
 70
     0
 40
0.5
 41
2.5
340
60
342
1EE
  0
DIMSTYLE
105
254
330
A
100
AcDbSymbolTableRecord
100
AcDbDimStyleTableRecord
  2
GEN-ISO$4
 70
     0
 40
0.5
 41
2.5
340
60
342
1EE
  0
DIMSTYLE
105
255
330
A
100
AcDbSymbolTableRecord
100
AcDbDimStyleTableRecord
  2
GEN-ISO$6
 70
     0
 40
0.5
 41
2.5
340
60
342
1EE
  0
DIMSTYLE
105
256
330
A
100
AcDbSymbolTableRecord
100
AcDbDimStyleTableRecord
  2
ISO-25
 70
     0
 40
0.5
 41
2.5
340
60
342
1EE
  0
DIMSTYLE
105
257
330
A
100
AcDbSymbolTableRecord
100
AcDbDimStyleTableRecord
  2
ISO-35
 70
     0
 40
0.5
 41
2.5
340
60
342
1EE
  0
DIMSTYLE
105
258
330
A
100
AcDbSymbolTableRecord
100
AcDbDimStyleTableRecord
  2
ISO-5
 70
     0
 40
0.5
 41
2.5
340
60
342
1EE
  0
DIMSTYLE
105
259
330
A
100
AcDbSymbolTableRecord
100
AcDbDimStyleTableRecord
  2
ISO-7
 70
     0
 40
0.5
 41
2.5
340
60
342
1EE
  0
DIMSTYLE
105
25A
330
A
100
AcDbSymbolTableRecord
100
AcDbDimStyleTableRecord
  2
ISO1
 70
     0
 40
0.5
 41
2.5
340
60
342
1EE
  0
DIMSTYLE
105
25B
330
A
100
AcDbSymbolTableRecord
100
AcDbDimStyleTableRecord
  2
ISO1-4
 70
     0
 40
0.5
 41
2.5
340
60
342
1EE
  0
DIMSTYLE
105
25C
330
A
100
AcDbSymbolTableRecord
100
AcDbDimStyleTableRecord
  2
ISO2
 70
     0
 40
0.5
 41
2.5
340
60
342
1EE
  0
DIMSTYLE
105
25D
330
A
100
AcDbSymbolTableRecord
100
AcDbDimStyleTableRecord
  2
MM-ANSI
 70
     0
 40
0.5
 41
2.5
340
60
342
1EE
  0
DIMSTYLE
105
25E
330
A
100
AcDbSymbolTableRecord
100
AcDbDimStyleTableRecord
  2
X . XXX
 70
     0
 40
0.5
 41
2.5
340
60
342
1EE
  0
DIMSTYLE
105
25F
330
A
100
AcDbSymbolTableRecord
100
AcDbDimStyleTableRecord
  2
X.X spazio grande e testo
 70
     0
 40
0.5
 41
2.5
340
60
342
1EE
  0
DIMSTYLE
105
260
330
A
100
AcDbSymbolTableRecord
100
AcDbDimStyleTableRecord
  2
X.XX mm [pollici]
 70
     0
 40
0.5
 41
2.5
340
60
342
1EE
  0
DIMSTYLE
105
261
330
A
100
AcDbSymbolTableRecord
100
AcDbDimStyleTableRecord
  2
X.XX Tol. di scostamento
 70
     0
 40
0.5
 41
2.5
340
60
342
1EE
  0
DIMSTYLE
105
262
330
A
100
AcDbSymbolTableRecord
100
AcDbDimStyleTableRecord
  2
X.XXX
 70
     0
 40
0.5
 41
2.5
340
60
342
1EE
  0
DIMSTYLE
105
263
330
A
100
AcDbSymbolTableRecord
100
AcDbDimStyleTableRecord
  2
X.XXX +_- tolleranza
 70
     0
 40
0.5
 41
2.5
340
60
342
1EE
  0
DIMSTYLE
105
264
330
A
100
AcDbSymbolTableRecord
100
AcDbDimStyleTableRecord
  2
X.XXX +tolleranza_-tolleranza
 70
     0
 40
0.5
 41
2.5
340
60
342
1EE
  0
DIMSTYLE
105
265
330
A
100
AcDbSymbolTableRecord
100
AcDbDimStyleTableRecord
  2
X.XXX Limiti - Impilati
 70
     0
 40
0.5
 41
2.5
340
60
342
1EE
  0
DIMSTYLE
105
266
330
A
100
AcDbSymbolTableRecord
100
AcDbDimStyleTableRecord
  2
X.XXX mm [pollici]
 70
     0
 40
0.5
 41
2.5
340
60
342
1EE
  0
DIMSTYLE
105
267
330
A
100
AcDbSymbolTableRecord
100
AcDbDimStyleTableRecord
  2
X.XXX piccola tolleranza
 70
     0
 40
0.5
 41
2.5
340
60
342
1EE
  0
DIMSTYLE
105
268
330
A
100
AcDbSymbolTableRecord
100
AcDbDimStyleTableRecord
  2
X.XXX radiale
 70
     0
 40
0.5
 41
2.5
340
60
342
1EE
  0
ENDTAB
  0
TABLE
  2
BLOCK_RECORD
  5
1
330
0
100
AcDbSymbolTable
 70
    19
  0
BLOCK_RECORD
  5
77
330
1
100
AcDbSymbolTableRecord
100
AcDbBlockTableRecord
  2
*Model_Space
340
7A
  0
BLOCK_RECORD
  5
73
330
1
100
AcDbSymbolTableRecord
100
AcDbBlockTableRecord
  2
*Paper_Space
340
76
  0
BLOCK_RECORD
  5
7B
330
1
100
AcDbSymbolTableRecord
100
AcDbBlockTableRecord
  2
*Paper_Space0
340
7E
  0
BLOCK_RECORD
  5
1C5
330
1
100
AcDbSymbolTableRecord
100
AcDbBlockTableRecord
  2
Filled-1
340
0
  0
BLOCK_RECORD
  5
1D8
330
1
100
AcDbSymbolTableRecord
100
AcDbBlockTableRecord
  2
_Open
340
0
  0
BLOCK_RECORD
  5
1EE
330
1
100
AcDbSymbolTableRecord
100
AcDbBlockTableRecord
  2
_Closed
340
0
  0
BLOCK_RECORD
  5
218
330
1
100
AcDbSymbolTableRecord
100
AcDbBlockTableRecord
  2
DatumFilled45
340
0
  0
BLOCK_RECORD
  5
225
330
1
100
AcDbSymbolTableRecord
100
AcDbBlockTableRecord
  2
DatumThickLine
340
0
  0
BLOCK_RECORD
  5
269
330
1
100
AcDbSymbolTableRecord
100
AcDbBlockTableRecord
  2
REVISIONE
340
0
  0
BLOCK_RECORD
  5
288
330
1
100
AcDbSymbolTableRecord
100
AcDbBlockTableRecord
  2
TIMBRO PER APPROVAZIONE
340
0
  0
BLOCK_RECORD
  5
297
330
1
100
AcDbSymbolTableRecord
100
AcDbBlockTableRecord
  2
TIMBRO INVIO DISEGNI
340
0
  0
BLOCK_RECORD
  5
2A2
330
1
100
AcDbSymbolTableRecord
100
AcDbBlockTableRecord
  2
Bordi Default Border
340
0
  0
BLOCK_RECORD
  5
2D7
330
1
100
AcDbSymbolTableRecord
100
AcDbBlockTableRecord
  2
*D10
340
0
  0
BLOCK_RECORD
  5
3B6
330
1
100
AcDbSymbolTableRecord
100
AcDbBlockTableRecord
  2
*D11
340
0
  0
BLOCK_RECORD
  5
4A5
330
1
100
AcDbSymbolTableRecord
100
AcDbBlockTableRecord
  2
*D12
340
0
  0
BLOCK_RECORD
  5
594
330
1
100
AcDbSymbolTableRecord
100
AcDbBlockTableRecord
  2
*D13
340
0
  0
BLOCK_RECORD
  5
673
330
1
100
AcDbSymbolTableRecord
100
AcDbBlockTableRecord
  2
*D14
340
0
  0
BLOCK_RECORD
  5
749
330
1
100
AcDbSymbolTableRecord
100
AcDbBlockTableRecord
  2
*D15
340
0
  0
BLOCK_RECORD
  5
7E6
330
1
100
AcDbSymbolTableRecord
100
AcDbBlockTableRecord
  2
Cartigli COMUNELLO
340
0
  0
ENDTAB
  0
ENDSEC
  0
SECTION
  2
BLOCKS
  0
BLOCK
  5
78
330
77
100
AcDbEntity
  8
0
100
AcDbBlockBegin
  2
*Model_Space
 70
     0
 10
0.0
 20
0.0
 30
0.0
  3
*Model_Space
  1

  0
ENDBLK
  5
79
330
77
100
AcDbEntity
  8
0
100
AcDbBlockEnd
  0
BLOCK
  5
74
330
73
100
AcDbEntity
 67
     1
  8
0
100
AcDbBlockBegin
  2
*Paper_Space
 70
     0
 10
0.0
 20
0.0
 30
0.0
  3
*Paper_Space
  1

  0
ENDBLK
  5
75
330
73
100
AcDbEntity
 67
     1
  8
0
100
AcDbBlockEnd
  0
BLOCK
  5
7C
330
7B
100
AcDbEntity
 67
     1
  8
0
100
AcDbBlockBegin
  2
*Paper_Space0
 70
     0
 10
0.0
 20
0.0
 30
0.0
  3
*Paper_Space0
  1

  0
ENDBLK
  5
7D
330
7B
100
AcDbEntity
 67
     1
  8
0
100
AcDbBlockEnd
  0
BLOCK
  5
1C6
330
1C5
100
AcDbEntity
  8
0
100
AcDbBlockBegin
  2
Filled-1
 70
     0
 10
0.0
 20
0.0
 30
0.0
  3
Filled-1
  1

  0
LINE
  5
1C8
330
1C5
100
AcDbEntity
  8
0
 62
     0
100
AcDbLine
 10
-1.0
 20
0.0
 30
0.0
 11
0.0
 21
0.0
 31
0.0
  0
POLYLINE
  5
1C9
330
1C5
100
AcDbEntity
  8
0
 62
     0
100
AcDb2dPolyline
 66
     1
 10
0.0
 20
0.0
 30
0.0
 70
   128
  0
VERTEX
  5
1CA
330
1C9
100
AcDbEntity
  8
0
 62
     0
100
AcDbVertex
100
AcDb2dVertex
 10
-1.0
 20
-0.125
 30
0.0
  0
VERTEX
  5
1CB
330
1C9
100
AcDbEntity
  8
0
 62
     0
100
AcDbVertex
100
AcDb2dVertex
 10
0.0
 20
0.0
 30
0.0
  0
VERTEX
  5
1CD
330
1C9
100
AcDbEntity
  8
0
 62
     0
100
AcDbVertex
100
AcDb2dVertex
 10
-1.0
 20
0.125
 30
0.0
  0
VERTEX
  5
1CE
330
1C9
100
AcDbEntity
  8
0
 62
     0
100
AcDbVertex
100
AcDb2dVertex
 10
-1.0
 20
-0.125
 30
0.0
  0
SEQEND
  5
1CC
330
1C9
100
AcDbEntity
  8
0
 62
     0
  0
SOLID
  5
1CF
330
1C5
100
AcDbEntity
  8
0
 62
     0
100
AcDbTrace
 10
-1.0
 20
-0.125
 30
0.0
 11
0.0
 21
0.0
 31
0.0
 12
-1.0
 22
0.125
 32
0.0
 13
-1.0
 23
-0.125
 33
0.0
  0
LINE
  5
1D0
330
1C5
100
AcDbEntity
  8
0
 62
     0
100
AcDbLine
 10
-1.0
 20
-0.125
 30
0.0
 11
0.0
 21
0.0
 31
0.0
  0
LINE
  5
1D1
330
1C5
100
AcDbEntity
  8
0
 62
     0
100
AcDbLine
 10
0.0
 20
0.0
 30
0.0
 11
-1.0
 21
0.125
 31
0.0
  0
LINE
  5
1D2
330
1C5
100
AcDbEntity
  8
0
 62
     0
100
AcDbLine
 10
-1.0
 20
0.125
 30
0.0
 11
-1.0
 21
-0.125
 31
0.0
  0
ENDBLK
  5
1C7
330
1C5
100
AcDbEntity
  8
0
100
AcDbBlockEnd
  0
BLOCK
  5
1DC
330
1D8
100
AcDbEntity
  8
0
100
AcDbBlockBegin
  2
_Open
 70
     0
 10
0.0
 20
0.0
 30
0.0
  3
_Open
  1

  0
LINE
  5
1D9
330
1D8
100
AcDbEntity
  8
0
  6
ByBlock
 62
     0
370
    -2
100
AcDbLine
 10
-1.0
 20
0.1666666666666666
 30
0.0
 11
0.0
 21
0.0
 31
0.0
  0
LINE
  5
1DA
330
1D8
100
AcDbEntity
  8
0
  6
ByBlock
 62
     0
370
    -2
100
AcDbLine
 10
-1.0
 20
-0.1666666666666666
 30
0.0
 11
0.0
 21
0.0
 31
0.0
  0
LINE
  5
1DB
330
1D8
100
AcDbEntity
  8
0
  6
ByBlock
 62
     0
370
    -2
100
AcDbLine
 10
0.0
 20
0.0
 30
0.0
 11
-1.0
 21
0.0
 31
0.0
  0
ENDBLK
  5
1DD
330
1D8
100
AcDbEntity
  8
0
100
AcDbBlockEnd
  0
BLOCK
  5
1F3
330
1EE
100
AcDbEntity
  8
0
100
AcDbBlockBegin
  2
_Closed
 70
     0
 10
0.0
 20
0.0
 30
0.0
  3
_Closed
  1

  0
LINE
  5
1EF
330
1EE
100
AcDbEntity
  8
0
  6
ByBlock
 62
     0
370
    -2
100
AcDbLine
 10
-1.0
 20
0.1666666666666666
 30
0.0
 11
0.0
 21
0.0
 31
0.0
  0
LINE
  5
1F0
330
1EE
100
AcDbEntity
  8
0
  6
ByBlock
 62
     0
370
    -2
100
AcDbLine
 10
0.0
 20
0.0
 30
0.0
 11
-1.0
 21
-0.1666666666666666
 31
0.0
  0
LINE
  5
1F1
330
1EE
100
AcDbEntity
  8
0
  6
ByBlock
 62
     0
370
    -2
100
AcDbLine
 10
-1.0
 20
0.1666666666666666
 30
0.0
 11
-1.0
 21
-0.1666666666666666
 31
0.0
  0
LINE
  5
1F2
330
1EE
100
AcDbEntity
  8
0
  6
ByBlock
 62
     0
370
    -2
100
AcDbLine
 10
0.0
 20
0.0
 30
0.0
 11
-1.0
 21
0.0
 31
0.0
  0
ENDBLK
  5
1F4
330
1EE
100
AcDbEntity
  8
0
100
AcDbBlockEnd
  0
BLOCK
  5
219
330
218
100
AcDbEntity
  8
0
100
AcDbBlockBegin
  2
DatumFilled45
 70
     0
 10
0.0
 20
0.0
 30
0.0
  3
DatumFilled45
  1

  0
POLYLINE
  5
21B
330
218
100
AcDbEntity
  8
0
 62
     0
100
AcDb2dPolyline
 66
     1
 10
0.0
 20
0.0
 30
0.0
 70
   128
  0
VERTEX
  5
21C
330
21B
100
AcDbEntity
  8
0
 62
     0
100
AcDbVertex
100
AcDb2dVertex
 10
0.0
 20
1.0
 30
0.0
  0
VERTEX
  5
21D
330
21B
100
AcDbEntity
  8
0
 62
     0
100
AcDbVertex
100
AcDb2dVertex
 10
0.0
 20
-1.0
 30
0.0
  0
VERTEX
  5
21F
330
21B
100
AcDbEntity
  8
0
 62
     0
100
AcDbVertex
100
AcDb2dVertex
 10
-1.0
 20
0.0
 30
0.0
  0
VERTEX
  5
220
330
21B
100
AcDbEntity
  8
0
 62
     0
100
AcDbVertex
100
AcDb2dVertex
 10
0.0
 20
1.0
 30
0.0
  0
SEQEND
  5
21E
330
21B
100
AcDbEntity
  8
0
 62
     0
  0
SOLID
  5
221
330
218
100
AcDbEntity
  8
0
 62
     0
100
AcDbTrace
 10
0.0
 20
1.0
 30
0.0
 11
0.0
 21
-1.0
 31
0.0
 12
-1.0
 22
0.0
 32
0.0
 13
0.0
 23
1.0
 33
0.0
  0
ENDBLK
  5
21A
330
218
100
AcDbEntity
  8
0
100
AcDbBlockEnd
  0
BLOCK
  5
226
330
225
100
AcDbEntity
  8
0
100
AcDbBlockBegin
  2
DatumThickLine
 70
     0
 10
0.0
 20
0.0
 30
0.0
  3
DatumThickLine
  1

  0
POLYLINE
  5
228
330
225
100
AcDbEntity
  8
0
 62
     0
100
AcDb2dPolyline
 66
     1
 10
0.0
 20
0.0
 30
0.0
 70
   128
  0
VERTEX
  5
229
330
228
100
AcDbEntity
  8
0
 62
     0
100
AcDbVertex
100
AcDb2dVertex
 10
-0.25
 20
1.0
 30
0.0
  0
VERTEX
  5
22A
330
228
100
AcDbEntity
  8
0
 62
     0
100
AcDbVertex
100
AcDb2dVertex
 10
-0.25
 20
-1.0
 30
0.0
  0
VERTEX
  5
22C
330
228
100
AcDbEntity
  8
0
 62
     0
100
AcDbVertex
100
AcDb2dVertex
 10
-0.5
 20
-1.0
 30
0.0
  0
VERTEX
  5
22D
330
228
100
AcDbEntity
  8
0
 62
     0
100
AcDbVertex
100
AcDb2dVertex
 10
-0.25
 20
1.0
 30
0.0
  0
SEQEND
  5
22B
330
228
100
AcDbEntity
  8
0
 62
     0
  0
SOLID
  5
22E
330
225
100
AcDbEntity
  8
0
 62
     0
100
AcDbTrace
 10
-0.25
 20
1.0
 30
0.0
 11
-0.25
 21
-1.0
 31
0.0
 12
-0.5
 22
-1.0
 32
0.0
 13
-0.25
 23
1.0
 33
0.0
  0
POLYLINE
  5
22F
330
225
100
AcDbEntity
  8
0
 62
     0
100
AcDb2dPolyline
 66
     1
 10
0.0
 20
0.0
 30
0.0
 70
   128
  0
VERTEX
  5
230
330
22F
100
AcDbEntity
  8
0
 62
     0
100
AcDbVertex
100
AcDb2dVertex
 10
-0.25
 20
1.0
 30
0.0
  0
VERTEX
  5
231
330
22F
100
AcDbEntity
  8
0
 62
     0
100
AcDbVertex
100
AcDb2dVertex
 10
-0.5
 20
-1.0
 30
0.0
  0
VERTEX
  5
233
330
22F
100
AcDbEntity
  8
0
 62
     0
100
AcDbVertex
100
AcDb2dVertex
 10
-0.5
 20
-1.0
 30
0.0
  0
VERTEX
  5
234
330
22F
100
AcDbEntity
  8
0
 62
     0
100
AcDbVertex
100
AcDb2dVertex
 10
-0.25
 20
1.0
 30
0.0
  0
SEQEND
  5
232
330
22F
100
AcDbEntity
  8
0
 62
     0
  0
SOLID
  5
235
330
225
100
AcDbEntity
  8
0
 62
     0
100
AcDbTrace
 10
-0.25
 20
1.0
 30
0.0
 11
-0.5
 21
-1.0
 31
0.0
 12
-0.5
 22
-1.0
 32
0.0
 13
-0.25
 23
1.0
 33
0.0
  0
POLYLINE
  5
236
330
225
100
AcDbEntity
  8
0
 62
     0
100
AcDb2dPolyline
 66
     1
 10
0.0
 20
0.0
 30
0.0
 70
   128
  0
VERTEX
  5
237
330
236
100
AcDbEntity
  8
0
 62
     0
100
AcDbVertex
100
AcDb2dVertex
 10
-0.25
 20
1.0
 30
0.0
  0
VERTEX
  5
238
330
236
100
AcDbEntity
  8
0
 62
     0
100
AcDbVertex
100
AcDb2dVertex
 10
-0.5
 20
-1.0
 30
0.0
  0
VERTEX
  5
23A
330
236
100
AcDbEntity
  8
0
 62
     0
100
AcDbVertex
100
AcDb2dVertex
 10
-0.5
 20
1.0
 30
0.0
  0
VERTEX
  5
23B
330
236
100
AcDbEntity
  8
0
 62
     0
100
AcDbVertex
100
AcDb2dVertex
 10
-0.25
 20
1.0
 30
0.0
  0
SEQEND
  5
239
330
236
100
AcDbEntity
  8
0
 62
     0
  0
SOLID
  5
23C
330
225
100
AcDbEntity
  8
0
 62
     0
100
AcDbTrace
 10
-0.25
 20
1.0
 30
0.0
 11
-0.5
 21
-1.0
 31
0.0
 12
-0.5
 22
1.0
 32
0.0
 13
-0.25
 23
1.0
 33
0.0
  0
POLYLINE
  5
23D
330
225
100
AcDbEntity
  8
0
 62
     0
100
AcDb2dPolyline
 66
     1
 10
0.0
 20
0.0
 30
0.0
 70
   128
  0
VERTEX
  5
23E
330
23D
100
AcDbEntity
  8
0
 62
     0
100
AcDbVertex
100
AcDb2dVertex
 10
-0.25
 20
1.0
 30
0.0
  0
VERTEX
  5
23F
330
23D
100
AcDbEntity
  8
0
 62
     0
100
AcDbVertex
100
AcDb2dVertex
 10
-0.5
 20
1.0
 30
0.0
  0
VERTEX
  5
241
330
23D
100
AcDbEntity
  8
0
 62
     0
100
AcDbVertex
100
AcDb2dVertex
 10
-0.25
 20
1.0
 30
0.0
  0
VERTEX
  5
242
330
23D
100
AcDbEntity
  8
0
 62
     0
100
AcDbVertex
100
AcDb2dVertex
 10
-0.25
 20
1.0
 30
0.0
  0
SEQEND
  5
240
330
23D
100
AcDbEntity
  8
0
 62
     0
  0
SOLID
  5
243
330
225
100
AcDbEntity
  8
0
 62
     0
100
AcDbTrace
 10
-0.25
 20
1.0
 30
0.0
 11
-0.5
 21
1.0
 31
0.0
 12
-0.25
 22
1.0
 32
0.0
 13
-0.25
 23
1.0
 33
0.0
  0
LINE
  5
244
330
225
100
AcDbEntity
  8
0
 62
     0
100
AcDbLine
 10
-1.0
 20
0.0
 30
0.0
 11
-0.5
 21
0.0
 31
0.0
  0
LINE
  5
245
330
225
100
AcDbEntity
  8
0
 62
     0
100
AcDbLine
 10
-0.5
 20
0.0
 30
0.0
 11
-1.0
 21
0.0
 31
0.0
  0
ENDBLK
  5
227
330
225
100
AcDbEntity
  8
0
100
AcDbBlockEnd
  0
BLOCK
  5
26A
330
269
100
AcDbEntity
  8
0
100
AcDbBlockBegin
  2
REVISIONE
 70
     2
 10
0.0
 20
0.0
 30
0.0
  3
REVISIONE
  1

  0
LINE
  5
26C
330
269
100
AcDbEntity
  8
I-AM_0
100
AcDbLine
 10
-95.0
 20
-6.499999999999994
 30
0.0
 11
-95.0
 21
6.49999999999995
 31
0.0
  0
LINE
  5
26D
330
269
100
AcDbEntity
  8
I-AM_0
100
AcDbLine
 10
-95.00000000000001
 20
6.49999999999995
 30
0.0
 11
94.99999999999998
 21
6.500000000000003
 31
0.0
  0
LINE
  5
26E
330
269
100
AcDbEntity
  8
I-AM_0
100
AcDbLine
 10
95.0
 20
6.500000000000003
 30
0.0
 11
95.0
 21
-6.499999999999985
 31
0.0
  0
LINE
  5
26F
330
269
100
AcDbEntity
  8
I-AM_0
100
AcDbLine
 10
95.0
 20
-6.499999999999985
 30
0.0
 11
-95.0
 21
-6.499999999999994
 31
0.0
  0
LINE
  5
270
330
269
100
AcDbEntity
  8
I-AM_0
100
AcDbLine
 10
14.28199999999996
 20
6.500000000000003
 30
0.0
 11
14.28199999999996
 21
-6.499999999999994
 31
0.0
  0
LINE
  5
271
330
269
100
AcDbEntity
  8
I-AM_0
100
AcDbLine
 10
20.14999999999997
 20
6.500000000000003
 30
0.0
 11
20.14999999999997
 21
-6.499999999999994
 31
0.0
  0
LINE
  5
272
330
269
100
AcDbEntity
  8
I-AM_0
100
AcDbLine
 10
45.09999999999998
 20
6.500000000000003
 30
0.0
 11
45.09999999999998
 21
-6.499999999999985
 31
0.0
  0
LINE
  5
273
330
269
100
AcDbEntity
  8
I-AM_0
100
AcDbLine
 10
70.04999999999999
 20
6.500000000000003
 30
0.0
 11
70.04999999999999
 21
-6.499999999999985
 31
0.0
  0
LINE
  5
274
330
269
100
AcDbEntity
  8
I-AM_0
100
AcDbLine
 10
-95.0
 20
-1.500000000000021
 30
0.0
 11
95.0
 21
-1.499999999999976
 31
0.0
  0
LINE
  5
275
330
269
100
AcDbEntity
  8
I-AM_0
100
AcDbLine
 10
20.14999999999997
 20
2.499999999999982
 30
0.0
 11
95.0
 21
2.500000000000017
 31
0.0
  0
MTEXT
  5
276
330
269
100
AcDbEntity
  8
II-AM_0
 62
    96
100
AcDbMText
 10
-40.24999999999997
 20
-4.249999999999989
 30
0.0
 40
2.489199936389923
 41
109.5
 71
     5
 72
     1
  1
\fArial|b0|i0;\H2.4892;Descrizione Revisione
  7
Corrente-ISO
 73
     1
 44
1.0
1001
ACAD
1000
MTEXTBEGIN
1070
    73
1070
     1
1070
    44
1040
1.0
1070
    74
1070
     0
1000
MTEXTEND
  0
MTEXT
  5
278
330
269
100
AcDbEntity
  8
II-AM_0
 62
    96
100
AcDbMText
 10
17.20910565308934
 20
-4.010830382627901
 30
0.0
 40
2.489199936389923
 41
5.876843529209256
 71
     5
 72
     1
  1
\fArial|b0|i0;\W0.90;\H2.4892;Rev
  7
Corrente-ISO
 73
     1
 44
1.0
1001
ACAD
1000
MTEXTBEGIN
1070
    73
1070
     1
1070
    44
1040
1.0
1070
    74
1070
     0
1000
MTEXTEND
  0
MTEXT
  5
279
330
269
100
AcDbEntity
  8
II-AM_0
 62
    96
100
AcDbMText
 10
32.68356521178614
 20
-4.036669839269944
 30
0.0
 40
2.489199936389923
 41
24.96635793550775
 71
     5
 72
     1
  1
\fArial|b0|i0;\H2.4892;Disegnato
  7
Corrente-ISO
 73
     1
 44
1.0
1001
ACAD
1000
MTEXTBEGIN
1070
    73
1070
     1
1070
    44
1040
1.0
1070
    74
1070
     0
1000
MTEXTEND
  0
MTEXT
  5
27A
330
269
100
AcDbEntity
  8
II-AM_0
 62
    96
100
AcDbMText
 10
57.57373402865312
 20
-4.00232928281115
 30
0.0
 40
2.489199936389923
 41
24.92816610583702
 71
     5
 72
     1
  1
\fArial|b0|i0;\H2.4892;Verificato
  7
Corrente-ISO
 73
     1
 44
1.0
1001
ACAD
1000
MTEXTBEGIN
1070
    73
1070
     1
1070
    44
1040
1.0
1070
    74
1070
     0
1000
MTEXTEND
  0
MTEXT
  5
27B
330
269
100
AcDbEntity
  8
II-AM_0
 62
    96
100
AcDbMText
 10
82.5334947683379
 20
-4.033923917081256
 30
0.0
 40
2.489199936389923
 41
24.9913553735324
 71
     5
 72
     1
  1
\fArial|b0|i0;\H2.4892;Approvato
  7
Corrente-ISO
 73
     1
 44
1.0
1001
ACAD
1000
MTEXTBEGIN
1070
    73
1070
     1
1070
    44
1040
1.0
1070
    74
1070
     0
1000
MTEXTEND
  0
ATTDEF
  5
27D
102
{ACAD_XDICTIONARY
360
8A5
102
}
330
269
100
AcDbEntity
  8
II-AM_0
 62
     7
100
AcDbText
 10
-93.49119398589706
 20
3.016271127330298
 30
0.0
 40
2.489199936389923
  1

  7
Stile testo15
 11
-93.49119398589706
 21
5.505471063720221
 31
0.0
100
AcDbAttributeDefinition
  3
DESCRIZIONE 1
  2
DESCRIZIONE_1
 70
     0
 74
     3
  0
ATTDEF
  5
280
102
{ACAD_XDICTIONARY
360
8A8
102
}
330
269
100
AcDbEntity
  8
II-AM_0
 62
     7
100
AcDbText
 10
-93.56890635983567
 20
-0.5518208838393335
 30
0.0
 40
2.489199936389923
  1

  7
Stile testo15
 11
-93.56890635983567
 21
1.937379052550589
 31
0.0
100
AcDbAttributeDefinition
  3
DESCRIZIONE 2
  2
DESCRIZIONE_2
 70
     0
 74
     3
  0
ATTDEF
  5
282
102
{ACAD_XDICTIONARY
360
8AB
102
}
330
269
100
AcDbEntity
  8
II-AM_0
 62
     7
100
AcDbText
 10
17.21416714364988
 20
0.7090980960960991
 30
0.0
 40
3.499999940395355
  1

 41
0.899999976158142
  7
Stile testo116
 72
     1
 11
17.21416714364988
 21
2.459098066293776
 31
0.0
100
AcDbAttributeDefinition
  3
NR.REV
  2
NR.REV
 70
     0
 74
     2
  0
ATTDEF
  5
284
102
{ACAD_XDICTIONARY
360
8AE
102
}
330
269
100
AcDbEntity
  8
II-AM_0
 62
     7
100
AcDbText
 10
32.66124997243344
 20
3.224244244771465
 30
0.0
 40
2.489199936389923
  1

 41
0.899999976158142
  7
Stile testo115
 72
     1
 11
32.66124997243344
 21
4.468844212966427
 31
0.0
100
AcDbAttributeDefinition
  3
DISEGNATO
  2
DISEGNATO
 70
     0
 74
     2
  0
ATTDEF
  5
285
102
{ACAD_XDICTIONARY
360
8B1
102
}
330
269
100
AcDbEntity
  8
II-AM_0
 62
     7
100
AcDbText
 10
32.60244885683786
 20
-0.7742316560178431
 30
0.0
 40
2.489199936389923
  1

  7
Stile testo15
 72
     1
 11
32.60244885683786
 21
0.4703683121771185
 31
0.0
100
AcDbAttributeDefinition
  3
DATA
  2
DATA
 70
     0
 74
     2
  0
ATTDEF
  5
286
102
{ACAD_XDICTIONARY
360
8B4
102
}
330
269
100
AcDbEntity
  8
II-AM_0
 62
     7
100
AcDbText
 10
57.6076232638568
 20
-0.7595313769708057
 30
0.0
 40
2.489199936389923
  1

  7
Stile testo15
 72
     1
 11
57.6076232638568
 21
0.4850685912241559
 31
0.0
100
AcDbAttributeDefinition
  3
DATA
  2
DATA
 70
     0
 74
     2
  0
ATTDEF
  5
287
102
{ACAD_XDICTIONARY
360
8B7
102
}
330
269
100
AcDbEntity
  8
II-AM_0
 62
     7
100
AcDbText
 10
82.5539965552803
 20
-0.7742316560178076
 30
0.0
 40
2.489199936389923
  1

  7
Stile testo15
 72
     1
 11
82.5539965552803
 21
0.4703683121771541
 31
0.0
100
AcDbAttributeDefinition
  3
DATA
  2
DATA
 70
     0
 74
     2
  0
ENDBLK
  5
26B
330
269
100
AcDbEntity
  8
0
100
AcDbBlockEnd
  0
BLOCK
  5
289
330
288
100
AcDbEntity
  8
0
100
AcDbBlockBegin
  2
TIMBRO PER APPROVAZIONE
 70
     0
 10
0.0
 20
0.0
 30
0.0
  3
TIMBRO PER APPROVAZIONE
  1

  0
LINE
  5
28B
330
288
100
AcDbEntity
  8
I-AM_0
 62
     7
100
AcDbLine
 10
34.85000000000001
 20
-9.100000000000004
 30
0.0
 11
-34.84999999999999
 21
-9.099999999999997
 31
0.0
  0
LINE
  5
28C
330
288
100
AcDbEntity
  8
I-AM_0
 62
     7
100
AcDbLine
 10
35.25
 20
-16.5
 30
0.0
 11
-35.24999999999999
 21
-16.5
 31
0.0
  0
LINE
  5
28D
330
288
100
AcDbEntity
  8
I-AM_0
 62
     7
100
AcDbLine
 10
-35.24999999999999
 20
-16.5
 30
0.0
 11
-35.25
 21
16.5
 31
0.0
  0
LINE
  5
28E
330
288
100
AcDbEntity
  8
I-AM_0
 62
     7
100
AcDbLine
 10
-35.25
 20
16.5
 30
0.0
 11
35.25000000000001
 21
16.5
 31
0.0
  0
LINE
  5
28F
330
288
100
AcDbEntity
  8
I-AM_0
 62
     7
100
AcDbLine
 10
35.25
 20
16.5
 30
0.0
 11
35.25
 21
-16.5
 31
0.0
  0
MTEXT
  5
290
330
288
100
AcDbEntity
  8
II-AM_0
 62
     7
100
AcDbMText
 10
-33.7105069207141
 20
-14.19215346071146
 30
0.0
 40
2.5
 41
0.0
 71
     7
 72
     1
  1
\fSwis721 BT|b0|i0;\H2.5000;DATA.........................FIRMA..........................
  7
Corrente-ISO
 73
     1
 44
1.25
1001
ACAD
1000
MTEXTBEGIN
1070
    73
1070
     1
1070
    44
1040
1.25
1070
    74
1070
     0
1000
MTEXTEND
  0
MTEXT
  5
291
330
288
100
AcDbEntity
  8
II-AM_0
 62
     7
100
AcDbMText
 10
-25.72449588474212
 20
11.13847904581678
 30
0.0
 40
3.499999940395355
 41
0.0
 71
     7
 72
     1
  1
\fSwis721 BT|b0|i0;\H3.5000;RESTITUIRE FIRMATO
  7
Corrente-ISO
 73
     1
 44
1.25
1001
ACAD
1000
MTEXTBEGIN
1070
    73
1070
     1
1070
    44
1040
1.25
1070
    74
1070
     0
1000
MTEXTEND
  0
MTEXT
  5
292
330
288
100
AcDbEntity
  8
II-AM_0
 62
     7
100
AcDbMText
 10
-28.95171691808511
 20
7.316396977395109
 30
0.0
 40
2.000000029802322
 41
0.0
 71
     7
 72
     1
  1
\fSwis721 BT|b0|i0;\H2.0000;L'APPROVAZIONE DEL DISEGNO DEFINISCE
  7
Corrente-ISO
 73
     1
 44
1.25
1001
ACAD
1000
MTEXTBEGIN
1070
    73
1070
     1
1070
    44
1040
1.25
1070
    74
1070
     0
1000
MTEXTEND
  0
MTEXT
  5
293
330
288
100
AcDbEntity
  8
II-AM_0
 62
     7
100
AcDbMText
 10
-25.76940871751251
 20
4.544968949952115
 30
0.0
 40
2.000000029802322
 41
0.0
 71
     7
 72
     1
  1
\fSwis721 BT|b0|i0;\H2.0000;L'ORDINE ED IL SUO PROSEGUIMENTO
  7
Corrente-ISO
 73
     1
 44
1.25
1001
ACAD
1000
MTEXTBEGIN
1070
    73
1070
     1
1070
    44
1040
1.25
1070
    74
1070
     0
1000
MTEXTEND
  0
MTEXT
  5
294
330
288
100
AcDbEntity
  8
II-AM_0
 62
     7
100
AcDbMText
 10
-31.13563506443334
 20
-5.098775396401857
 30
0.0
 40
2.000000029802322
 41
0.0
 71
     7
 72
     1
  1
\fSwis721 BT|b0|i0;\H2.0000;THE APPROVAL OF THE DRAWING DETERMINES
  7
Corrente-ISO
 73
     1
 44
1.25
1001
ACAD
1000
MTEXTBEGIN
1070
    73
1070
     1
1070
    44
1040
1.25
1070
    74
1070
     0
1000
MTEXTEND
  0
MTEXT
  5
295
330
288
100
AcDbEntity
  8
II-AM_0
 62
     7
100
AcDbMText
 10
-24.30740641391715
 20
-7.870204115351859
 30
0.0
 40
2.000000029802322
 41
0.0
 71
     7
 72
     1
  1
\fSwis721 BT|b0|i0;\H2.0000;THE ORDER AND ITS PROSECUTION
  7
Corrente-ISO
 73
     1
 44
1.25
1001
ACAD
1000
MTEXTBEGIN
1070
    73
1070
     1
1070
    44
1040
1.25
1070
    74
1070
     0
1000
MTEXTEND
  0
MTEXT
  5
296
330
288
100
AcDbEntity
  8
II-AM_0
 62
     7
100
AcDbMText
 10
-19.82985272453558
 20
-2.084089723680357
 30
0.0
 40
3.499999940395355
 41
0.0
 71
     7
 72
     1
  1
\fSwis721 BT|b0|i0;\H3.5000;RETURN SIGNED
  7
Corrente-ISO
 73
     1
 44
1.25
1001
ACAD
1000
MTEXTBEGIN
1070
    73
1070
     1
1070
    44
1040
1.25
1070
    74
1070
     0
1000
MTEXTEND
  0
ENDBLK
  5
28A
330
288
100
AcDbEntity
  8
0
100
AcDbBlockEnd
  0
BLOCK
  5
298
330
297
100
AcDbEntity
  8
0
100
AcDbBlockBegin
  2
TIMBRO INVIO DISEGNI
 70
     0
 10
0.0
 20
0.0
 30
0.0
  3
TIMBRO INVIO DISEGNI
  1

  0
LINE
  5
29A
330
297
100
AcDbEntity
  8
I-AM_0
  6
Continuous
370
   140
100
AcDbLine
 10
0.0
 20
22.49999999999998
 30
0.0
 11
0.0
 21
0.0
 31
0.0
  0
LINE
  5
29B
330
297
100
AcDbEntity
  8
I-AM_0
  6
Continuous
370
   140
100
AcDbLine
 10
0.0
 20
0.0
 30
0.0
 11
70.50000000000008
 21
0.0
 31
0.0
  0
LINE
  5
29C
330
297
100
AcDbEntity
  8
I-AM_0
  6
Continuous
370
   140
100
AcDbLine
 10
70.50000000000008
 20
0.0
 30
0.0
 11
70.50000000000003
 21
22.5
 31
0.0
  0
LINE
  5
29D
330
297
100
AcDbEntity
  8
I-AM_0
  6
Continuous
370
   140
100
AcDbLine
 10
70.50000000000003
 20
22.5
 30
0.0
 11
0.0
 21
22.49999999999998
 31
0.0
  0
MTEXT
  5
29E
330
297
100
AcDbEntity
  8
II-AM_0
 62
     7
100
AcDbMText
 10
2.899336189043077
 20
19.99303336238528
 30
0.0
 40
2.489199936389923
 41
66.17203235626219
 71
     1
 72
     1
  1
\fArial|b1|i0;\H2.4892;INVIO DISEGNO TRAMITE COMPUTER
  7
Corrente-ISO
 73
     1
 44
1.0
1001
ACAD
1000
MTEXTBEGIN
1070
    73
1070
     1
1070
    44
1040
1.0
1070
    74
1070
     0
1000
MTEXTEND
  0
MTEXT
  5
29F
330
297
100
AcDbEntity
  8
II-AM_0
 62
     7
100
AcDbMText
 10
6.717374444392016
 20
13.05512495578345
 30
0.0
 40
2.209800034761428
 41
56.78950309753417
 71
     1
 72
     1
  1
\fArial|b0|i0;\H2.2098;FIRME DI VERIFICA E APPROVAZIONE
  7
Corrente-ISO
 73
     1
 44
1.0
1001
ACAD
1000
MTEXTBEGIN
1070
    73
1070
     1
1070
    44
1040
1.0
1070
    74
1070
     0
1000
MTEXTEND
  0
MTEXT
  5
2A0
330
297
100
AcDbEntity
  8
II-AM_0
 62
     7
100
AcDbMText
 10
6.65344964311584
 20
9.044092769503713
 30
0.0
 40
2.209800034761428
 41
57.3048973083496
 71
     1
 72
     1
  1
\fArial|b0|i0;\H2.2098;RIPORTATE SUL DISEGNO ORIGINALE
  7
Corrente-ISO
 73
     1
 44
1.0
1001
ACAD
1000
MTEXTBEGIN
1070
    73
1070
     1
1070
    44
1040
1.0
1070
    74
1070
     0
1000
MTEXTEND
  0
MTEXT
  5
2A1
330
297
100
AcDbEntity
  8
II-AM_0
 62
     7
100
AcDbMText
 10
4.053371845049107
 20
4.974204064852525
 30
0.0
 40
2.209800034761428
 41
62.52453804016113
 71
     1
 72
     1
  1
\fArial|b0|i0;\H2.2098;ARCHIVIATE PRESSO L'UFFICIO TECNICO
  7
Corrente-ISO
 73
     1
 44
1.0
1001
ACAD
1000
MTEXTBEGIN
1070
    73
1070
     1
1070
    44
1040
1.0
1070
    74
1070
     0
1000
MTEXTEND
  0
ENDBLK
  5
299
330
297
100
AcDbEntity
  8
0
100
AcDbBlockEnd
  0
BLOCK
  5
2A3
330
2A2
100
AcDbEntity
  8
0
100
AcDbBlockBegin
  2
Bordi Default Border
 70
     0
 10
0.0
 20
0.0
 30
0.0
  3
Bordi Default Border
  1

  0
POLYLINE
  5
2A5
330
2A2
100
AcDbEntity
  8
I-AM_0
100
AcDb2dPolyline
 66
     1
 10
0.0
 20
0.0
 30
0.0
 70
   128
  0
VERTEX
  5
2A6
330
2A5
100
AcDbEntity
  8
I-AM_0
100
AcDbVertex
100
AcDb2dVertex
 10
10.0
 20
10.0
 30
0.0
  0
VERTEX
  5
2A7
330
2A5
100
AcDbEntity
  8
I-AM_0
100
AcDbVertex
100
AcDb2dVertex
 10
10.0
 20
287.0000076293946
 30
0.0
  0
VERTEX
  5
2A9
330
2A5
100
AcDbEntity
  8
I-AM_0
100
AcDbVertex
100
AcDb2dVertex
 10
200.0
 20
287.0000076293946
 30
0.0
  0
VERTEX
  5
2AA
330
2A5
100
AcDbEntity
  8
I-AM_0
100
AcDbVertex
100
AcDb2dVertex
 10
200.0
 20
10.0
 30
0.0
  0
VERTEX
  5
2AB
330
2A5
100
AcDbEntity
  8
I-AM_0
100
AcDbVertex
100
AcDb2dVertex
 10
10.0
 20
10.0
 30
0.0
  0
SEQEND
  5
2A8
330
2A5
100
AcDbEntity
  8
I-AM_0
  0
POLYLINE
  5
2AC
330
2A2
100
AcDbEntity
  8
I-AM_0
100
AcDb2dPolyline
 66
     1
 10
0.0
 20
0.0
 30
0.0
 70
   128
  0
VERTEX
  5
2AD
330
2AC
100
AcDbEntity
  8
I-AM_0
100
AcDbVertex
100
AcDb2dVertex
 10
105.0
 20
0.0
 30
0.0
  0
VERTEX
  5
2AE
330
2AC
100
AcDbEntity
  8
I-AM_0
100
AcDbVertex
100
AcDb2dVertex
 10
105.0
 20
10.0
 30
0.0
  0
VERTEX
  5
2B0
330
2AC
100
AcDbEntity
  8
I-AM_0
100
AcDbVertex
100
AcDb2dVertex
 10
102.1132469177246
 20
5.0
 30
0.0
  0
VERTEX
  5
2B1
330
2AC
100
AcDbEntity
  8
I-AM_0
100
AcDbVertex
100
AcDb2dVertex
 10
107.8867530822754
 20
5.0
 30
0.0
  0
VERTEX
  5
2B2
330
2AC
100
AcDbEntity
  8
I-AM_0
100
AcDbVertex
100
AcDb2dVertex
 10
105.0
 20
10.0
 30
0.0
  0
SEQEND
  5
2AF
330
2AC
100
AcDbEntity
  8
I-AM_0
  0
POLYLINE
  5
2B3
330
2A2
100
AcDbEntity
  8
I-AM_0
100
AcDb2dPolyline
 66
     1
 10
0.0
 20
0.0
 30
0.0
 70
   128
  0
VERTEX
  5
2B4
330
2B3
100
AcDbEntity
  8
I-AM_0
100
AcDbVertex
100
AcDb2dVertex
 10
105.0
 20
297.0000076293946
 30
0.0
  0
VERTEX
  5
2B5
330
2B3
100
AcDbEntity
  8
I-AM_0
100
AcDbVertex
100
AcDb2dVertex
 10
105.0
 20
287.0000076293946
 30
0.0
  0
VERTEX
  5
2B7
330
2B3
100
AcDbEntity
  8
I-AM_0
100
AcDbVertex
100
AcDb2dVertex
 10
102.1132469177246
 20
292.0000076293945
 30
0.0
  0
VERTEX
  5
2B8
330
2B3
100
AcDbEntity
  8
I-AM_0
100
AcDbVertex
100
AcDb2dVertex
 10
107.8867530822754
 20
292.0000076293945
 30
0.0
  0
VERTEX
  5
2B9
330
2B3
100
AcDbEntity
  8
I-AM_0
100
AcDbVertex
100
AcDb2dVertex
 10
105.0
 20
287.0000076293946
 30
0.0
  0
SEQEND
  5
2B6
330
2B3
100
AcDbEntity
  8
I-AM_0
  0
POLYLINE
  5
2BA
330
2A2
100
AcDbEntity
  8
I-AM_0
100
AcDb2dPolyline
 66
     1
 10
0.0
 20
0.0
 30
0.0
 70
   128
  0
VERTEX
  5
2BB
330
2BA
100
AcDbEntity
  8
I-AM_0
100
AcDbVertex
100
AcDb2dVertex
 10
0.0
 20
148.5000038146973
 30
0.0
  0
VERTEX
  5
2BC
330
2BA
100
AcDbEntity
  8
I-AM_0
100
AcDbVertex
100
AcDb2dVertex
 10
10.0
 20
148.5000038146973
 30
0.0
  0
VERTEX
  5
2BE
330
2BA
100
AcDbEntity
  8
I-AM_0
100
AcDbVertex
100
AcDb2dVertex
 10
5.0
 20
151.3867473602295
 30
0.0
  0
VERTEX
  5
2BF
330
2BA
100
AcDbEntity
  8
I-AM_0
100
AcDbVertex
100
AcDb2dVertex
 10
5.0
 20
145.6132507324219
 30
0.0
  0
VERTEX
  5
2C0
330
2BA
100
AcDbEntity
  8
I-AM_0
100
AcDbVertex
100
AcDb2dVertex
 10
10.0
 20
148.5000038146973
 30
0.0
  0
SEQEND
  5
2BD
330
2BA
100
AcDbEntity
  8
I-AM_0
  0
POLYLINE
  5
2C1
330
2A2
100
AcDbEntity
  8
I-AM_0
100
AcDb2dPolyline
 66
     1
 10
0.0
 20
0.0
 30
0.0
 70
   128
  0
VERTEX
  5
2C2
330
2C1
100
AcDbEntity
  8
I-AM_0
100
AcDbVertex
100
AcDb2dVertex
 10
210.0
 20
148.5000038146973
 30
0.0
  0
VERTEX
  5
2C3
330
2C1
100
AcDbEntity
  8
I-AM_0
100
AcDbVertex
100
AcDb2dVertex
 10
200.0
 20
148.5000038146973
 30
0.0
  0
VERTEX
  5
2C5
330
2C1
100
AcDbEntity
  8
I-AM_0
100
AcDbVertex
100
AcDb2dVertex
 10
205.0
 20
151.3867473602295
 30
0.0
  0
VERTEX
  5
2C6
330
2C1
100
AcDbEntity
  8
I-AM_0
100
AcDbVertex
100
AcDb2dVertex
 10
205.0
 20
145.6132507324219
 30
0.0
  0
VERTEX
  5
2C7
330
2C1
100
AcDbEntity
  8
I-AM_0
100
AcDbVertex
100
AcDb2dVertex
 10
200.0
 20
148.5000038146973
 30
0.0
  0
SEQEND
  5
2C4
330
2C1
100
AcDbEntity
  8
I-AM_0
  0
ENDBLK
  5
2A4
330
2A2
100
AcDbEntity
  8
0
100
AcDbBlockEnd
  0
BLOCK
  5
2D8
330
2D7
100
AcDbEntity
  8
0
100
AcDbBlockBegin
  2
*D10
 70
     1
 10
0.0
 20
0.0
 30
0.0
  3
*D10
  1

  0
LINE
  5
3AC
330
2D7
100
AcDbEntity
  8
AM_5
  6
Continuous
 62
    96
370
    25
100
AcDbLine
 10
32.64742770999379
 20
76.17071799767836
 30
0.0
 11
32.64742770999379
 21
69.16188487172007
 31
0.0
  0
LINE
  5
3AD
330
2D7
100
AcDbEntity
  8
AM_5
  6
Continuous
 62
    96
370
    25
100
AcDbLine
 10
74.64742770999378
 20
76.17071799767838
 30
0.0
 11
74.64742770999378
 21
69.16188487172007
 31
0.0
  0
LINE
  5
3AE
330
2D7
100
AcDbEntity
  8
AM_5
  6
Continuous
 62
    96
370
    25
100
AcDbLine
 10
33.89742770999379
 20
69.66188487172008
 30
0.0
 11
73.39742770999378
 21
69.66188487172008
 31
0.0
  0
SOLID
  5
3AF
330
2D7
100
AcDbEntity
  8
AM_5
  6
Continuous
 62
    96
100
AcDbTrace
 10
33.89742770999379
 20
69.8702182050534
 30
0.0
 11
33.89742770999379
 21
69.45355153838675
 31
0.0
 12
32.64742770999379
 22
69.66188487172008
 32
0.0
 13
32.64742770999379
 23
69.66188487172008
 33
0.0
  0
SOLID
  5
3B0
330
2D7
100
AcDbEntity
  8
AM_5
  6
Continuous
 62
    96
100
AcDbTrace
 10
73.39742770999378
 20
69.8702182050534
 30
0.0
 11
73.39742770999378
 21
69.45355153838675
 31
0.0
 12
74.64742770999378
 22
69.66188487172008
 32
0.0
 13
74.64742770999378
 23
69.66188487172008
 33
0.0
  0
MTEXT
  5
3B1
102
{ACAD_XDICTIONARY
360
ACB
102
}
330
2D7
100
AcDbEntity
  8
AM_5
  6
Continuous
 62
     7
370
    25
100
AcDbMText
 10
51.49880901968
 20
71.80004721824122
 30
0.0
 40
1.75
 41
0.0
 71
     1
 72
     1
  1
\A1;42{\H1.250000;\U+00B11}
  7
Corrente-ISO
 73
     1
 44
1.0
1001
ACAD
1000
MTEXTBEGIN
1070
    73
1070
     1
1070
    44
1040
1.0
1070
    74
1070
     0
1000
MTEXTEND
  0
POINT
  5
3B2
330
2D7
100
AcDbEntity
  8
Defpoints
  6
Continuous
 62
     0
100
AcDbPoint
 10
32.64742770999379
 20
76.67071799767836
 30
0.0
  0
POINT
  5
3B3
330
2D7
100
AcDbEntity
  8
Defpoints
  6
Continuous
 62
     0
100
AcDbPoint
 10
74.64742770999378
 20
76.67071799767838
 30
0.0
  0
POINT
  5
3B4
330
2D7
100
AcDbEntity
  8
Defpoints
  6
Continuous
 62
     0
100
AcDbPoint
 10
74.64742770999378
 20
69.66188487172008
 30
0.0
  0
ENDBLK
  5
2D9
330
2D7
100
AcDbEntity
  8
0
100
AcDbBlockEnd
  0
BLOCK
  5
3B7
330
3B6
100
AcDbEntity
  8
0
100
AcDbBlockBegin
  2
*D11
 70
     1
 10
0.0
 20
0.0
 30
0.0
  3
*D11
  1

  0
LINE
  5
49A
330
3B6
100
AcDbEntity
  8
AM_5
  6
Continuous
 62
    96
370
    25
100
AcDbLine
 10
32.64742770999379
 20
76.17071799767836
 30
0.0
 11
32.64742770999379
 21
69.16188487172007
 31
0.0
  0
LINE
  5
49B
330
3B6
100
AcDbEntity
  8
AM_5
  6
Continuous
 62
    96
370
    25
100
AcDbLine
 10
28.64742770999379
 20
76.17071799767836
 30
0.0
 11
28.64742770999379
 21
69.16188487172007
 31
0.0
  0
LINE
  5
49C
330
3B6
100
AcDbEntity
  8
AM_5
  6
Continuous
 62
    96
370
    25
100
AcDbLine
 10
31.39742770999379
 20
69.66188487172008
 30
0.0
 11
29.89742770999379
 21
69.66188487172008
 31
0.0
  0
LINE
  5
49D
330
3B6
100
AcDbEntity
  8
AM_5
  6
Continuous
 62
    96
370
    25
100
AcDbLine
 10
28.64742770999379
 20
69.66188487172008
 30
0.0
 11
24.10061716227814
 21
69.66188487172008
 31
0.0
  0
SOLID
  5
49E
330
3B6
100
AcDbEntity
  8
AM_5
  6
Continuous
 62
    96
100
AcDbTrace
 10
31.39742770999379
 20
69.8702182050534
 30
0.0
 11
31.39742770999379
 21
69.45355153838675
 31
0.0
 12
32.64742770999379
 22
69.66188487172008
 32
0.0
 13
32.64742770999379
 23
69.66188487172008
 33
0.0
  0
SOLID
  5
49F
330
3B6
100
AcDbEntity
  8
AM_5
  6
Continuous
 62
    96
100
AcDbTrace
 10
29.89742770999379
 20
69.8702182050534
 30
0.0
 11
29.89742770999379
 21
69.45355153838675
 31
0.0
 12
28.64742770999379
 22
69.66188487172008
 32
0.0
 13
28.64742770999379
 23
69.66188487172008
 33
0.0
  0
MTEXT
  5
4A0
330
3B6
100
AcDbEntity
  8
AM_5
  6
Continuous
 62
     7
370
    25
100
AcDbMText
 10
24.48161716227814
 20
71.79288487172008
 30
0.0
 40
1.75
 41
0.0
 71
     1
 72
     1
  1
\A1;4
  7
Corrente-ISO
 73
     1
 44
1.0
1001
ACAD
1000
MTEXTBEGIN
1070
    73
1070
     1
1070
    44
1040
1.0
1070
    74
1070
     0
1000
MTEXTEND
  0
POINT
  5
4A1
330
3B6
100
AcDbEntity
  8
Defpoints
  6
Continuous
 62
     0
100
AcDbPoint
 10
32.64742770999379
 20
76.67071799767836
 30
0.0
  0
POINT
  5
4A2
330
3B6
100
AcDbEntity
  8
Defpoints
  6
Continuous
 62
     0
100
AcDbPoint
 10
28.64742770999379
 20
76.67071799767836
 30
0.0
  0
POINT
  5
4A3
330
3B6
100
AcDbEntity
  8
Defpoints
  6
Continuous
 62
     0
100
AcDbPoint
 10
28.64742770999379
 20
69.66188487172008
 30
0.0
  0
ENDBLK
  5
3B8
330
3B6
100
AcDbEntity
  8
0
100
AcDbBlockEnd
  0
BLOCK
  5
4A6
330
4A5
100
AcDbEntity
  8
0
100
AcDbBlockBegin
  2
*D12
 70
     1
 10
0.0
 20
0.0
 30
0.0
  3
*D12
  1

  0
LINE
  5
589
330
4A5
100
AcDbEntity
  8
AM_5
  6
Continuous
 62
    96
370
    25
100
AcDbLine
 10
78.64742770999376
 20
76.17071799767836
 30
0.0
 11
78.64742770999376
 21
69.16188487172007
 31
0.0
  0
LINE
  5
58A
330
4A5
100
AcDbEntity
  8
AM_5
  6
Continuous
 62
    96
370
    25
100
AcDbLine
 10
74.64742770999378
 20
76.17071799767838
 30
0.0
 11
74.64742770999378
 21
69.16188487172007
 31
0.0
  0
LINE
  5
58B
330
4A5
100
AcDbEntity
  8
AM_5
  6
Continuous
 62
    96
370
    25
100
AcDbLine
 10
75.89742770999378
 20
69.66188487172008
 30
0.0
 11
77.39742770999376
 21
69.66188487172008
 31
0.0
  0
LINE
  5
58C
330
4A5
100
AcDbEntity
  8
AM_5
  6
Continuous
 62
    96
370
    25
100
AcDbLine
 10
78.64742770999376
 20
69.66188487172008
 30
0.0
 11
83.19423825770941
 21
69.66188487172008
 31
0.0
  0
SOLID
  5
58D
330
4A5
100
AcDbEntity
  8
AM_5
  6
Continuous
 62
    96
100
AcDbTrace
 10
75.89742770999378
 20
69.8702182050534
 30
0.0
 11
75.89742770999378
 21
69.45355153838675
 31
0.0
 12
74.64742770999378
 22
69.66188487172008
 32
0.0
 13
74.64742770999378
 23
69.66188487172008
 33
0.0
  0
SOLID
  5
58E
330
4A5
100
AcDbEntity
  8
AM_5
  6
Continuous
 62
    96
100
AcDbTrace
 10
77.39742770999376
 20
69.8702182050534
 30
0.0
 11
77.39742770999376
 21
69.45355153838675
 31
0.0
 12
78.64742770999376
 22
69.66188487172008
 32
0.0
 13
78.64742770999376
 23
69.66188487172008
 33
0.0
  0
MTEXT
  5
58F
330
4A5
100
AcDbEntity
  8
AM_5
  6
Continuous
 62
     7
370
    25
100
AcDbMText
 10
81.60280169563575
 20
71.79288487172008
 30
0.0
 40
1.75
 41
0.0
 71
     1
 72
     1
  1
\A1;4
  7
Corrente-ISO
 73
     1
 44
1.0
1001
ACAD
1000
MTEXTBEGIN
1070
    73
1070
     1
1070
    44
1040
1.0
1070
    74
1070
     0
1000
MTEXTEND
  0
POINT
  5
590
330
4A5
100
AcDbEntity
  8
Defpoints
  6
Continuous
 62
     0
100
AcDbPoint
 10
78.64742770999376
 20
76.67071799767836
 30
0.0
  0
POINT
  5
591
330
4A5
100
AcDbEntity
  8
Defpoints
  6
Continuous
 62
     0
100
AcDbPoint
 10
74.64742770999378
 20
76.67071799767838
 30
0.0
  0
POINT
  5
592
330
4A5
100
AcDbEntity
  8
Defpoints
  6
Continuous
 62
     0
100
AcDbPoint
 10
74.64742770999378
 20
69.66188487172008
 30
0.0
  0
ENDBLK
  5
4A7
330
4A5
100
AcDbEntity
  8
0
100
AcDbBlockEnd
  0
BLOCK
  5
595
330
594
100
AcDbEntity
  8
0
100
AcDbBlockBegin
  2
*D13
 70
     1
 10
0.0
 20
0.0
 30
0.0
  3
*D13
  1

  0
LINE
  5
669
330
594
100
AcDbEntity
  8
AM_5
  6
Continuous
 62
    96
370
    25
100
AcDbLine
 10
28.14742770999379
 20
76.67071799767836
 30
0.0
 11
18.14742770999379
 21
76.67071799767836
 31
0.0
  0
LINE
  5
66A
330
594
100
AcDbEntity
  8
AM_5
  6
Continuous
 62
    96
370
    25
100
AcDbLine
 10
36.14742770999378
 20
126.6707179976783
 30
0.0
 11
18.1474277099938
 21
126.6707179976783
 31
0.0
  0
LINE
  5
66B
330
594
100
AcDbEntity
  8
AM_5
  6
Continuous
 62
    96
370
    25
100
AcDbLine
 10
18.64742770999379
 20
77.92071799767836
 30
0.0
 11
18.6474277099938
 21
125.4207179976783
 31
0.0
  0
SOLID
  5
66C
330
594
100
AcDbEntity
  8
AM_5
  6
Continuous
 62
    96
100
AcDbTrace
 10
18.43909437666046
 20
77.92071799767836
 30
0.0
 11
18.85576104332713
 21
77.92071799767836
 31
0.0
 12
18.64742770999379
 22
76.67071799767836
 32
0.0
 13
18.64742770999379
 23
76.67071799767836
 33
0.0
  0
SOLID
  5
66D
330
594
100
AcDbEntity
  8
AM_5
  6
Continuous
 62
    96
100
AcDbTrace
 10
18.43909437666047
 20
125.4207179976783
 30
0.0
 11
18.85576104332714
 21
125.4207179976783
 31
0.0
 12
18.6474277099938
 22
126.6707179976783
 32
0.0
 13
18.6474277099938
 23
126.6707179976783
 33
0.0
  0
MTEXT
  5
66E
102
{ACAD_XDICTIONARY
360
ACD
102
}
330
594
100
AcDbEntity
  8
AM_5
  6
Continuous
 62
     7
370
    25
100
AcDbMText
 10
16.47942225296786
 20
99.44305769754194
 30
0.0
 40
1.75
 41
0.0
 71
     1
 72
     1
  1
\A1;50{\H1.250000;\U+00B12}
  7
Corrente-ISO
 11
0.0000000000000001
 21
1.0
 31
0.0
 73
     1
 44
1.0
1001
ACAD
1000
MTEXTBEGIN
1070
    73
1070
     1
1070
    44
1040
1.0
1070
    74
1070
     0
1000
MTEXTEND
  0
POINT
  5
66F
330
594
100
AcDbEntity
  8
Defpoints
  6
Continuous
 62
     0
100
AcDbPoint
 10
28.64742770999379
 20
76.67071799767836
 30
0.0
  0
POINT
  5
670
330
594
100
AcDbEntity
  8
Defpoints
  6
Continuous
 62
     0
100
AcDbPoint
 10
36.64742770999378
 20
126.6707179976783
 30
0.0
  0
POINT
  5
671
330
594
100
AcDbEntity
  8
Defpoints
  6
Continuous
 62
     0
100
AcDbPoint
 10
18.6474277099938
 20
126.6707179976783
 30
0.0
  0
ENDBLK
  5
596
330
594
100
AcDbEntity
  8
0
100
AcDbBlockEnd
  0
BLOCK
  5
674
330
673
100
AcDbEntity
  8
0
100
AcDbBlockBegin
  2
*D14
 70
     1
 10
0.0
 20
0.0
 30
0.0
  3
*D14
  1

  0
LINE
  5
73F
330
673
100
AcDbEntity
  8
AM_5
  6
Continuous
 62
    96
370
    25
100
AcDbLine
 10
28.64742770999379
 20
76.17071799767836
 30
0.0
 11
28.64742770999379
 21
61.17071799767836
 31
0.0
  0
LINE
  5
740
330
673
100
AcDbEntity
  8
AM_5
  6
Continuous
 62
    96
370
    25
100
AcDbLine
 10
78.64742770999376
 20
76.17071799767836
 30
0.0
 11
78.64742770999376
 21
61.17071799767836
 31
0.0
  0
LINE
  5
741
330
673
100
AcDbEntity
  8
AM_5
  6
Continuous
 62
    96
370
    25
100
AcDbLine
 10
29.89742770999379
 20
61.67071799767835
 30
0.0
 11
77.39742770999376
 21
61.67071799767835
 31
0.0
  0
SOLID
  5
742
330
673
100
AcDbEntity
  8
AM_5
  6
Continuous
 62
    96
100
AcDbTrace
 10
29.89742770999379
 20
61.87905133101169
 30
0.0
 11
29.89742770999379
 21
61.46238466434502
 31
0.0
 12
28.64742770999379
 22
61.67071799767835
 32
0.0
 13
28.64742770999379
 23
61.67071799767835
 33
0.0
  0
SOLID
  5
743
330
673
100
AcDbEntity
  8
AM_5
  6
Continuous
 62
    96
100
AcDbTrace
 10
77.39742770999376
 20
61.87905133101169
 30
0.0
 11
77.39742770999376
 21
61.46238466434502
 31
0.0
 12
78.64742770999376
 22
61.67071799767835
 32
0.0
 13
78.64742770999376
 23
61.67071799767835
 33
0.0
  0
MTEXT
  5
744
330
673
100
AcDbEntity
  8
AM_5
  6
Continuous
 62
     7
370
    25
100
AcDbMText
 10
52.39700137984371
 20
63.83872345470429
 30
0.0
 40
1.75
 41
0.0
 71
     1
 72
     1
  1
\A1;50
  7
Corrente-ISO
 73
     1
 44
1.0
1001
ACAD
1000
MTEXTBEGIN
1070
    73
1070
     1
1070
    44
1040
1.0
1070
    74
1070
     0
1000
MTEXTEND
  0
POINT
  5
745
330
673
100
AcDbEntity
  8
Defpoints
  6
Continuous
 62
     0
100
AcDbPoint
 10
28.64742770999379
 20
76.67071799767836
 30
0.0
  0
POINT
  5
746
330
673
100
AcDbEntity
  8
Defpoints
  6
Continuous
 62
     0
100
AcDbPoint
 10
78.64742770999376
 20
76.67071799767836
 30
0.0
  0
POINT
  5
747
330
673
100
AcDbEntity
  8
Defpoints
  6
Continuous
 62
     0
100
AcDbPoint
 10
78.64742770999376
 20
61.67071799767835
 30
0.0
  0
ENDBLK
  5
675
330
673
100
AcDbEntity
  8
0
100
AcDbBlockEnd
  0
BLOCK
  5
74A
330
749
100
AcDbEntity
  8
0
100
AcDbBlockBegin
  2
*D15
 70
     1
 10
0.0
 20
0.0
 30
0.0
  3
*D15
  1

  0
LINE
  5
7DF
330
749
100
AcDbEntity
  8
AM_5
  6
Continuous
 62
    96
370
    25
100
AcDbLine
 10
45.3736140066027
 20
116.4325282195121
 30
0.0
 11
38.88561748816068
 21
116.4325282195121
 31
0.0
  0
LINE
  5
7E0
330
749
100
AcDbEntity
  8
AM_5
  6
Continuous
 62
    96
370
    25
100
AcDbLine
 10
38.88561748816068
 20
116.4325282195121
 30
0.0
 11
34.70288406173043
 21
120.6152616459411
 31
0.0
  0
MTEXT
  5
7E1
330
749
100
AcDbEntity
  8
AM_5
  6
Continuous
 62
     7
370
    25
100
AcDbMText
 10
42.55881182379235
 20
118.5635282195121
 30
0.0
 40
1.75
 41
0.0
 71
     1
 72
     1
  1
\A1;R4
  7
Corrente-ISO
 73
     1
 44
1.0
1001
ACAD
1000
MTEXTBEGIN
1070
    73
1070
     1
1070
    44
1040
1.0
1070
    74
1070
     0
1000
MTEXTEND
  0
SOLID
  5
7E2
330
749
100
AcDbEntity
  8
AM_5
  6
Continuous
 62
    96
100
AcDbTrace
 10
34.8501979744776
 20
120.7625755586883
 30
0.0
 11
34.55557014898325
 21
120.4679477331939
 31
0.0
 12
33.81900058524712
 22
121.4991451224241
 32
0.0
 13
33.81900058524712
 23
121.4991451224241
 33
0.0
  0
POINT
  5
7E3
330
749
100
AcDbEntity
  8
Defpoints
  6
Continuous
 62
     0
100
AcDbPoint
 10
33.81900058524712
 20
121.4991451224241
 30
0.0
  0
POINT
  5
7E4
330
749
100
AcDbEntity
  8
Defpoints
  6
Continuous
 62
     0
100
AcDbPoint
 10
36.64742770999377
 20
118.6707179976783
 30
0.0
  0
ENDBLK
  5
74B
330
749
100
AcDbEntity
  8
0
100
AcDbBlockEnd
  0
BLOCK
  5
7E7
330
7E6
100
AcDbEntity
  8
0
100
AcDbBlockBegin
  2
Cartigli COMUNELLO
 70
     2
 10
0.0
 20
0.0
 30
0.0
  3
Cartigli COMUNELLO
  1

  0
HATCH
  5
7F5
330
7E6
100
AcDbEntity
  8
AM_8
 62
     7
100
AcDbHatch
 10
0.0
 20
0.0
 30
0.0
210
0.0
220
0.0
230
1.0
  2
SOLID
 70
     1
 71
     0
 91
        2
 92
        0
 93
        6
 72
     1
 10
13.50007588364672
 20
19.89302050081428
 11
30.89993084866332
 21
19.89302050081416
 72
     1
 10
30.89993084866332
 20
19.89302050081416
 11
30.89993084866332
 21
23.04299424448097
 72
     1
 10
30.89993084866332
 20
23.04299424448097
 11
27.77220960581477
 21
23.04299424448103
 72
     2
 10
22.20000336615506
 20
37.30358966223789
 40
15.31058666564578
 50
68.65735037136855
 51
111.3426496286315
 73
     0
 72
     1
 10
16.62779712649531
 20
23.04299424448104
 11
13.50007588364672
 21
23.04299424448097
 72
     1
 10
13.50007588364672
 20
23.04299424448097
 11
13.50007588364672
 21
19.89302050081428
 97
        0
 92
        1
 93
        6
 72
     1
 10
32.69991584504435
 20
18.09303550443317
 11
32.69991584504435
 21
24.84297924086209
 72
     1
 10
32.69991584504435
 20
24.84297924086208
 11
27.42202839407664
 21
24.84297924086206
 72
     2
 10
22.20000336615506
 20
37.30358966223789
 40
13.51060166926475
 50
67.26229019813374
 51
112.7377098018664
 73
     0
 72
     1
 10
16.97797833823344
 20
24.84297924086206
 11
11.70009088726569
 21
24.84297924086208
 72
     1
 10
11.70009088726569
 20
24.84297924086208
 11
11.70009088726569
 21
18.09303550443317
 72
     1
 10
11.70009088726569
 20
18.09303550443317
 11
32.69991584504435
 21
18.09303550443317
 97
        0
 75
     0
 76
     1
 98
        1
 10
0.0
 20
0.0
  0
HATCH
  5
7FE
330
7E6
100
AcDbEntity
  8
AM_8
 62
     7
100
AcDbHatch
 10
0.0
 20
0.0
 30
0.0
210
0.0
220
0.0
230
1.0
  2
SOLID
 70
     1
 71
     0
 91
        1
 92
        1
 93
        8
 72
     1
 10
95.05771295395282
 20
26.74999998775002
 11
27.77386600155343
 21
26.74999998775007
 72
     2
 10
22.20000336615506
 20
39.84359466344421
 40
14.23060667047108
 50
66.94084417726135
 51
113.0591558227387
 73
     0
 72
     1
 10
16.62614073075666
 20
26.74999998775004
 11
10.0
 21
26.74999998775003
 72
     1
 10
10.0
 20
26.74999998775003
 11
10.00000000000025
 21
26.24999998775003
 72
     1
 10
10.00000000000025
 20
26.24999998775003
 11
16.52506224989093
 21
26.24999998775001
 72
     2
 10
22.20000336615506
 20
39.84359466344421
 40
14.73060667047108
 50
247.3408443660875
 51
292.6591556339125
 73
     1
 72
     1
 10
27.87494448241919
 20
26.24999998775003
 11
95.05771295395282
 21
26.24999998775003
 72
     1
 10
95.05771295395282
 20
26.24999998775003
 11
95.05771295395282
 21
26.74999998775002
 97
        0
 75
     0
 76
     1
 98
        1
 10
0.0
 20
0.0
  0
HATCH
  5
80B
330
7E6
100
AcDbEntity
  8
AM_8
 62
     7
100
AcDbHatch
 10
0.0
 20
0.0
 30
0.0
210
0.0
220
0.0
230
1.0
  2
SOLID
 70
     1
 71
     0
 91
        2
 92
        0
 93
        6
 72
     1
 10
30.90009088726564
 20
32.93297924086207
 11
30.90009088726564
 21
29.78297924086208
 72
     1
 10
30.90009088726564
 20
29.78297924086208
 11
26.91257430898715
 21
29.78297924086208
 72
     2
 10
22.20009088726563
 20
39.83297924086207
 40
11.1
 50
64.87793981336809
 51
115.1220601866318
 73
     0
 72
     1
 10
17.48760746554413
 20
29.78297924086206
 11
13.50009088726564
 21
29.78297924086206
 72
     1
 10
13.50009088726564
 20
29.78297924086206
 11
13.50009088726564
 21
32.93297924086207
 72
     1
 10
13.50009088726564
 20
32.93297924086207
 11
30.90009088726564
 21
32.93297924086207
 97
        0
 92
        1
 93
        6
 72
     1
 10
11.70009088726567
 20
34.7329792408621
 11
32.70009088726567
 21
34.73297924086214
 72
     1
 10
32.70009088726567
 20
34.73297924086214
 11
32.70009088726565
 21
27.98297924086213
 72
     1
 10
32.70009088726565
 20
27.98297924086213
 11
27.30247474189664
 21
27.98297924086202
 72
     2
 10
22.20009088726567
 20
39.84297924086207
 40
12.911
 50
66.72176127080208
 51
113.2782387291978
 73
     0
 72
     1
 10
17.09770703263471
 20
27.98297924086201
 11
11.70009088726569
 21
27.98297924086199
 72
     1
 10
11.70009088726569
 20
27.98297924086199
 11
11.70009088726567
 21
34.7329792408621
 97
        0
 75
     0
 76
     1
 98
        1
 10
0.0
 20
0.0
  0
LINE
  5
80C
330
7E6
100
AcDbEntity
  8
I-AM_0
  6
Continuous
 62
     7
370
    50
100
AcDbLine
 10
200.0
 20
67.5
 30
0.0
 11
10.0
 21
67.5
 31
0.0
  0
LINE
  5
80D
330
7E6
100
AcDbEntity
  8
I-AM_0
  6
Continuous
 62
     7
370
    50
100
AcDbLine
 10
10.0
 20
59.5
 30
0.0
 11
200.0
 21
59.5
 31
0.0
  0
LINE
  5
80E
330
7E6
100
AcDbEntity
  8
I-AM_0
  6
Continuous
 62
     7
370
    50
100
AcDbLine
 10
10.0
 20
54.5
 30
0.0
 11
200.0000000000002
 21
54.5
 31
0.0
  0
LINE
  5
80F
330
7E6
100
AcDbEntity
  8
I-AM_0
  6
Continuous
 62
     7
370
    50
100
AcDbLine
 10
9.999999999999998
 20
46.49999997550015
 30
0.0
 11
200.0000000000002
 21
46.49999997550015
 31
0.0
  0
LINE
  5
810
330
7E6
100
AcDbEntity
  8
I-AM_0
  6
Continuous
 62
     7
370
    50
100
AcDbLine
 10
10.0
 20
38.49999997550006
 30
0.0
 11
200.0000000000002
 21
38.49999997550006
 31
0.0
  0
LINE
  5
811
330
7E6
100
AcDbEntity
  8
I-AM_0
  6
Continuous
 62
     7
370
    50
100
AcDbLine
 10
10.0
 20
14.5
 30
0.0
 11
200.0
 21
14.5
 31
0.0
  0
LINE
  5
812
330
7E6
100
AcDbEntity
  8
I-AM_0
  6
Continuous
 62
     7
370
    50
100
AcDbLine
 10
10.0
 20
10.0
 30
0.0
 11
200.0
 21
10.0
 31
0.0
  0
LINE
  5
813
330
7E6
100
AcDbEntity
  8
I-AM_0
  6
Continuous
 62
     7
370
    50
100
AcDbLine
 10
126.5003211145929
 20
30.50000000000001
 30
0.0
 11
200.0
 21
30.50000000000001
 31
0.0
  0
LINE
  5
814
330
7E6
100
AcDbEntity
  8
I-AM_0
  6
Continuous
 62
     7
370
    50
100
AcDbLine
 10
126.5003211145929
 20
22.5
 30
0.0
 11
200.0
 21
22.5
 31
0.0
  0
LINE
  5
815
330
7E6
100
AcDbEntity
  8
I-AM_0
  6
Continuous
 62
     7
370
    50
100
AcDbLine
 10
10.0
 20
10.0
 30
0.0
 11
9.999999999999998
 21
67.5
 31
0.0
  0
LINE
  5
816
330
7E6
100
AcDbEntity
  8
I-AM_0
  6
Continuous
 62
     7
370
    50
100
AcDbLine
 10
82.71476190476196
 20
67.5
 30
0.0
 11
82.71476190476199
 21
38.49999997550006
 31
0.0
  0
LINE
  5
817
330
7E6
100
AcDbEntity
  8
I-AM_0
  6
Continuous
 62
     7
370
    50
100
AcDbLine
 10
34.23825396825403
 20
46.49999997550015
 30
0.0
 11
34.23825396825403
 21
38.49999997550006
 31
0.0
  0
LINE
  5
818
330
7E6
100
AcDbEntity
  8
I-AM_0
  6
Continuous
 62
     7
370
    50
100
AcDbLine
 10
58.47650793650799
 20
46.49999997550015
 30
0.0
 11
58.47650793650799
 21
38.49999997550003
 31
0.0
  0
LINE
  5
819
330
7E6
100
AcDbEntity
  8
I-AM_0
  6
Continuous
 62
     7
370
    50
100
AcDbLine
 10
111.6495238095238
 20
67.5
 30
0.0
 11
111.6495238095238
 21
38.4999999755002
 31
0.0
  0
LINE
  5
81A
330
7E6
100
AcDbEntity
  8
I-AM_0
  6
Continuous
 62
     7
370
    50
100
AcDbLine
 10
126.5003211145929
 20
46.49999997550015
 30
0.0
 11
126.5003211145929
 21
14.5
 31
0.0
  0
LINE
  5
81B
330
7E6
100
AcDbEntity
  8
I-AM_0
  6
Continuous
 62
     7
370
    50
100
AcDbLine
 10
159.8068536898258
 20
46.49999997550015
 30
0.0
 11
159.8068536898258
 21
22.5
 31
0.0
  0
LINE
  5
81C
330
7E6
100
AcDbEntity
  8
I-AM_0
  6
Continuous
 62
     7
370
    50
100
AcDbLine
 10
176.9329761904763
 20
67.5
 30
0.0
 11
176.9329761904763
 21
22.5
 31
0.0
  0
LINE
  5
81D
330
7E6
100
AcDbEntity
  8
I-AM_0
  6
Continuous
 62
     7
370
    50
100
AcDbLine
 10
200.0
 20
67.5
 30
0.0
 11
200.0
 21
10.0
 31
0.0
  0
LINE
  5
81E
330
7E6
100
AcDbEntity
  8
I-AM_0
  6
Continuous
 62
     7
370
    50
100
AcDbLine
 10
32.69991584504435
 20
18.09303550443317
 30
0.0
 11
32.69991584504435
 21
24.84297924086208
 31
0.0
  0
LINE
  5
81F
330
7E6
100
AcDbEntity
  8
I-AM_0
  6
Continuous
 62
     7
370
    50
100
AcDbLine
 10
30.89993084866332
 20
19.89302050081416
 30
0.0
 11
30.89993084866332
 21
23.04299424448097
 31
0.0
  0
LINE
  5
820
330
7E6
100
AcDbEntity
  8
I-AM_0
  6
Continuous
 62
     7
370
    50
100
AcDbLine
 10
11.70009088726569
 20
18.09303550443317
 30
0.0
 11
11.70009088726569
 21
24.84297924086208
 31
0.0
  0
LINE
  5
821
330
7E6
100
AcDbEntity
  8
I-AM_0
  6
Continuous
 62
     7
370
    50
100
AcDbLine
 10
13.50007588364672
 20
19.89302050081428
 30
0.0
 11
13.50007588364672
 21
23.04299424448097
 31
0.0
  0
LINE
  5
822
330
7E6
100
AcDbEntity
  8
I-AM_0
  6
Continuous
 62
     7
370
    50
100
AcDbLine
 10
32.69991584504435
 20
18.09303550443317
 30
0.0
 11
11.70009088726569
 21
18.09303550443317
 31
0.0
  0
LINE
  5
823
330
7E6
100
AcDbEntity
  8
I-AM_0
  6
Continuous
 62
     7
370
    50
100
AcDbLine
 10
30.89993084866332
 20
19.89302050081416
 30
0.0
 11
13.50007588364672
 21
19.89302050081428
 31
0.0
  0
ARC
  5
824
330
7E6
100
AcDbEntity
  8
I-AM_0
  6
Continuous
 62
     7
370
    50
100
AcDbCircle
 10
22.20000336615506
 20
37.30358966223789
 30
0.0
 40
15.31058666564578
100
AcDbArc
 50
248.6573503713684
 51
291.3426496286315
  0
ARC
  5
825
330
7E6
100
AcDbEntity
  8
I-AM_0
  6
Continuous
 62
     7
370
    50
100
AcDbCircle
 10
22.20000336615506
 20
37.30358966223789
 30
0.0
 40
13.51060166926475
100
AcDbArc
 50
247.2622901981336
 51
292.7377098018663
  0
LINE
  5
826
330
7E6
100
AcDbEntity
  8
I-AM_0
  6
Continuous
 62
     7
370
    50
100
AcDbLine
 10
11.70009088726569
 20
24.84297924086208
 30
0.0
 11
16.97797833823344
 21
24.84297924086206
 31
0.0
  0
LINE
  5
827
330
7E6
100
AcDbEntity
  8
I-AM_0
  6
Continuous
 62
     7
370
    50
100
AcDbLine
 10
13.50007588364672
 20
23.04299424448097
 30
0.0
 11
16.62779712649531
 21
23.04299424448104
 31
0.0
  0
LINE
  5
828
330
7E6
100
AcDbEntity
  8
I-AM_0
  6
Continuous
 62
     7
370
    50
100
AcDbLine
 10
27.42202839407664
 20
24.84297924086206
 30
0.0
 11
32.69991584504435
 21
24.84297924086208
 31
0.0
  0
LINE
  5
829
330
7E6
100
AcDbEntity
  8
I-AM_0
  6
Continuous
 62
     7
370
    50
100
AcDbLine
 10
27.77220960581477
 20
23.04299424448103
 30
0.0
 11
30.89993084866332
 21
23.04299424448097
 31
0.0
  0
LINE
  5
82A
330
7E6
100
AcDbEntity
  8
I-AM_0
  6
Continuous
 62
     7
370
    50
100
AcDbLine
 10
95.05771295395282
 20
26.74999998775002
 30
0.0
 11
95.05771295395282
 21
26.24999998775003
 31
0.0
  0
LINE
  5
82B
330
7E6
100
AcDbEntity
  8
I-AM_0
  6
Continuous
 62
     7
370
    50
100
AcDbLine
 10
16.62614073075666
 20
26.74999998775004
 30
0.0
 11
10.0
 21
26.74999998775003
 31
0.0
  0
ARC
  5
82C
330
7E6
100
AcDbEntity
  8
I-AM_0
  6
Continuous
 62
     7
370
    50
100
AcDbCircle
 10
22.20000336615506
 20
39.84359466344421
 30
0.0
 40
14.23060667047107
100
AcDbArc
 50
246.9408441772613
 51
293.0591558227387
  0
LINE
  5
82D
330
7E6
100
AcDbEntity
  8
I-AM_0
  6
Continuous
 62
     7
370
    50
100
AcDbLine
 10
27.77386600155342
 20
26.74999998775007
 30
0.0
 11
95.05771295395282
 21
26.74999998775002
 31
0.0
  0
LINE
  5
82E
330
7E6
100
AcDbEntity
  8
I-AM_0
  6
Continuous
 62
     7
370
    50
100
AcDbLine
 10
27.87494448241919
 20
26.24999998775003
 30
0.0
 11
95.05771295395282
 21
26.24999998775003
 31
0.0
  0
ARC
  5
82F
330
7E6
100
AcDbEntity
  8
I-AM_0
  6
Continuous
 62
     7
370
    50
100
AcDbCircle
 10
22.20000336615506
 20
39.84359466344421
 30
0.0
 40
14.73060667047108
100
AcDbArc
 50
247.3408443660875
 51
292.6591556339125
  0
LINE
  5
830
330
7E6
100
AcDbEntity
  8
I-AM_0
  6
Continuous
 62
     7
370
    50
100
AcDbLine
 10
16.52506224989093
 20
26.24999998775001
 30
0.0
 11
10.00000000000025
 21
26.24999998775003
 31
0.0
  0
LINE
  5
831
330
7E6
100
AcDbEntity
  8
I-AM_0
  6
Continuous
 62
     7
370
    50
100
AcDbLine
 10
10.0
 20
26.74999998775003
 30
0.0
 11
10.00000000000025
 21
26.24999998775003
 31
0.0
  0
LINE
  5
832
330
7E6
100
AcDbEntity
  8
I-AM_0
  6
Continuous
 62
     7
370
    50
100
AcDbLine
 10
70.09301344488737
 20
40.10977632401654
 30
0.0
 11
70.06166132979082
 21
45.19999997550015
 31
0.0
  0
LINE
  5
833
330
7E6
100
AcDbEntity
  8
I-AM_0
  6
Continuous
 62
     7
370
    50
100
AcDbLine
 10
62.715217801343
 20
44.2999999755001
 30
0.0
 11
70.06166132979082
 21
45.19999997550015
 31
0.0
  0
LINE
  5
834
330
7E6
100
AcDbEntity
  8
I-AM_0
  6
Continuous
 62
     7
370
    50
100
AcDbLine
 10
62.715217801343
 20
40.69999997550009
 30
0.0
 11
70.09301344488737
 21
40.10977632401654
 31
0.0
  0
LINE
  5
835
330
7E6
100
AcDbEntity
  8
I-AM_0
  6
Continuous
 62
     7
370
    50
100
AcDbLine
 10
62.715217801343
 20
40.69999997550009
 30
0.0
 11
62.715217801343
 21
44.2999999755001
 31
0.0
  0
LINE
  5
836
330
7E6
100
AcDbEntity
  8
I-AM_0
  6
LONG_DASH_DOTTED
 62
     7
 48
25.40819931030274
370
    25
100
AcDbLine
 10
61.89509347490513
 20
42.4999999755001
 30
0.0
 11
79.03957443821731
 21
42.4999999755001
 31
0.0
  0
CIRCLE
  5
837
330
7E6
100
AcDbEntity
  8
I-AM_0
  6
Continuous
 62
     7
370
    50
100
AcDbCircle
 10
75.61970665301604
 20
42.4999999755001
 30
0.0
 40
2.835161292266829
  0
CIRCLE
  5
838
330
7E6
100
AcDbEntity
  8
I-AM_0
  6
Continuous
 62
     7
370
    50
100
AcDbCircle
 10
75.61970665301604
 20
42.4999999755001
 30
0.0
 40
1.8
  0
LINE
  5
839
330
7E6
100
AcDbEntity
  8
I-AM_0
  6
DASH_DOT
 62
     7
 48
25.41209030151367
370
    25
100
AcDbLine
 10
75.61970665301604
 20
45.98912961192912
 30
0.0
 11
75.61970665301604
 21
39.01126421122319
 31
0.0
  0
LINE
  5
83A
330
7E6
100
AcDbEntity
  8
I-AM_0
100
AcDbLine
 10
13.50009088726564
 20
32.93297924086207
 30
0.0
 11
30.90009088726564
 21
32.93297924086207
 31
0.0
  0
LINE
  5
83B
330
7E6
100
AcDbEntity
  8
I-AM_0
100
AcDbLine
 10
30.90009088726564
 20
32.93297924086207
 30
0.0
 11
30.90009088726564
 21
29.78297924086208
 31
0.0
  0
LINE
  5
83C
330
7E6
100
AcDbEntity
  8
I-AM_0
100
AcDbLine
 10
30.90009088726564
 20
29.78297924086208
 30
0.0
 11
26.91257430898715
 21
29.78297924086208
 31
0.0
  0
LINE
  5
83D
330
7E6
100
AcDbEntity
  8
I-AM_0
100
AcDbLine
 10
13.50009088726564
 20
32.93297924086207
 30
0.0
 11
13.50009088726564
 21
29.78297924086206
 31
0.0
  0
LINE
  5
83E
330
7E6
100
AcDbEntity
  8
I-AM_0
100
AcDbLine
 10
13.50009088726564
 20
29.78297924086206
 30
0.0
 11
17.48760746554413
 21
29.78297924086206
 31
0.0
  0
ARC
  5
83F
330
7E6
100
AcDbEntity
  8
I-AM_0
100
AcDbCircle
 10
22.20009088726563
 20
39.83297924086207
 30
0.0
 40
11.1
100
AcDbArc
 50
244.8779398133681
 51
295.122060186632
  0
LINE
  5
840
330
7E6
100
AcDbEntity
  8
I-AM_0
100
AcDbLine
 10
11.70009088726567
 20
34.7329792408621
 30
0.0
 11
32.70009088726567
 21
34.73297924086214
 31
0.0
  0
LINE
  5
841
330
7E6
100
AcDbEntity
  8
I-AM_0
100
AcDbLine
 10
32.70009088726567
 20
34.73297924086214
 30
0.0
 11
32.70009088726565
 21
27.98297924086213
 31
0.0
  0
LINE
  5
842
330
7E6
100
AcDbEntity
  8
I-AM_0
100
AcDbLine
 10
32.70009088726565
 20
27.98297924086213
 30
0.0
 11
27.30247474189664
 21
27.98297924086202
 31
0.0
  0
LINE
  5
843
330
7E6
100
AcDbEntity
  8
I-AM_0
100
AcDbLine
 10
11.70009088726567
 20
34.7329792408621
 30
0.0
 11
11.70009088726569
 21
27.98297924086199
 31
0.0
  0
LINE
  5
844
330
7E6
100
AcDbEntity
  8
I-AM_0
100
AcDbLine
 10
11.70009088726569
 20
27.98297924086199
 30
0.0
 11
17.09770703263471
 21
27.98297924086201
 31
0.0
  0
ARC
  5
845
330
7E6
100
AcDbEntity
  8
I-AM_0
100
AcDbCircle
 10
22.20009088726567
 20
39.84297924086207
 30
0.0
 40
12.911
100
AcDbArc
 50
246.7217612708022
 51
293.2782387291979
  0
CIRCLE
  5
846
330
7E6
100
AcDbEntity
  8
I-AM_0
  6
Continuous
370
    25
100
AcDbCircle
 10
94.17107124803315
 20
30.38071944555288
 30
0.0
 40
1.196319387325194
  0
LINE
  5
847
330
7E6
100
AcDbEntity
  8
I-AM_0
100
AcDbLine
 10
0.0
 20
10.0
 30
0.0
 11
0.0
 21
12.0
 31
0.0
  0
LINE
  5
848
330
7E6
100
AcDbEntity
  8
I-AM_0
100
AcDbLine
 10
200.0
 20
297.0
 30
0.0
 11
198.0000000000001
 21
297.0
 31
0.0
  0
MTEXT
  5
849
330
7E6
100
AcDbEntity
  8
II-AM_0
 62
    96
100
AcDbMText
 10
46.375
 20
57.00000000000001
 30
0.0
 40
2.489199936389923
 41
72.75
 71
     5
 72
     1
  1
\fArial|b0|i0;\H2.4892;Denominazione
  7
Corrente-ISO
 73
     1
 44
1.0
1001
ACAD
1000
MTEXTBEGIN
1070
    73
1070
     1
1070
    44
1040
1.0
1070
    74
1070
     0
1000
MTEXTEND
  0
MTEXT
  5
84A
330
7E6
100
AcDbEntity
  8
II-AM_0
 62
    96
100
AcDbMText
 10
97.25000000000001
 20
57.00000000000001
 30
0.0
 40
2.489199936389923
 41
29.0
 71
     5
 72
     1
  1
\fArial|b0|i0;\H2.4892;Codice Disegno
  7
Corrente-ISO
 73
     1
 44
1.0
1001
ACAD
1000
MTEXTBEGIN
1070
    73
1070
     1
1070
    44
1040
1.0
1070
    74
1070
     0
1000
MTEXTEND
  0
MTEXT
  5
84B
330
7E6
100
AcDbEntity
  8
II-AM_0
 62
    96
100
AcDbMText
 10
144.375
 20
57.00000000000001
 30
0.0
 40
2.489199936389923
 41
65.24999999999998
 71
     5
 72
     1
  1
\fArial|b0|i0;\H2.4892;Materiale-UNI
  7
Corrente-ISO
 73
     1
 44
1.0
1001
ACAD
1000
MTEXTBEGIN
1070
    73
1070
     1
1070
    44
1040
1.0
1070
    74
1070
     0
1000
MTEXTEND
  0
MTEXT
  5
84C
330
7E6
100
AcDbEntity
  8
II-AM_0
 62
    96
100
AcDbMText
 10
188.5
 20
57.00000000000001
 30
0.0
 40
2.489199936389923
 41
23.00000000000001
 71
     5
 72
     1
  1
\fArial|b0|i0;\H2.4892;Codice Mater.
  7
Corrente-ISO
 73
     1
 44
1.0
1001
ACAD
1000
MTEXTBEGIN
1070
    73
1070
     1
1070
    44
1040
1.0
1070
    74
1070
     0
1000
MTEXTEND
  0
MTEXT
  5
84D
330
7E6
100
AcDbEntity
  8
II-AM_0
 62
    96
100
AcDbMText
 10
11.03637498653142
 20
53.62542943640336
 30
0.0
 40
2.489199936389923
 41
0.0
 71
     1
 72
     1
  1
\fArial|b0|i0;\H2.4892;Tolleranze Generali
  7
Corrente-ISO
 73
     1
 44
1.0
1001
ACAD
1000
MTEXTBEGIN
1070
    73
1070
     1
1070
    44
1040
1.0
1070
    74
1070
     0
1000
MTEXTEND
  0
MTEXT
  5
84E
330
7E6
100
AcDbEntity
  8
II-AM_0
 62
    96
100
AcDbMText
 10
22.0
 20
45.62331331753725
 30
0.0
 40
2.489199936389923
 41
22.0
 71
     2
 72
     1
  1
\fArial|b0|i0;\H2.4892;Sostituisce il
  7
Corrente-ISO
 73
     1
 44
1.0
1001
ACAD
1000
MTEXTBEGIN
1070
    73
1070
     1
1070
    44
1040
1.0
1070
    74
1070
     0
1000
MTEXTEND
  0
MTEXT
  5
84F
330
7E6
100
AcDbEntity
  8
II-AM_0
 62
    96
100
AcDbMText
 10
46.5
 20
45.57392268569088
 30
0.0
 40
2.489199936389923
 41
23.0
 71
     2
 72
     1
  1
\fArial|b0|i0;\H2.4892;Sostituito dal
  7
Corrente-ISO
 73
     1
 44
1.0
1001
ACAD
1000
MTEXTBEGIN
1070
    73
1070
     1
1070
    44
1040
1.0
1070
    74
1070
     0
1000
MTEXTEND
  0
MTEXT
  5
850
330
7E6
100
AcDbEntity
  8
II-AM_0
 62
    96
100
AcDbMText
 10
84.0
 20
45.52415962817554
 30
0.0
 40
2.489199936389923
 41
20.0
 71
     1
 72
     1
  1
\fArial|b0|i0;\H2.4892;Scala
  7
Corrente-ISO
 73
     1
 44
1.0
1001
ACAD
1000
MTEXTBEGIN
1070
    73
1070
     1
1070
    44
1040
1.0
1070
    74
1070
     0
1000
MTEXTEND
  0
MTEXT
  5
851
330
7E6
100
AcDbEntity
  8
II-AM_0
 62
    96
100
AcDbMText
 10
119.2198163354513
 20
45.48687767908593
 30
0.0
 40
2.489199936389923
 41
12.5
 71
     2
 72
     1
  1
\fArial|b0|i0;\H2.4892;Foglio\P 
  7
Corrente-ISO
 73
     2
 44
0.9442214369773864
1001
ACAD
1000
MTEXTBEGIN
1070
    73
1070
     2
1070
    44
1040
0.9442214369773864
1070
    74
1070
     0
1000
MTEXTEND
  0
MTEXT
  5
852
330
7E6
100
AcDbEntity
  8
II-AM_0
 62
    96
100
AcDbMText
 10
97.44767410410688
 20
52.26743745909543
 30
0.0
 40
2.489199936389923
 41
27.00000000000001
 71
     5
 72
     1
  1
\fArial|b0|i0;\H2.4892;Peso Unit.(Kg)
  7
Corrente-ISO
 73
     1
 44
1.0
1001
ACAD
1000
MTEXTBEGIN
1070
    73
1070
     1
1070
    44
1040
1.0
1070
    74
1070
     0
1000
MTEXTEND
  0
MTEXT
  5
853
330
7E6
100
AcDbEntity
  8
II-AM_0
 62
    96
100
AcDbMText
 10
113.0
 20
53.52906693798992
 30
0.0
 40
2.489199936389923
 41
41.5
 71
     1
 72
     1
  1
\fArial|b0|i0;\H2.4892;Trattamento
  7
Corrente-ISO
 73
     1
 44
1.0
1001
ACAD
1000
MTEXTBEGIN
1070
    73
1070
     1
1070
    44
1040
1.0
1070
    74
1070
     0
1000
MTEXTEND
  0
MTEXT
  5
854
330
7E6
100
AcDbEntity
  8
II-AM_0
 62
    96
100
AcDbMText
 10
188.6268379764541
 20
52.23897215805649
 30
0.0
 40
2.489199936389923
 41
21.64389610290527
 71
     5
 72
     1
  1
\fArial|b0|i0;\H2.4892;Coeff.Impiego
  7
Corrente-ISO
 73
     1
 44
1.0
1001
ACAD
1000
MTEXTBEGIN
1070
    73
1070
     1
1070
    44
1040
1.0
1070
    74
1070
     0
1000
MTEXTEND
  0
MTEXT
  5
855
330
7E6
100
AcDbEntity
  8
II-AM_0
 62
    96
100
AcDbMText
 10
127.0
 20
45.54724501095818
 30
0.0
 40
2.489199936389923
 41
32.5
 71
     1
 72
     1
  1
\fArial|b0|i0;\H2.4892;Disegnato
  7
Corrente-ISO
 73
     1
 44
1.0
1001
ACAD
1000
MTEXTBEGIN
1070
    73
1070
     1
1070
    44
1040
1.0
1070
    74
1070
     0
1000
MTEXTEND
  0
MTEXT
  5
856
330
7E6
100
AcDbEntity
  8
II-AM_0
 62
    96
100
AcDbMText
 10
127.1130530408996
 20
37.43473480983361
 30
0.0
 40
2.489199936389923
 41
31.99999999999999
 71
     1
 72
     1
  1
\fArial|b0|i0;\H2.4892;Verificato
  7
Corrente-ISO
 73
     1
 44
1.0
1001
ACAD
1000
MTEXTBEGIN
1070
    73
1070
     1
1070
    44
1040
1.0
1070
    74
1070
     0
1000
MTEXTEND
  0
MTEXT
  5
857
330
7E6
100
AcDbEntity
  8
II-AM_0
 62
    96
100
AcDbMText
 10
127.0565265204498
 20
29.43473480983361
 30
0.0
 40
2.489199936389923
 41
31.99999999999999
 71
     1
 72
     1
  1
\fArial|b0|i0;\H2.4892;Approvato
  7
Corrente-ISO
 73
     1
 44
1.0
1001
ACAD
1000
MTEXTBEGIN
1070
    73
1070
     1
1070
    44
1040
1.0
1070
    74
1070
     0
1000
MTEXTEND
  0
MTEXT
  5
858
330
7E6
100
AcDbEntity
  8
II-AM_0
 62
     7
100
AcDbMText
 10
33.90115953460973
 20
31.79652138804769
 30
0.0
 40
3.50519984960556
 41
58.00000000000001
 71
     1
 72
     1
  1
\fArial Black|b1|i0;\H3.5052;Fratelli Comunello 
  7
Corrente-ISO
 73
     1
 44
1.0
1001
ACAD
1000
MTEXTBEGIN
1070
    73
1070
     1
1070
    44
1040
1.0
1070
    74
1070
     0
1000
MTEXTEND
  0
MTEXT
  5
859
330
7E6
100
AcDbEntity
  8
II-AM_0
 62
     7
100
AcDbMText
 10
83.87549784754645
 20
30.17629441918698
 30
0.0
 40
2.006599903106689
 41
8.000000000000007
 71
     1
 72
     1
  1
\fArial Black|b1|i0;\H2.0066;S.p.A
  7
Corrente-ISO
 73
     1
 44
1.0
1001
ACAD
1000
MTEXTBEGIN
1070
    73
1070
     1
1070
    44
1040
1.0
1070
    74
1070
     0
1000
MTEXTEND
  0
MTEXT
  5
85A
330
7E6
100
AcDbEntity
  8
II-AM_0
 62
     7
100
AcDbMText
 10
34.0
 20
24.5
 30
0.0
 40
2.489199936389923
 41
61.00000000000001
 71
     1
 72
     1
  1
\fEuroRoman|b0|i0;\W1.75;\H2.4892;Accessories for fittings
  7
Corrente-ISO
 73
     1
 44
1.0
1001
ACAD
1000
MTEXTBEGIN
1070
    73
1070
     1
1070
    44
1040
1.0
1070
    74
1070
     0
1000
MTEXTEND
  0
MTEXT
  5
85B
102
{ACAD_XDICTIONARY
360
ACF
102
}
330
7E6
100
AcDbEntity
  8
II-AM_0
 62
     7
100
AcDbMText
 10
99.38145982981417
 20
35.34883259221208
 30
0.0
 40
2.006599903106689
 41
27.99999999999999
 71
     1
 72
     1
  1
\fArial|b0|i0;\H2.0066;Via Cassola , 64\P36027 Ros\U+00E0 (VI)\PITALY\PTel.0424/585111\PFax.0424/533417\Pwww.comunello.com
  7
Corrente-ISO
 73
     2
 44
0.9442214965820312
1001
ACAD
1000
MTEXTBEGIN
1070
    73
1070
     2
1070
    44
1040
0.9442214965820312
1070
    74
1070
     0
1000
MTEXTEND
  0
MTEXT
  5
85C
330
7E6
100
AcDbEntity
  8
II-AM_0
 62
     7
100
AcDbMText
 10
105.0
 20
12.1031239376365
 30
0.0
 40
2.006599903106689
 41
190.0
 71
     5
 72
     1
  1
\fArial Black|b1|i0;\W0.75;\H2.0066;La Fratelli Comunello S.p.A. si riserva a termini di legge la proprieta' del presente disegno con divieto di riprodurlo o comunicarlo a terzi senza sua autorizzazione
  7
Corrente-ISO
 73
     1
 44
1.0
1001
ACAD
1000
MTEXTBEGIN
1070
    73
1070
     1
1070
    44
1040
1.0
1070
    74
1070
     0
1000
MTEXTEND
  0
MTEXT
  5
85D
330
7E6
100
AcDbEntity
  8
II-AM_0
 62
    96
100
AcDbMText
 10
127.0
 20
21.49126132885024
 30
0.0
 40
2.489199936389923
 41
14.0
 71
     1
 72
     1
  1
\fArial|b0|i0;\H2.4892;Nr.Art.
  7
Corrente-ISO
 73
     1
 44
1.0
1001
ACAD
1000
MTEXTBEGIN
1070
    73
1070
     1
1070
    44
1040
1.0
1070
    74
1070
     0
1000
MTEXTEND
  0
MTEXT
  5
85E
330
7E6
100
AcDbEntity
  8
II-AM_0
 62
    96
100
AcDbMText
 10
160.1920425734282
 20
45.54306374702739
 30
0.0
 40
2.489199936389923
 41
13.99999999999998
 71
     1
 72
     1
  1
\fArial|b0|i0;\H2.4892;Data
  7
Corrente-ISO
 73
     1
 44
1.0
1001
ACAD
1000
MTEXTBEGIN
1070
    73
1070
     1
1070
    44
1040
1.0
1070
    74
1070
     0
1000
MTEXTEND
  0
MTEXT
  5
85F
330
7E6
100
AcDbEntity
  8
II-AM_0
 62
    96
100
AcDbMText
 10
160.145574392169
 20
37.49970139293061
 30
0.0
 40
2.489199936389923
 41
13.50000000000001
 71
     1
 72
     1
  1
\fArial|b0|i0;\H2.4892;Data
  7
Corrente-ISO
 73
     1
 44
1.0
1001
ACAD
1000
MTEXTBEGIN
1070
    73
1070
     1
1070
    44
1040
1.0
1070
    74
1070
     0
1000
MTEXTEND
  0
MTEXT
  5
860
330
7E6
100
AcDbEntity
  8
II-AM_0
 62
    96
100
AcDbMText
 10
160.1269413643238
 20
29.66759768010355
 30
0.0
 40
2.489199936389923
 41
11.99999999999999
 71
     1
 72
     1
  1
\fArial|b0|i0;\H2.4892;Data
  7
Corrente-ISO
 73
     1
 44
1.0
1001
ACAD
1000
MTEXTBEGIN
1070
    73
1070
     1
1070
    44
1040
1.0
1070
    74
1070
     0
1000
MTEXTEND
  0
MTEXT
  5
861
330
7E6
100
AcDbEntity
  8
II-AM_0
 62
    96
100
AcDbMText
 10
188.433042920287
 20
44.22190362458245
 30
0.0
 40
2.489199936389923
 41
21.64389610290527
 71
     5
 72
     1
  1
\fArial|b0|i0;\H2.4892;Attrezzatura 1
  7
Corrente-ISO
 73
     1
 44
1.0
1001
ACAD
1000
MTEXTBEGIN
1070
    73
1070
     1
1070
    44
1040
1.0
1070
    74
1070
     0
1000
MTEXTEND
  0
MTEXT
  5
862
330
7E6
100
AcDbEntity
  8
II-AM_0
 62
    96
100
AcDbMText
 10
188.0837249836041
 20
36.34533462143185
 30
0.0
 40
2.489199936389923
 41
20.54728269577026
 71
     5
 72
     1
  1
\fArial|b0|i0;\W0.95;\H2.4892;Attrezzatura 2
  7
Corrente-ISO
 73
     1
 44
1.0
1001
ACAD
1000
MTEXTBEGIN
1070
    73
1070
     1
1070
    44
1040
1.0
1070
    74
1070
     0
1000
MTEXTEND
  0
MTEXT
  5
863
330
7E6
100
AcDbEntity
  8
II-AM_0
 62
    96
100
AcDbMText
 10
188.3141272195963
 20
28.3675383381331
 30
0.0
 40
2.489199936389923
 41
21.64389610290527
 71
     5
 72
     1
  1
\fArial|b0|i0;\H2.4892;Attrezzatura 3
  7
Corrente-ISO
 73
     1
 44
1.0
1001
ACAD
1000
MTEXTBEGIN
1070
    73
1070
     1
1070
    44
1040
1.0
1070
    74
1070
     0
1000
MTEXTEND
  0
MTEXT
  5
864
330
7E6
100
AcDbEntity
  8
II-AM_0
 62
     7
100
AcDbMText
 10
11.5
 20
50.09709167610179
 30
0.0
 40
2.489199936389923
 41
43.0
 71
     1
 72
     1
  1
\fArial|b0|i0;\H2.4892;UNI EN 22768-m
  7
Corrente-ISO
 73
     1
 44
1.0
1001
ACAD
1000
MTEXTBEGIN
1070
    73
1070
     1
1070
    44
1040
1.0
1070
    74
1070
     0
1000
MTEXTEND
  0
MTEXT
  5
865
330
7E6
100
AcDbEntity
  8
II-AM_0
 62
     7
100
AcDbMText
 10
93.43312134410579
 20
31.15001179156206
 30
0.0
 40
1.49859994649887
 41
0.0
 71
     1
 72
     1
  1
\fArial|b0|i0;\H1.4986;R
  7
Corrente-ISO
 73
     1
 44
1.0
1001
ACAD
1000
MTEXTBEGIN
1070
    73
1070
     1
1070
    44
1040
1.0
1070
    74
1070
     0
1000
MTEXTEND
  0
ATTDEF
  5
867
102
{ACAD_XDICTIONARY
360
8BE
102
}
330
7E6
100
AcDbEntity
  8
II-AM_0
 62
     7
100
AcDbText
 10
10.79194871400258
 20
64.45781237692007
 30
0.0
 40
2.006599903106689
  1
MONOROTAIA GUIDACANCELLO
  7
Stile testo6
100
AcDbAttributeDefinition
  3
Denominazione  1
  2
Denominazione__1_001
 70
     0
  0
ATTDEF
  5
868
102
{ACAD_XDICTIONARY
360
8C1
102
}
330
7E6
100
AcDbEntity
  8
II-AM_0
 62
     7
100
AcDbText
 10
11.0
 20
60.99340009689331
 30
0.0
 40
2.006599903106689
  1

  7
Stile testo6
 11
11.0
 21
63.0
 31
0.0
100
AcDbAttributeDefinition
  3
Denominazione 2
  2
Denominazione_2
 70
     0
 74
     3
  0
ATTDEF
  5
86A
102
{ACAD_XDICTIONARY
360
8C4
102
}
330
7E6
100
AcDbEntity
  8
II-AM_0
 62
     7
100
AcDbText
 10
89.95776167031669
 20
61.74740007519723
 30
0.0
 40
3.50519984960556
  1
CG-254
 41
0.75
  7
Stile testo135
100
AcDbAttributeDefinition
  3
CODICE DISEGNO
  2
CODICE_DISEGNO_001
 70
     0
  0
ATTDEF
  5
86C
102
{ACAD_XDICTIONARY
360
8C7
102
}
330
7E6
100
AcDbEntity
  8
II-AM_0
 62
     7
100
AcDbText
 10
123.0688659855321
 20
64.50445696708944
 30
0.0
 40
2.006599903106689
  1
LAMIERA sp. 40/10 PREZINCATA
  7
Stile testo6
100
AcDbAttributeDefinition
  3
Materiale 1
  2
Materiale_1_001
 70
     0
  0
ATTDEF
  5
86D
102
{ACAD_XDICTIONARY
360
8CA
102
}
330
7E6
100
AcDbEntity
  8
II-AM_0
 62
     7
100
AcDbText
 10
124.3004846185451
 20
60.49670004844665
 30
0.0
 40
2.006599903106689
  1
ACCIAIO S235JR UNI EN 10025
  7
Stile testo6
100
AcDbAttributeDefinition
  3
Materiale 2
  2
Materiale_2_001
 70
     0
  0
ATTDEF
  5
86E
102
{ACAD_XDICTIONARY
360
8CD
102
}
330
7E6
100
AcDbEntity
  8
II-AM_0
 62
     7
100
AcDbText
 10
188.5
 20
62.49670004844666
 30
0.0
 40
2.006599903106689
  1

  7
Stile testo6
 72
     1
 11
188.5
 21
63.5
 31
0.0
100
AcDbAttributeDefinition
  3
CODICE MATERIALE
  2
CODICE_MATERIALE
 70
     0
 74
     2
  0
ATTDEF
  5
86F
102
{ACAD_XDICTIONARY
360
8D0
102
}
330
7E6
100
AcDbEntity
  8
II-AM_0
 62
     7
100
AcDbText
 10
97.05039695754834
 20
47.24746089643153
 30
0.0
 40
2.489199936389923
  1

  7
Stile testo15
 72
     1
 11
97.05039695754834
 21
48.4920608646265
 31
0.0
100
AcDbAttributeDefinition
  3
PESO UNITARIO KG
  2
PESO_UNITARIO_KG
 70
     0
 74
     2
  0
ATTDEF
  5
870
102
{ACAD_XDICTIONARY
360
8D3
102
}
330
7E6
100
AcDbEntity
  8
II-AM_0
 62
     7
100
AcDbText
 10
132.5077790073107
 20
50.94924388835789
 30
0.0
 40
2.489199936389923
  1
001 ZINCATURA
  7
Stile testo15
100
AcDbAttributeDefinition
  3
TRATTAMENTO 1
  2
TRATTAMENTO_1_001
 70
     0
  0
ATTDEF
  5
871
102
{ACAD_XDICTIONARY
360
8D6
102
}
330
7E6
100
AcDbEntity
  8
II-AM_0
 62
     7
100
AcDbText
 10
113.0632687693352
 20
47.49849971798101
 30
0.0
 40
2.489199936389923
  1

  7
Stile testo15
 11
113.0632687693352
 21
49.98769965437094
 31
0.0
100
AcDbAttributeDefinition
  3
TRATTAMENTO 2
  2
TRATTAMENTO_2
 70
     0
 74
     3
  0
ATTDEF
  5
872
102
{ACAD_XDICTIONARY
360
8D9
102
}
330
7E6
100
AcDbEntity
  8
II-AM_0
 62
     7
100
AcDbText
 10
188.5523258958931
 20
47.38184462506182
 30
0.0
 40
2.489199936389923
  1

  7
Stile testo15
 72
     1
 11
188.5523258958931
 21
48.62644459325678
 31
0.0
100
AcDbAttributeDefinition
  3
COEFFICIENTE D'IMPEGO
  2
COEFFICIENTE_D'IMPEGO
 70
     0
 74
     2
  0
ATTDEF
  5
873
102
{ACAD_XDICTIONARY
360
8DC
102
}
330
7E6
100
AcDbEntity
  8
II-AM_0
 62
     7
100
AcDbText
 10
95.10123975477393
 20
39.75030617108937
 30
0.0
 40
2.489199936389923
  1
2:1
  7
Stile testo15
100
AcDbAttributeDefinition
  3
SCALA
  2
SCALA_001
 70
     0
  0
ATTDEF
  5
874
102
{ACAD_XDICTIONARY
360
8DF
102
}
330
7E6
100
AcDbEntity
  8
II-AM_0
 62
     7
100
AcDbText
 10
117.1550359571239
 20
39.15834221229631
 30
0.0
 40
2.489199936389923
  1
A4
  7
Stile testo15
100
AcDbAttributeDefinition
  3
FOGLIO
  2
FOGLIO_001
 70
     0
  0
ATTDEF
  5
875
102
{ACAD_XDICTIONARY
360
8E2
102
}
330
7E6
100
AcDbEntity
  8
II-AM_0
 62
     7
100
AcDbText
 10
127.3268087356673
 20
38.96835122431284
 30
0.0
 40
2.489199936389923
  1
CRESTANI
  7
Stile testo15
100
AcDbAttributeDefinition
  3
DISEGNATO
  2
DISEGNATO_001
 70
     0
  0
ATTDEF
  5
876
102
{ACAD_XDICTIONARY
360
8E5
102
}
330
7E6
100
AcDbEntity
  8
II-AM_0
 62
     7
100
AcDbText
 10
161.5150671571005
 20
39.25540003180504
 30
0.0
 40
2.489199936389923
  1
25/10/04
  7
Stile testo15
100
AcDbAttributeDefinition
  3
DATA
  2
DATA_001
 70
     0
  0
ATTDEF
  5
877
102
{ACAD_XDICTIONARY
360
8E8
102
}
330
7E6
100
AcDbEntity
  8
II-AM_0
 62
     7
100
AcDbText
 10
161.5150671571005
 20
31.50540003180504
 30
0.0
 40
2.489199936389923
  1
25/10/04
  7
Stile testo15
100
AcDbAttributeDefinition
  3
DATA
  2
DATA_001
 70
     0
  0
ATTDEF
  5
878
102
{ACAD_XDICTIONARY
360
8EB
102
}
330
7E6
100
AcDbEntity
  8
II-AM_0
 62
     7
100
AcDbText
 10
161.5150671571005
 20
23.50540003180504
 30
0.0
 40
2.489199936389923
  1
25/10/04
  7
Stile testo15
100
AcDbAttributeDefinition
  3
DATA
  2
DATA_001
 70
     0
  0
ATTDEF
  5
879
102
{ACAD_XDICTIONARY
360
8EE
102
}
330
7E6
100
AcDbEntity
  8
II-AM_0
 62
     7
100
AcDbText
 10
137.8158294861797
 20
19.04984984195285
 30
0.0
 40
2.489199936389923
  1

  7
Stile testo15
 11
137.8158294861797
 21
21.53904977834278
 31
0.0
100
AcDbAttributeDefinition
  3
NUMERO ARTICOLO
  2
NUMERO_ARTICOLO
 70
     0
 74
     3
  0
ATTDEF
  5
87A
102
{ACAD_XDICTIONARY
360
8F1
102
}
330
7E6
100
AcDbEntity
  8
II-AM_0
 62
     7
100
AcDbText
 10
127.1848152468796
 20
15.15058891438324
 30
0.0
 40
2.489199936389923
  1

  7
Stile testo15
 11
127.1848152468796
 21
17.63978885077316
 31
0.0
100
AcDbAttributeDefinition
  3
NUMERO ARTICOLO
  2
NUMERO_ARTICOLO
 70
     0
 74
     3
  0
ATTDEF
  5
87B
102
{ACAD_XDICTIONARY
360
8F4
102
}
330
7E6
100
AcDbEntity
  8
II-AM_0
 62
     7
100
AcDbText
 10
188.5
 20
39.25540003180504
 30
0.0
 40
2.489199936389923
  1

  7
Stile testo15
 72
     1
 11
188.5
 21
40.5
 31
0.0
100
AcDbAttributeDefinition
  3
ATTREZZAT. 1
  2
ATTREZZAT._1
 70
     0
 74
     2
  0
ATTDEF
  5
87C
102
{ACAD_XDICTIONARY
360
8F7
102
}
330
7E6
100
AcDbEntity
  8
II-AM_0
 62
     7
100
AcDbText
 10
188.5
 20
31.25540003180504
 30
0.0
 40
2.489199936389923
  1

  7
Stile testo15
 72
     1
 11
188.5
 21
32.5
 31
0.0
100
AcDbAttributeDefinition
  3
ATTREZZAT.2
  2
ATTREZZAT.2
 70
     0
 74
     2
  0
ATTDEF
  5
87D
102
{ACAD_XDICTIONARY
360
8FA
102
}
330
7E6
100
AcDbEntity
  8
II-AM_0
 62
     7
100
AcDbText
 10
188.5
 20
23.25540003180504
 30
0.0
 40
2.489199936389923
  1

  7
Stile testo15
 72
     1
 11
188.5
 21
24.5
 31
0.0
100
AcDbAttributeDefinition
  3
ATTREZZAT.3
  2
ATTREZZAT.3
 70
     0
 74
     2
  0
ATTDEF
  5
87E
102
{ACAD_XDICTIONARY
360
8FD
102
}
330
7E6
100
AcDbEntity
  8
II-AM_0
 62
     7
100
AcDbText
 10
22.0
 20
39.75540003180504
 30
0.0
 40
2.489199936389923
  1

  7
Stile testo15
 72
     1
 11
22.0
 21
41.0
 31
0.0
100
AcDbAttributeDefinition
  3
SOSTITUISCE IL
  2
SOSTITUISCE_IL
 70
     0
 74
     2
  0
ATTDEF
  5
87F
102
{ACAD_XDICTIONARY
360
900
102
}
330
7E6
100
AcDbEntity
  8
II-AM_0
 62
     7
100
AcDbText
 10
46.5
 20
39.75540003180504
 30
0.0
 40
2.489199936389923
  1

  7
Stile testo15
 72
     1
 11
46.5
 21
41.0
 31
0.0
100
AcDbAttributeDefinition
  3
SOSTITUITO DAL
  2
SOSTITUITO_DAL
 70
     0
 74
     2
  0
ENDBLK
  5
7E8
330
7E6
100
AcDbEntity
  8
0
100
AcDbBlockEnd
  0
ENDSEC
  0
SECTION
  2
ENTITIES
  0
ARC
  5
2C9
330
77
100
AcDbEntity
  8
AM_0
100
AcDbCircle
 10
70.64742770999377
 20
118.6707179976783
 30
0.0
 40
7.999999999999998
100
AcDbArc
 50
0.0
 51
90.0
  0
ARC
  5
2CA
330
77
100
AcDbEntity
  8
AM_0
100
AcDbCircle
 10
36.64742770999377
 20
118.6707179976783
 30
0.0
 40
7.999999999999989
100
AcDbArc
 50
90.0
 51
180.0
  0
LINE
  5
2CB
330
77
100
AcDbEntity
  8
AM_0
100
AcDbLine
 10
78.64742770999377
 20
118.6707179976783
 30
0.0
 11
78.64742770999376
 21
76.67071799767836
 31
0.0
  0
LINE
  5
2CC
330
77
100
AcDbEntity
  8
AM_0
100
AcDbLine
 10
36.64742770999378
 20
126.6707179976783
 30
0.0
 11
70.64742770999377
 21
126.6707179976783
 31
0.0
  0
LINE
  5
2CD
330
77
100
AcDbEntity
  8
AM_0
100
AcDbLine
 10
28.64742770999379
 20
76.67071799767836
 30
0.0
 11
28.64742770999378
 21
118.6707179976783
 31
0.0
  0
LINE
  5
2CE
330
77
100
AcDbEntity
  8
AM_0
100
AcDbLine
 10
32.64742770999379
 20
76.67071799767836
 30
0.0
 11
28.64742770999379
 21
76.67071799767836
 31
0.0
  0
LINE
  5
2CF
330
77
100
AcDbEntity
  8
AM_0
100
AcDbLine
 10
32.64742770999377
 20
118.6707179976783
 30
0.0
 11
32.64742770999379
 21
76.67071799767836
 31
0.0
  0
LINE
  5
2D0
330
77
100
AcDbEntity
  8
AM_0
100
AcDbLine
 10
70.64742770999377
 20
122.6707179976783
 30
0.0
 11
36.64742770999377
 21
122.6707179976783
 31
0.0
  0
LINE
  5
2D1
330
77
100
AcDbEntity
  8
AM_0
100
AcDbLine
 10
74.64742770999378
 20
76.67071799767838
 30
0.0
 11
74.64742770999376
 21
118.6707179976783
 31
0.0
  0
LINE
  5
2D2
330
77
100
AcDbEntity
  8
AM_0
100
AcDbLine
 10
78.64742770999376
 20
76.67071799767836
 30
0.0
 11
74.64742770999378
 21
76.67071799767838
 31
0.0
  0
ARC
  5
2D3
330
77
100
AcDbEntity
  8
AM_0
100
AcDbCircle
 10
36.64742770999378
 20
118.6707179976783
 30
0.0
 40
3.999999999999999
100
AcDbArc
 50
90.0000000000001
 51
180.0
  0
ARC
  5
2D4
330
77
100
AcDbEntity
  8
AM_0
100
AcDbCircle
 10
70.64742770999377
 20
118.6707179976783
 30
0.0
 40
3.999999999999999
100
AcDbArc
 50
0.0
 51
90.0
  0
DIMENSION
  5
2D5
330
77
100
AcDbEntity
  8
AM_5
  6
Continuous
 62
    96
370
    25
100
AcDbDimension
  2
*D10
 10
74.64742770999378
 20
69.66188487172008
 30
0.0
 11
53.64742770999377
 21
69.66188487172008
 31
0.0
 70
   160
  1
<>
 42
41.99999999999999
  3
MAURO
100
AcDbAlignedDimension
 13
32.64742770999379
 23
76.67071799767836
 33
0.0
 14
74.64742770999378
 24
76.67071799767838
 34
0.0
 50
180.0
100
AcDbRotatedDimension
1001
ACAD
1000
DSTYLE
1002
{
1070
   172
1070
     0
1070
   289
1070
     1
1070
    74
1070
     0
1070
   271
1070
     3
1070
   147
1040
0.762
1070
    72
1070
     0
1070
    71
1070
     1
1070
   272
1070
     3
1070
    48
1040
1.0
1070
    47
1040
1.0
1002
}
  0
DIMENSION
  5
3B5
330
77
100
AcDbEntity
  8
AM_5
  6
Continuous
 62
    96
370
    25
100
AcDbDimension
  2
*D11
 10
28.64742770999379
 20
69.66188487172008
 30
0.0
 11
25.08683544331498
 21
69.66188487172008
 31
0.0
 70
   160
  1
<>
 42
4.0
  3
MAURO
100
AcDbAlignedDimension
 13
32.64742770999379
 23
76.67071799767836
 33
0.0
 14
28.64742770999379
 24
76.67071799767836
 34
0.0
 50
180.0
100
AcDbRotatedDimension
1001
ACAD
1000
DSTYLE
1002
{
1070
   172
1070
     0
1070
   289
1070
     2
1070
    74
1070
     0
1070
   271
1070
     3
1070
   272
1070
     3
1070
    48
1040
0.0
1070
    47
1040
0.0
1002
}
  0
DIMENSION
  5
4A4
330
77
100
AcDbEntity
  8
AM_5
  6
Continuous
 62
    96
370
    25
100
AcDbDimension
  2
*D12
 10
74.64742770999378
 20
69.66188487172008
 30
0.0
 11
82.20801997667258
 21
69.66188487172008
 31
0.0
 70
   160
  1
<>
 42
3.999999999999985
  3
MAURO
100
AcDbAlignedDimension
 13
78.64742770999376
 23
76.67071799767836
 33
0.0
 14
74.64742770999378
 24
76.67071799767838
 34
0.0
 50
180.0
100
AcDbRotatedDimension
1001
ACAD
1000
DSTYLE
1002
{
1070
   172
1070
     0
1070
   289
1070
     2
1070
    74
1070
     0
1070
   271
1070
     3
1070
   272
1070
     3
1070
    48
1040
0.0
1070
    47
1040
0.0
1002
}
  0
DIMENSION
  5
593
330
77
100
AcDbEntity
  8
AM_5
  6
Continuous
 62
    96
370
    25
100
AcDbDimension
  2
*D13
 10
18.6474277099938
 20
126.6707179976783
 30
0.0
 11
18.64742770999378
 21
101.6707179976783
 31
0.0
 70
   160
  1
<>
 42
50.00000000000001
  3
MAURO
100
AcDbAlignedDimension
 13
28.64742770999379
 23
76.67071799767836
 33
0.0
 14
36.64742770999378
 24
126.6707179976783
 34
0.0
 50
90.0
100
AcDbRotatedDimension
1001
ACAD
1000
DSTYLE
1002
{
1070
   172
1070
     0
1070
   289
1070
     1
1070
    74
1070
     0
1070
   271
1070
     3
1070
   147
1040
0.762
1070
    72
1070
     0
1070
    71
1070
     1
1070
   272
1070
     3
1070
    48
1040
2.0
1070
    47
1040
2.0
1002
}
  0
DIMENSION
  5
672
330
77
100
AcDbEntity
  8
AM_5
  6
Continuous
 62
    96
370
    25
100
AcDbDimension
  2
*D14
 10
78.64742770999376
 20
61.67071799767835
 30
0.0
 11
53.64742770999377
 21
61.67071799767835
 31
0.0
 70
   160
  1
<>
 42
49.99999999999998
  3
MAURO
100
AcDbAlignedDimension
 13
28.64742770999379
 23
76.67071799767836
 33
0.0
 14
78.64742770999376
 24
76.67071799767836
 34
0.0
 50
0.0000000000000116
100
AcDbRotatedDimension
1001
ACAD
1000
DSTYLE
1002
{
1070
   172
1070
     0
1070
   289
1070
     1
1070
    74
1070
     0
1070
   271
1070
     3
1070
   272
1070
     3
1070
    48
1040
0.0
1070
    47
1040
0.0
1002
}
  0
DIMENSION
  5
748
330
77
100
AcDbEntity
  8
AM_5
  6
Continuous
 62
    96
370
    25
100
AcDbDimension
  2
*D15
 10
36.64742770999377
 20
118.6707179976783
 30
0.0
 11
43.96621291519753
 21
116.4325282195121
 31
0.0
 70
   164
  1
<>
 42
4.000000000000063
  3
MAURO
100
AcDbRadialDimension
 15
33.81900058524712
 25
121.4991451224241
 35
0.0
 40
0.0
1001
ACAD_DSTYLE_DIMRADIAL_EXTENSION
1070
   387
1070
     1
1070
   388
1040
0.0
1070
   390
1040
0.0
1001
ACAD
1000
DSTYLE
1002
{
1070
   172
1070
     0
1070
    73
1070
     1
1070
   271
1070
     3
1070
   141
1040
0.0
1070
   272
1070
     3
1070
    48
1040
0.0
1070
    47
1040
0.0
1002
}
  0
ENDSEC
  0
SECTION
  2
OBJECTS
  0
DICTIONARY
  5
C
330
0
100
AcDbDictionary
281
     1
  3
ACAD_COLOR
350
6E
  3
ACAD_GROUP
350
D
  3
ACAD_LAYOUT
350
6D
  3
ACAD_MATERIAL
350
10
  3
ACAD_MLEADERSTYLE
350
71
  3
ACAD_MLINESTYLE
350
6A
  3
ACAD_PLOTSETTINGS
350
6C
  3
ACAD_PLOTSTYLENAME
350
E
  3
ACAD_SCALELIST
350
3D
  3
ACAD_TABLESTYLE
350
6F
  3
ACAD_VISUALSTYLE
350
29
  3
ACDB_RECOMPOSE_DATA
350
A99
  3
AcDbVariableDictionary
350
9A2
  3
AcmDictionary
350
A14
  3
AMG
350
9BD
  3
AMGSNAPSETTINGS
350
A4B
  3
DWGPROPS
350
A9A
  0
DICTIONARY
  5
95F
330
8
100
AcDbDictionary
280
     1
281
     1
  0
DICTIONARY
  5
8A5
330
27D
100
AcDbDictionary
280
     1
281
     1
  3
ACAD_MLATT
360
A5E
  3
ACAD_XREC_ROUNDTRIP
360
A5D
  0
DICTIONARY
  5
8A8
330
280
100
AcDbDictionary
280
     1
281
     1
  3
ACAD_MLATT
360
A60
  3
ACAD_XREC_ROUNDTRIP
360
A5F
  0
DICTIONARY
  5
8AB
330
282
100
AcDbDictionary
280
     1
281
     1
  3
ACAD_MLATT
360
A62
  3
ACAD_XREC_ROUNDTRIP
360
A61
  0
DICTIONARY
  5
8AE
330
284
100
AcDbDictionary
280
     1
281
     1
  3
ACAD_MLATT
360
A64
  3
ACAD_XREC_ROUNDTRIP
360
A63
  0
DICTIONARY
  5
8B1
330
285
100
AcDbDictionary
280
     1
281
     1
  3
ACAD_MLATT
360
A66
  3
ACAD_XREC_ROUNDTRIP
360
A65
  0
DICTIONARY
  5
8B4
330
286
100
AcDbDictionary
280
     1
281
     1
  3
ACAD_MLATT
360
A68
  3
ACAD_XREC_ROUNDTRIP
360
A67
  0
DICTIONARY
  5
8B7
330
287
100
AcDbDictionary
280
     1
281
     1
  3
ACAD_MLATT
360
A6A
  3
ACAD_XREC_ROUNDTRIP
360
A69
  0
DICTIONARY
  5
ACB
330
3B1
100
AcDbDictionary
280
     1
281
     1
  3
ACAD_MTEXT_RT
360
ACC
  0
DICTIONARY
  5
ACD
330
66E
100
AcDbDictionary
280
     1
281
     1
  3
ACAD_MTEXT_RT
360
ACE
  0
DICTIONARY
  5
ACF
330
85B
100
AcDbDictionary
280
     1
281
     1
  3
ACAD_MTEXT_RT
360
AD0
  0
DICTIONARY
  5
8BE
330
867
100
AcDbDictionary
280
     1
281
     1
  3
ACAD_MLATT
360
A6C
  3
ACAD_XREC_ROUNDTRIP
360
A6B
  0
DICTIONARY
  5
8C1
330
868
100
AcDbDictionary
280
     1
281
     1
  3
ACAD_MLATT
360
A6E
  3
ACAD_XREC_ROUNDTRIP
360
A6D
  0
DICTIONARY
  5
8C4
330
86A
100
AcDbDictionary
280
     1
281
     1
  3
ACAD_MLATT
360
A70
  3
ACAD_XREC_ROUNDTRIP
360
A6F
  0
DICTIONARY
  5
8C7
330
86C
100
AcDbDictionary
280
     1
281
     1
  3
ACAD_MLATT
360
A72
  3
ACAD_XREC_ROUNDTRIP
360
A71
  0
DICTIONARY
  5
8CA
330
86D
100
AcDbDictionary
280
     1
281
     1
  3
ACAD_MLATT
360
A74
  3
ACAD_XREC_ROUNDTRIP
360
A73
  0
DICTIONARY
  5
8CD
330
86E
100
AcDbDictionary
280
     1
281
     1
  3
ACAD_MLATT
360
A76
  3
ACAD_XREC_ROUNDTRIP
360
A75
  0
DICTIONARY
  5
8D0
330
86F
100
AcDbDictionary
280
     1
281
     1
  3
ACAD_MLATT
360
A78
  3
ACAD_XREC_ROUNDTRIP
360
A77
  0
DICTIONARY
  5
8D3
330
870
100
AcDbDictionary
280
     1
281
     1
  3
ACAD_MLATT
360
A7A
  3
ACAD_XREC_ROUNDTRIP
360
A79
  0
DICTIONARY
  5
8D6
330
871
100
AcDbDictionary
280
     1
281
     1
  3
ACAD_MLATT
360
A7C
  3
ACAD_XREC_ROUNDTRIP
360
A7B
  0
DICTIONARY
  5
8D9
330
872
100
AcDbDictionary
280
     1
281
     1
  3
ACAD_MLATT
360
A7E
  3
ACAD_XREC_ROUNDTRIP
360
A7D
  0
DICTIONARY
  5
8DC
330
873
100
AcDbDictionary
280
     1
281
     1
  3
ACAD_MLATT
360
A80
  3
ACAD_XREC_ROUNDTRIP
360
A7F
  0
DICTIONARY
  5
8DF
330
874
100
AcDbDictionary
280
     1
281
     1
  3
ACAD_MLATT
360
A82
  3
ACAD_XREC_ROUNDTRIP
360
A81
  0
DICTIONARY
  5
8E2
330
875
100
AcDbDictionary
280
     1
281
     1
  3
ACAD_MLATT
360
A84
  3
ACAD_XREC_ROUNDTRIP
360
A83
  0
DICTIONARY
  5
8E5
330
876
100
AcDbDictionary
280
     1
281
     1
  3
ACAD_MLATT
360
A86
  3
ACAD_XREC_ROUNDTRIP
360
A85
  0
DICTIONARY
  5
8E8
330
877
100
AcDbDictionary
280
     1
281
     1
  3
ACAD_MLATT
360
A88
  3
ACAD_XREC_ROUNDTRIP
360
A87
  0
DICTIONARY
  5
8EB
330
878
100
AcDbDictionary
280
     1
281
     1
  3
ACAD_MLATT
360
A8A
  3
ACAD_XREC_ROUNDTRIP
360
A89
  0
DICTIONARY
  5
8EE
330
879
100
AcDbDictionary
280
     1
281
     1
  3
ACAD_MLATT
360
A8C
  3
ACAD_XREC_ROUNDTRIP
360
A8B
  0
DICTIONARY
  5
8F1
330
87A
100
AcDbDictionary
280
     1
281
     1
  3
ACAD_MLATT
360
A8E
  3
ACAD_XREC_ROUNDTRIP
360
A8D
  0
DICTIONARY
  5
8F4
330
87B
100
AcDbDictionary
280
     1
281
     1
  3
ACAD_MLATT
360
A90
  3
ACAD_XREC_ROUNDTRIP
360
A8F
  0
DICTIONARY
  5
8F7
330
87C
100
AcDbDictionary
280
     1
281
     1
  3
ACAD_MLATT
360
A92
  3
ACAD_XREC_ROUNDTRIP
360
A91
  0
DICTIONARY
  5
8FA
330
87D
100
AcDbDictionary
280
     1
281
     1
  3
ACAD_MLATT
360
A94
  3
ACAD_XREC_ROUNDTRIP
360
A93
  0
DICTIONARY
  5
8FD
330
87E
100
AcDbDictionary
280
     1
281
     1
  3
ACAD_MLATT
360
A96
  3
ACAD_XREC_ROUNDTRIP
360
A95
  0
DICTIONARY
  5
900
330
87F
100
AcDbDictionary
280
     1
281
     1
  3
ACAD_MLATT
360
A98
  3
ACAD_XREC_ROUNDTRIP
360
A97
  0
DICTIONARY
  5
6E
102
{ACAD_REACTORS
330
C
102
}
330
C
100
AcDbDictionary
281
     1
  0
DICTIONARY
  5
D
102
{ACAD_REACTORS
330
C
102
}
330
C
100
AcDbDictionary
281
     1
  0
DICTIONARY
  5
6D
102
{ACAD_REACTORS
330
C
102
}
330
C
100
AcDbDictionary
281
     1
  3
Layout1
350
76
  3
Layout2
350
7E
  3
Model
350
7A
  0
DICTIONARY
  5
10
102
{ACAD_REACTORS
330
C
102
}
330
C
100
AcDbDictionary
281
     1
  3
ByBlock
350
19
  3
ByLayer
350
11
  3
Global
350
21
  0
DICTIONARY
  5
71
102
{ACAD_REACTORS
330
C
102
}
330
C
100
AcDbDictionary
281
     1
  3
Standard
350
72
  0
DICTIONARY
  5
6A
102
{ACAD_REACTORS
330
C
102
}
330
C
100
AcDbDictionary
281
     1
  3
Standard
350
6B
  0
DICTIONARY
  5
6C
102
{ACAD_REACTORS
330
C
102
}
330
C
100
AcDbDictionary
281
     1
  0
ACDBDICTIONARYWDFLT
  5
E
102
{ACAD_REACTORS
330
C
102
}
330
C
100
AcDbDictionary
281
     1
  3
Normal
350
F
100
AcDbDictionaryWithDefault
340
F
  0
DICTIONARY
  5
3D
102
{ACAD_REACTORS
330
C
102
}
330
C
100
AcDbDictionary
281
     1
  3
A0
350
3E
  3
A1
350
3F
  3
A2
350
40
  3
A3
350
41
  3
A4
350
42
  3
A5
350
43
  3
A6
350
44
  3
A7
350
45
  3
A8
350
46
  3
A9
350
47
  3
B0
350
48
  3
B1
350
49
  3
B2
350
4A
  3
B3
350
4B
  3
B4
350
4C
  3
B5
350
4D
  3
B6
350
4E
  3
B7
350
4F
  3
B8
350
50
  3
B9
350
51
  3
C0
350
52
  3
C1
350
53
  3
C2
350
54
  3
C3
350
55
  3
C4
350
56
  3
C5
350
57
  3
C6
350
58
  3
C7
350
59
  3
C8
350
5A
  3
C9
350
5B
  3
D0
350
5C
  3
D1
350
5D
  3
D2
350
5E
  0
DICTIONARY
  5
6F
102
{ACAD_REACTORS
330
C
102
}
330
C
100
AcDbDictionary
281
     1
  3
Standard
350
70
  0
DICTIONARY
  5
29
102
{ACAD_REACTORS
330
C
102
}
330
C
100
AcDbDictionary
281
     1
  3
2dWireframe
350
2F
  3
3D Hidden
350
31
  3
3dWireframe
350
30
  3
Basic
350
2E
  3
Brighten
350
35
  3
ColorChange
350
39
  3
Conceptual
350
32
  3
Dim
350
34
  3
EdgeColorOff
350
3C
  3
Facepattern
350
38
  3
Flat
350
2A
  3
FlatWithEdges
350
2B
  3
Gouraud
350
2C
  3
GouraudWithEdges
350
2D
  3
JitterOff
350
3A
  3
Linepattern
350
37
  3
OverhangOff
350
3B
  3
Realistic
350
33
  3
Thicken
350
36
  0
XRECORD
  5
A99
102
{ACAD_REACTORS
330
C
102
}
330
C
100
AcDbXrecord
280
     1
 90
        1
330
70
330
27D
330
280
330
282
330
284
330
285
330
286
330
287
330
3B5
330
4A4
330
867
330
868
330
86A
330
86C
330
86D
330
86E
330
86F
330
870
330
871
330
872
330
873
330
874
330
875
330
876
330
877
330
878
330
879
330
87A
330
87B
330
87C
330
87D
330
87E
330
87F
  0
DICTIONARY
  5
9A2
102
{ACAD_REACTORS
330
C
102
}
330
C
100
AcDbDictionary
281
     1
  3
CANNOSCALE
350
9A6
  3
CMLEADERSTYLE
350
9A4
  3
CTABLESTYLE
350
9A3
  3
DIMASSOC
350
9AD
  3
HIDETEXT
350
9AC
  3
INDEXCTL
350
9AB
  3
LAYEREVAL
350
9A8
  3
LAYERNOTIFY
350
9A9
  3
LIGHTINGUNITS
350
9A7
  3
MSLTSCALE
350
9A5
  3
SORTENTS
350
9AA
  3
XCLIPFRAME
350
A5B
  0
DICTIONARY
  5
A14
102
{ACAD_REACTORS
330
C
102
}
330
C
100
AcDbDictionary
281
     1
  3
AcmStdDictionary
350
A20
  0
DICTIONARY
  5
9BD
102
{ACAD_REACTORS
330
C
102
}
330
C
100
AcDbDictionary
281
     1
  0
DICTIONARY
  5
A4B
102
{ACAD_REACTORS
330
C
102
}
330
C
100
AcDbDictionary
281
     1
  0
XRECORD
  5
A9A
102
{ACAD_REACTORS
330
C
102
}
330
C
100
AcDbXrecord
280
     1
  1
DWGPROPS COOKIE
  2

  3

  4
angcre
  6

  7

  8
amenegon
  9

300
Responsabile=
301
Società=
302
Categoria=
303
Numero parte=MONOROTAIA
304
Descrizione=
305
Progetto=
306
Progettista=angcre
307
Ingegnere=
308
Autorità=
309
Centro gestione costi=
 40
0.0004085416666667
 41
2456105.622493982
 42
2456105.645073495
  1

 90
       16
300
Fornitore=
300
Stato utente=
300
Stato progetto=In corso
300
Verificato da=
300
Progett. approvata da=
300
Prod. approvata da=
  0
XRECORD
  5
A5E
102
{ACAD_REACTORS
330
8A5
102
}
330
8A5
100
AcDbXrecord
280
     1
 70
     4
 70
     0
 70
     0
 40
1.0
  2
DESCRIZIONE_1
  1
Embedded Object
 10
-93.49119398589706
 20
5.505471063720221
 30
0.0
 40
2.489199936389923
 41
106.9783856763648
 46
0.0
 71
     1
 72
     5
  1

  7
Stile testo15
 73
     1
 44
1.0
  0
XRECORD
  5
A5D
102
{ACAD_REACTORS
330
8A5
102
}
330
8A5
100
AcDbXrecord
280
     1
102
ACAD_MATT_HEIGHT
140
2.489199936389923
  0
XRECORD
  5
A60
102
{ACAD_REACTORS
330
8A8
102
}
330
8A8
100
AcDbXrecord
280
     1
 70
     4
 70
     0
 70
     0
 40
1.0
  2
DESCRIZIONE_2
  1
Embedded Object
 10
-93.56890635983567
 20
1.937379052550589
 30
0.0
 40
2.489199936389923
 41
106.0389395913541
 46
0.0
 71
     1
 72
     5
  1

  7
Stile testo15
 73
     1
 44
1.0
  0
XRECORD
  5
A5F
102
{ACAD_REACTORS
330
8A8
102
}
330
8A8
100
AcDbXrecord
280
     1
102
ACAD_MATT_HEIGHT
140
2.489199936389923
  0
XRECORD
  5
A62
102
{ACAD_REACTORS
330
8AB
102
}
330
8AB
100
AcDbXrecord
280
     1
 70
     4
 70
     0
 70
     0
 40
1.0
  2
NR.REV
  1
Embedded Object
 10
17.21416714364988
 20
2.459098066293776
 30
0.0
 40
3.499999940395355
 41
5.795553091395007
 46
0.0
 71
     5
 72
     5
  1
\W0.9000;
  7
Stile testo116
 73
     1
 44
1.0
  0
XRECORD
  5
A61
102
{ACAD_REACTORS
330
8AB
102
}
330
8AB
100
AcDbXrecord
280
     1
102
ACAD_MATT_HEIGHT
140
3.499999940395355
  0
XRECORD
  5
A64
102
{ACAD_REACTORS
330
8AE
102
}
330
8AE
100
AcDbXrecord
280
     1
 70
     4
 70
     0
 70
     0
 40
1.0
  2
DISEGNATO
  1
Embedded Object
 10
32.66124997243344
 20
4.468844212966427
 30
0.0
 40
2.489199936389923
 41
24.93167301252459
 46
0.0
 71
     5
 72
     5
  1
\W0.9000;
  7
Stile testo115
 73
     1
 44
1.0
  0
XRECORD
  5
A63
102
{ACAD_REACTORS
330
8AE
102
}
330
8AE
100
AcDbXrecord
280
     1
102
ACAD_MATT_HEIGHT
140
2.489199936389923
  0
XRECORD
  5
A66
102
{ACAD_REACTORS
330
8B1
102
}
330
8B1
100
AcDbXrecord
280
     1
 70
     4
 70
     0
 70
     0
 40
1.0
  2
DATA
  1
Embedded Object
 10
32.60244885683786
 20
0.4703683121771185
 30
0.0
 40
2.489199936389923
 41
24.99047412812017
 46
0.0
 71
     5
 72
     5
  1

  7
Stile testo15
 73
     1
 44
1.0
  0
XRECORD
  5
A65
102
{ACAD_REACTORS
330
8B1
102
}
330
8B1
100
AcDbXrecord
280
     1
102
ACAD_MATT_HEIGHT
140
2.489199936389923
  0
XRECORD
  5
A68
102
{ACAD_REACTORS
330
8B4
102
}
330
8B4
100
AcDbXrecord
280
     1
 70
     4
 70
     0
 70
     0
 40
1.0
  2
DATA
  1
Embedded Object
 10
57.6076232638568
 20
0.4850685912241559
 30
0.0
 40
2.489199936389923
 41
24.96107357032237
 46
0.0
 71
     5
 72
     5
  1

  7
Stile testo15
 73
     1
 44
1.0
  0
XRECORD
  5
A67
102
{ACAD_REACTORS
330
8B4
102
}
330
8B4
100
AcDbXrecord
280
     1
102
ACAD_MATT_HEIGHT
140
2.489199936389923
  0
XRECORD
  5
A6A
102
{ACAD_REACTORS
330
8B7
102
}
330
8B7
100
AcDbXrecord
280
     1
 70
     4
 70
     0
 70
     0
 40
1.0
  2
DATA
  1
Embedded Object
 10
82.5539965552803
 20
0.4703683121771541
 30
0.0
 40
2.489199936389923
 41
24.93167301252459
 46
0.0
 71
     5
 72
     5
  1

  7
Stile testo15
 73
     1
 44
1.0
  0
XRECORD
  5
A69
102
{ACAD_REACTORS
330
8B7
102
}
330
8B7
100
AcDbXrecord
280
     1
102
ACAD_MATT_HEIGHT
140
2.489199936389923
  0
XRECORD
  5
ACC
102
{ACAD_REACTORS
330
ACB
102
}
330
ACB
100
AcDbXrecord
280
     1
 40
23702.0
  1
\A1;42{\H1.250000;±1}
  0
XRECORD
  5
ACE
102
{ACAD_REACTORS
330
ACD
102
}
330
ACD
100
AcDbXrecord
280
     1
 40
23721.0
  1
\A1;50{\H1.250000;±2}
  0
XRECORD
  5
AD0
102
{ACAD_REACTORS
330
ACF
102
}
330
ACF
100
AcDbXrecord
280
     1
 40
567138.0
  1
\fArial|b0|i0;\H2.0066;Via Cassola , 64\P36027 Rosà (VI)\PITALY\PTel.0424/585111\PFax.0424/533417\Pwww.comunello.com
  0
XRECORD
  5
A6C
102
{ACAD_REACTORS
330
8BE
102
}
330
8BE
100
AcDbXrecord
280
     1
 70
     4
 70
     0
 70
     0
 40
1.0
  2
Denominazione__1
  1
Embedded Object
 10
11.0
 20
66.5
 30
0.0
 40
2.006599903106689
 41
71.00000000000001
 46
0.0
 71
     1
 72
     5
  1
MONOROTAIA GUIDACANCELLO
  7
Stile testo6
 73
     1
 44
1.0
  0
XRECORD
  5
A6B
102
{ACAD_REACTORS
330
8BE
102
}
330
8BE
100
AcDbXrecord
280
     1
102
ACAD_MATT_HEIGHT
140
2.006599903106689
  0
XRECORD
  5
A6E
102
{ACAD_REACTORS
330
8C1
102
}
330
8C1
100
AcDbXrecord
280
     1
 70
     4
 70
     0
 70
     0
 40
1.0
  2
Denominazione_2
  1
Embedded Object
 10
11.0
 20
63.0
 30
0.0
 40
2.006599903106689
 41
71.00000000000001
 46
0.0
 71
     1
 72
     5
  1

  7
Stile testo6
 73
     1
 44
1.0
  0
XRECORD
  5
A6D
102
{ACAD_REACTORS
330
8C1
102
}
330
8C1
100
AcDbXrecord
280
     1
102
ACAD_MATT_HEIGHT
140
2.006599903106689
  0
XRECORD
  5
A70
102
{ACAD_REACTORS
330
8C4
102
}
330
8C4
100
AcDbXrecord
280
     1
 70
     4
 70
     0
 70
     0
 40
1.0
  2
CODICE_DISEGNO
  1
Embedded Object
 10
97.25000000000001
 20
63.50000000000001
 30
0.0
 40
3.50519984960556
 41
28.5
 46
0.0
 71
     5
 72
     5
  1
\W0.7500;CG-254
  7
Stile testo135
 73
     1
 44
1.0
  0
XRECORD
  5
A6F
102
{ACAD_REACTORS
330
8C4
102
}
330
8C4
100
AcDbXrecord
280
     1
102
ACAD_MATT_HEIGHT
140
3.50519984960556
  0
XRECORD
  5
A72
102
{ACAD_REACTORS
330
8C7
102
}
330
8C7
100
AcDbXrecord
280
     1
 70
     4
 70
     0
 70
     0
 40
1.0
  2
Materiale_1
  1
Embedded Object
 10
144.75
 20
65.24632405268551
 30
0.0
 40
2.006599903106689
 41
63.50000000000001
 46
0.0
 71
     5
 72
     5
  1
LAMIERA sp. 40/10 PREZINCATA
  7
Stile testo6
 73
     1
 44
1.0
  0
XRECORD
  5
A71
102
{ACAD_REACTORS
330
8C7
102
}
330
8C7
100
AcDbXrecord
280
     1
102
ACAD_MATT_HEIGHT
140
2.006599903106689
  0
XRECORD
  5
A74
102
{ACAD_REACTORS
330
8CA
102
}
330
8CA
100
AcDbXrecord
280
     1
 70
     4
 70
     0
 70
     0
 40
1.0
  2
Materiale_2
  1
Embedded Object
 10
144.809961390817
 20
61.5
 30
0.0
 40
2.006599903106689
 41
65.0
 46
0.0
 71
     5
 72
     5
  1
ACCIAIO S235JR UNI EN 10025
  7
Stile testo6
 73
     1
 44
1.0
  0
XRECORD
  5
A73
102
{ACAD_REACTORS
330
8CA
102
}
330
8CA
100
AcDbXrecord
280
     1
102
ACAD_MATT_HEIGHT
140
2.006599903106689
  0
XRECORD
  5
A76
102
{ACAD_REACTORS
330
8CD
102
}
330
8CD
100
AcDbXrecord
280
     1
 70
     4
 70
     0
 70
     0
 40
1.0
  2
CODICE_MATERIALE
  1
Embedded Object
 10
188.5
 20
63.5
 30
0.0
 40
2.006599903106689
 41
23.00000000000001
 46
0.0
 71
     5
 72
     5
  1

  7
Stile testo6
 73
     1
 44
1.0
  0
XRECORD
  5
A75
102
{ACAD_REACTORS
330
8CD
102
}
330
8CD
100
AcDbXrecord
280
     1
102
ACAD_MATT_HEIGHT
140
2.006599903106689
  0
XRECORD
  5
A78
102
{ACAD_REACTORS
330
8D0
102
}
330
8D0
100
AcDbXrecord
280
     1
 70
     4
 70
     0
 70
     0
 40
1.0
  2
PESO_UNITARIO_KG
  1
Embedded Object
 10
97.05039695754834
 20
48.4920608646265
 30
0.0
 40
2.489199936389923
 41
26.99999999999999
 46
0.0
 71
     5
 72
     5
  1

  7
Stile testo15
 73
     1
 44
1.0
  0
XRECORD
  5
A77
102
{ACAD_REACTORS
330
8D0
102
}
330
8D0
100
AcDbXrecord
280
     1
102
ACAD_MATT_HEIGHT
140
2.489199936389923
  0
XRECORD
  5
A7A
102
{ACAD_REACTORS
330
8D3
102
}
330
8D3
100
AcDbXrecord
280
     1
 70
     4
 70
     0
 70
     0
 40
1.0
  2
TRATTAMENTO_1
  1
Embedded Object
 10
132.6521050609213
 20
53.48089266404504
 30
0.0
 40
2.489199936389923
 41
46.5
 46
0.0
 71
     1
 72
     5
  1
001 ZINCATURA
  7
Stile testo15
 73
     1
 44
1.0
  0
XRECORD
  5
A79
102
{ACAD_REACTORS
330
8D3
102
}
330
8D3
100
AcDbXrecord
280
     1
102
ACAD_MATT_HEIGHT
140
2.489199936389923
  0
XRECORD
  5
A7C
102
{ACAD_REACTORS
330
8D6
102
}
330
8D6
100
AcDbXrecord
280
     1
 70
     4
 70
     0
 70
     0
 40
1.0
  2
TRATTAMENTO_2
  1
Embedded Object
 10
113.0632687693352
 20
49.98769965437094
 30
0.0
 40
2.489199936389923
 41
63.0
 46
0.0
 71
     1
 72
     5
  1

  7
Stile testo15
 73
     1
 44
1.0
  0
XRECORD
  5
A7B
102
{ACAD_REACTORS
330
8D6
102
}
330
8D6
100
AcDbXrecord
280
     1
102
ACAD_MATT_HEIGHT
140
2.489199936389923
  0
XRECORD
  5
A7E
102
{ACAD_REACTORS
330
8D9
102
}
330
8D9
100
AcDbXrecord
280
     1
 70
     4
 70
     0
 70
     0
 40
1.0
  2
COEFFICIENTE_D'IMPEGO
  1
Embedded Object
 10
188.5523258958931
 20
48.62644459325678
 30
0.0
 40
2.489199936389923
 41
21.00000000000001
 46
0.0
 71
     5
 72
     5
  1

  7
Stile testo15
 73
     1
 44
1.0
  0
XRECORD
  5
A7D
102
{ACAD_REACTORS
330
8D9
102
}
330
8D9
100
AcDbXrecord
280
     1
102
ACAD_MATT_HEIGHT
140
2.489199936389923
  0
XRECORD
  5
A80
102
{ACAD_REACTORS
330
8DC
102
}
330
8DC
100
AcDbXrecord
280
     1
 70
     4
 70
     0
 70
     0
 40
1.0
  2
SCALA
  1
Embedded Object
 10
97.25000000000001
 20
41.0
 30
0.0
 40
2.489199936389923
 41
26.5
 46
0.0
 71
     5
 72
     5
  1
2:1
  7
Stile testo15
 73
     1
 44
1.0
  0
XRECORD
  5
A7F
102
{ACAD_REACTORS
330
8DC
102
}
330
8DC
100
AcDbXrecord
280
     1
102
ACAD_MATT_HEIGHT
140
2.489199936389923
  0
XRECORD
  5
A82
102
{ACAD_REACTORS
330
8DF
102
}
330
8DF
100
AcDbXrecord
280
     1
 70
     4
 70
     0
 70
     0
 40
1.0
  2
FOGLIO
  1
Embedded Object
 10
119.1976741041069
 20
40.40294218049127
 30
0.0
 40
2.489199936389923
 41
13.50000000000001
 46
0.0
 71
     5
 72
     5
  1
A4
  7
Stile testo15
 73
     1
 44
1.0
  0
XRECORD
  5
A81
102
{ACAD_REACTORS
330
8DF
102
}
330
8DF
100
AcDbXrecord
280
     1
102
ACAD_MATT_HEIGHT
140
2.489199936389923
  0
XRECORD
  5
A84
102
{ACAD_REACTORS
330
8E2
102
}
330
8E2
100
AcDbXrecord
280
     1
 70
     4
 70
     0
 70
     0
 40
1.0
  2
DISEGNATO
  1
Embedded Object
 10
127.5
 20
41.5
 30
0.0
 40
2.489199936389923
 41
31.5
 46
0.0
 71
     1
 72
     5
  1
CRESTANI
  7
Stile testo15
 73
     1
 44
1.0
  0
XRECORD
  5
A83
102
{ACAD_REACTORS
330
8E2
102
}
330
8E2
100
AcDbXrecord
280
     1
102
ACAD_MATT_HEIGHT
140
2.489199936389923
  0
XRECORD
  5
A86
102
{ACAD_REACTORS
330
8E5
102
}
330
8E5
100
AcDbXrecord
280
     1
 70
     4
 70
     0
 70
     0
 40
1.0
  2
DATA
  1
Embedded Object
 10
168.25
 20
40.5
 30
0.0
 40
2.489199936389923
 41
15.5
 46
0.0
 71
     5
 72
     5
  1
25/10/04
  7
Stile testo15
 73
     1
 44
1.0
  0
XRECORD
  5
A85
102
{ACAD_REACTORS
330
8E5
102
}
330
8E5
100
AcDbXrecord
280
     1
102
ACAD_MATT_HEIGHT
140
2.489199936389923
  0
XRECORD
  5
A88
102
{ACAD_REACTORS
330
8E8
102
}
330
8E8
100
AcDbXrecord
280
     1
 70
     4
 70
     0
 70
     0
 40
1.0
  2
DATA
  1
Embedded Object
 10
168.25
 20
32.75
 30
0.0
 40
2.489199936389923
 41
15.5
 46
0.0
 71
     5
 72
     5
  1
25/10/04
  7
Stile testo15
 73
     1
 44
1.0
  0
XRECORD
  5
A87
102
{ACAD_REACTORS
330
8E8
102
}
330
8E8
100
AcDbXrecord
280
     1
102
ACAD_MATT_HEIGHT
140
2.489199936389923
  0
XRECORD
  5
A8A
102
{ACAD_REACTORS
330
8EB
102
}
330
8EB
100
AcDbXrecord
280
     1
 70
     4
 70
     0
 70
     0
 40
1.0
  2
DATA
  1
Embedded Object
 10
168.25
 20
24.75
 30
0.0
 40
2.489199936389923
 41
15.5
 46
0.0
 71
     5
 72
     5
  1
25/10/04
  7
Stile testo15
 73
     1
 44
1.0
  0
XRECORD
  5
A89
102
{ACAD_REACTORS
330
8EB
102
}
330
8EB
100
AcDbXrecord
280
     1
102
ACAD_MATT_HEIGHT
140
2.489199936389923
  0
XRECORD
  5
A8C
102
{ACAD_REACTORS
330
8EE
102
}
330
8EE
100
AcDbXrecord
280
     1
 70
     4
 70
     0
 70
     0
 40
1.0
  2
NUMERO_ARTICOLO
  1
Embedded Object
 10
137.8158294861797
 20
21.53904977834278
 30
0.0
 40
2.489199936389923
 41
63.00000000000003
 46
0.0
 71
     1
 72
     5
  1

  7
Stile testo15
 73
     1
 44
1.0
  0
XRECORD
  5
A8B
102
{ACAD_REACTORS
330
8EE
102
}
330
8EE
100
AcDbXrecord
280
     1
102
ACAD_MATT_HEIGHT
140
2.489199936389923
  0
XRECORD
  5
A8E
102
{ACAD_REACTORS
330
8F1
102
}
330
8F1
100
AcDbXrecord
280
     1
 70
     4
 70
     0
 70
     0
 40
1.0
  2
NUMERO_ARTICOLO
  1
Embedded Object
 10
127.1848152468796
 20
17.63978885077316
 30
0.0
 40
2.489199936389923
 41
71.00000000000001
 46
0.0
 71
     1
 72
     5
  1

  7
Stile testo15
 73
     1
 44
1.0
  0
XRECORD
  5
A8D
102
{ACAD_REACTORS
330
8F1
102
}
330
8F1
100
AcDbXrecord
280
     1
102
ACAD_MATT_HEIGHT
140
2.489199936389923
  0
XRECORD
  5
A90
102
{ACAD_REACTORS
330
8F4
102
}
330
8F4
100
AcDbXrecord
280
     1
 70
     4
 70
     0
 70
     0
 40
1.0
  2
ATTREZZAT._1
  1
Embedded Object
 10
188.5
 20
40.5
 30
0.0
 40
2.489199936389923
 41
21.00000000000001
 46
0.0
 71
     5
 72
     5
  1

  7
Stile testo15
 73
     1
 44
1.0
  0
XRECORD
  5
A8F
102
{ACAD_REACTORS
330
8F4
102
}
330
8F4
100
AcDbXrecord
280
     1
102
ACAD_MATT_HEIGHT
140
2.489199936389923
  0
XRECORD
  5
A92
102
{ACAD_REACTORS
330
8F7
102
}
330
8F7
100
AcDbXrecord
280
     1
 70
     4
 70
     0
 70
     0
 40
1.0
  2
ATTREZZAT.2
  1
Embedded Object
 10
188.5
 20
32.5
 30
0.0
 40
2.489199936389923
 41
21.00000000000001
 46
0.0
 71
     5
 72
     5
  1

  7
Stile testo15
 73
     1
 44
1.0
  0
XRECORD
  5
A91
102
{ACAD_REACTORS
330
8F7
102
}
330
8F7
100
AcDbXrecord
280
     1
102
ACAD_MATT_HEIGHT
140
2.489199936389923
  0
XRECORD
  5
A94
102
{ACAD_REACTORS
330
8FA
102
}
330
8FA
100
AcDbXrecord
280
     1
 70
     4
 70
     0
 70
     0
 40
1.0
  2
ATTREZZAT.3
  1
Embedded Object
 10
188.5
 20
24.5
 30
0.0
 40
2.489199936389923
 41
21.00000000000001
 46
0.0
 71
     5
 72
     5
  1

  7
Stile testo15
 73
     1
 44
1.0
  0
XRECORD
  5
A93
102
{ACAD_REACTORS
330
8FA
102
}
330
8FA
100
AcDbXrecord
280
     1
102
ACAD_MATT_HEIGHT
140
2.489199936389923
  0
XRECORD
  5
A96
102
{ACAD_REACTORS
330
8FD
102
}
330
8FD
100
AcDbXrecord
280
     1
 70
     4
 70
     0
 70
     0
 40
1.0
  2
SOSTITUISCE_IL
  1
Embedded Object
 10
22.0
 20
41.0
 30
0.0
 40
2.489199936389923
 41
22.0
 46
0.0
 71
     5
 72
     5
  1

  7
Stile testo15
 73
     1
 44
1.0
  0
XRECORD
  5
A95
102
{ACAD_REACTORS
330
8FD
102
}
330
8FD
100
AcDbXrecord
280
     1
102
ACAD_MATT_HEIGHT
140
2.489199936389923
  0
XRECORD
  5
A98
102
{ACAD_REACTORS
330
900
102
}
330
900
100
AcDbXrecord
280
     1
 70
     4
 70
     0
 70
     0
 40
1.0
  2
SOSTITUITO_DAL
  1
Embedded Object
 10
46.5
 20
41.0
 30
0.0
 40
2.489199936389923
 41
22.0
 46
0.0
 71
     5
 72
     5
  1

  7
Stile testo15
 73
     1
 44
1.0
  0
XRECORD
  5
A97
102
{ACAD_REACTORS
330
900
102
}
330
900
100
AcDbXrecord
280
     1
102
ACAD_MATT_HEIGHT
140
2.489199936389923
  0
LAYOUT
  5
76
102
{ACAD_XDICTIONARY
360
AC5
102
}
102
{ACAD_REACTORS
330
6D
102
}
330
6D
100
AcDbPlotSettings
  1

  2

  4

  6

 40
0.0
 41
0.0
 42
0.0
 43
0.0
 44
0.0
 45
0.0
 46
0.0
 47
0.0
 48
0.0
 49
0.0
140
0.0
141
0.0
142
1.0
143
1.0
 70
   688
 72
     0
 73
     0
 74
     5
  7

 75
    16
147
1.0
148
0.0
149
0.0
100
AcDbLayout
  1
Layout1
 70
     1
 71
     1
 10
0.0
 20
0.0
 11
105.0
 21
148.5
 12
0.0
 22
0.0
 32
0.0
 14
0.0
 24
0.0
 34
0.0
 15
105.0
 25
148.5
 35
0.0
146
0.0
 13
0.0
 23
0.0
 33
0.0
 16
1.0
 26
0.0
 36
0.0
 17
0.0
 27
1.0
 37
0.0
 76
     0
330
73
  0
LAYOUT
  5
7E
102
{ACAD_XDICTIONARY
360
AC9
102
}
102
{ACAD_REACTORS
330
6D
102
}
330
6D
100
AcDbPlotSettings
  1

  2

  4

  6

 40
0.0
 41
0.0
 42
0.0
 43
0.0
 44
0.0
 45
0.0
 46
0.0
 47
0.0
 48
0.0
 49
0.0
140
0.0
141
0.0
142
1.0
143
1.0
 70
   688
 72
     0
 73
     0
 74
     5
  7

 75
    16
147
1.0
148
0.0
149
0.0
100
AcDbLayout
  1
Layout2
 70
     1
 71
     2
 10
0.0
 20
0.0
 11
12.0
 21
9.0
 12
0.0
 22
0.0
 32
0.0
 14
0.0
 24
0.0
 34
0.0
 15
0.0
 25
0.0
 35
0.0
146
0.0
 13
0.0
 23
0.0
 33
0.0
 16
1.0
 26
0.0
 36
0.0
 17
0.0
 27
1.0
 37
0.0
 76
     0
330
7B
  0
LAYOUT
  5
7A
102
{ACAD_XDICTIONARY
360
AC7
102
}
102
{ACAD_REACTORS
330
6D
102
}
330
6D
100
AcDbPlotSettings
  1

  2
PDF Complete
  4
A4
  6

 40
3.174999952316284
 41
3.174999952316284
 42
3.175003051757812
 43
3.17498779296875
 44
209.9733276367187
 45
297.0106506347656
 46
0.0
 47
0.0
 48
0.0
 49
0.0
140
0.0
141
0.0
142
1.0
143
0.8226556489455564
 70
 11952
 72
     1
 73
     1
 74
     0
  7

 75
     0
147
1.21557543703949
148
54.61363635730288
149
-14.93181778891625
100
AcDbLayout
  1
Model
 70
     1
 71
     0
 10
0.0
 20
0.0
 11
12.0
 21
9.0
 12
0.0
 22
0.0
 32
0.0
 14
0.0
 24
0.0
 34
0.0
 15
0.0
 25
0.0
 35
0.0
146
0.0
 13
0.0
 23
0.0
 33
0.0
 16
1.0
 26
0.0
 36
0.0
 17
0.0
 27
1.0
 37
0.0
 76
     0
330
77
331
62
1001
ACAD_PSEXT
1000
PDF Complete
1000
PDF Complete Converter
1000
PDFC
1000
PDF Document Creator
1070
     0
  0
MATERIAL
  5
19
102
{ACAD_XDICTIONARY
360
1A
102
}
102
{ACAD_REACTORS
330
10
102
}
330
10
100
AcDbMaterial
  1
ByBlock
 72
     0
 43
0.0208333333333333
 43
0.0
 43
0.0
 43
0.0
 43
0.0
 43
0.0208333333333333
 43
0.0
 43
0.0
 43
0.0
 43
0.0
 43
1.0
 43
0.0
 43
0.0
 43
0.0
 43
0.0
 43
1.0
 77
     0
 47
0.0208333333333333
 47
0.0
 47
0.0
 47
0.0
 47
0.0
 47
0.0208333333333333
 47
0.0
 47
0.0
 47
0.0
 47
0.0
 47
1.0
 47
0.0
 47
0.0
 47
0.0
 47
0.0
 47
1.0
171
     0
 49
0.0208333333333333
 49
0.0
 49
0.0
 49
0.0
 49
0.0
 49
0.0208333333333333
 49
0.0
 49
0.0
 49
0.0
 49
0.0
 49
1.0
 49
0.0
 49
0.0
 49
0.0
 49
0.0
 49
1.0
175
     0
142
0.0208333333333333
142
0.0
142
0.0
142
0.0
142
0.0
142
0.0208333333333333
142
0.0
142
0.0
142
0.0
142
0.0
142
1.0
142
0.0
142
0.0
142
0.0
142
0.0
142
1.0
179
     0
144
0.0208333333333333
144
0.0
144
0.0
144
0.0
144
0.0
144
0.0208333333333333
144
0.0
144
0.0
144
0.0
144
0.0
144
1.0
144
0.0
144
0.0
144
0.0
144
0.0
144
1.0
147
0.0208333333333333
147
0.0
147
0.0
147
0.0
147
0.0
147
0.0208333333333333
147
0.0
147
0.0
147
0.0
147
0.0
147
1.0
147
0.0
147
0.0
147
0.0
147
0.0
147
1.0
  0
MATERIAL
  5
11
102
{ACAD_XDICTIONARY
360
12
102
}
102
{ACAD_REACTORS
330
10
102
}
330
10
100
AcDbMaterial
  1
ByLayer
 72
     0
 43
0.0208333333333333
 43
0.0
 43
0.0
 43
0.0
 43
0.0
 43
0.0208333333333333
 43
0.0
 43
0.0
 43
0.0
 43
0.0
 43
1.0
 43
0.0
 43
0.0
 43
0.0
 43
0.0
 43
1.0
 77
     0
 47
0.0208333333333333
 47
0.0
 47
0.0
 47
0.0
 47
0.0
 47
0.0208333333333333
 47
0.0
 47
0.0
 47
0.0
 47
0.0
 47
1.0
 47
0.0
 47
0.0
 47
0.0
 47
0.0
 47
1.0
171
     0
 49
0.0208333333333333
 49
0.0
 49
0.0
 49
0.0
 49
0.0
 49
0.0208333333333333
 49
0.0
 49
0.0
 49
0.0
 49
0.0
 49
1.0
 49
0.0
 49
0.0
 49
0.0
 49
0.0
 49
1.0
175
     0
142
0.0208333333333333
142
0.0
142
0.0
142
0.0
142
0.0
142
0.0208333333333333
142
0.0
142
0.0
142
0.0
142
0.0
142
1.0
142
0.0
142
0.0
142
0.0
142
0.0
142
1.0
179
     0
144
0.0208333333333333
144
0.0
144
0.0
144
0.0
144
0.0
144
0.0208333333333333
144
0.0
144
0.0
144
0.0
144
0.0
144
1.0
144
0.0
144
0.0
144
0.0
144
0.0
144
1.0
147
0.0208333333333333
147
0.0
147
0.0
147
0.0
147
0.0
147
0.0208333333333333
147
0.0
147
0.0
147
0.0
147
0.0
147
1.0
147
0.0
147
0.0
147
0.0
147
0.0
147
1.0
  0
MATERIAL
  5
21
102
{ACAD_XDICTIONARY
360
22
102
}
102
{ACAD_REACTORS
330
10
102
}
330
10
100
AcDbMaterial
  1
Global
 72
     0
 43
0.0208333333333333
 43
0.0
 43
0.0
 43
0.0
 43
0.0
 43
0.0208333333333333
 43
0.0
 43
0.0
 43
0.0
 43
0.0
 43
1.0
 43
0.0
 43
0.0
 43
0.0
 43
0.0
 43
1.0
 77
     0
 47
0.0208333333333333
 47
0.0
 47
0.0
 47
0.0
 47
0.0
 47
0.0208333333333333
 47
0.0
 47
0.0
 47
0.0
 47
0.0
 47
1.0
 47
0.0
 47
0.0
 47
0.0
 47
0.0
 47
1.0
171
     0
 49
0.0208333333333333
 49
0.0
 49
0.0
 49
0.0
 49
0.0
 49
0.0208333333333333
 49
0.0
 49
0.0
 49
0.0
 49
0.0
 49
1.0
 49
0.0
 49
0.0
 49
0.0
 49
0.0
 49
1.0
175
     0
142
0.0208333333333333
142
0.0
142
0.0
142
0.0
142
0.0
142
0.0208333333333333
142
0.0
142
0.0
142
0.0
142
0.0
142
1.0
142
0.0
142
0.0
142
0.0
142
0.0
142
1.0
179
     0
144
0.0208333333333333
144
0.0
144
0.0
144
0.0
144
0.0
144
0.0208333333333333
144
0.0
144
0.0
144
0.0
144
0.0
144
1.0
144
0.0
144
0.0
144
0.0
144
0.0
144
1.0
147
0.0208333333333333
147
0.0
147
0.0
147
0.0
147
0.0
147
0.0208333333333333
147
0.0
147
0.0
147
0.0
147
0.0
147
1.0
147
0.0
147
0.0
147
0.0
147
0.0
147
1.0
  0
MLEADERSTYLE
  5
72
102
{ACAD_REACTORS
330
71
102
}
330
71
100
AcDbMLeaderStyle
170
     2
171
     1
172
     0
 90
        2
 40
0.0
 41
0.0
173
     1
 91
-1056964608
340
66
 92
       -2
290
     1
 42
0.09
291
     1
 43
0.36
  3
Standard
 44
0.18
300

342
60
174
     1
178
     6
175
     1
176
     0
 93
-1056964608
 45
0.18
292
     0
297
     0
 46
0.18
 94
-1056964608
 47
1.0
 49
1.0
140
1.0
293
     1
141
0.0
294
     1
177
     0
142
1.0
295
     0
296
     0
143
0.125
1001
ACAD_MLEADERVER
1070
     2
  0
MLINESTYLE
  5
6B
102
{ACAD_REACTORS
330
6A
102
}
330
6A
100
AcDbMlineStyle
  2
STANDARD
 70
     0
  3

 62
   256
 51
90.0
 52
90.0
 71
     2
 49
0.5
 62
   256
  6
BYLAYER
 49
-0.5
 62
   256
  6
BYLAYER
  0
ACDBPLACEHOLDER
  5
F
102
{ACAD_REACTORS
330
E
102
}
330
E
  0
SCALE
  5
3E
102
{ACAD_REACTORS
330
3D
102
}
330
3D
100
AcDbScale
 70
     0
300
1:1
140
1.0
141
1.0
290
     1
  0
SCALE
  5
3F
102
{ACAD_REACTORS
330
3D
102
}
330
3D
100
AcDbScale
 70
     0
300
1:2
140
1.0
141
2.0
290
     0
  0
SCALE
  5
40
102
{ACAD_REACTORS
330
3D
102
}
330
3D
100
AcDbScale
 70
     0
300
1:4
140
1.0
141
4.0
290
     0
  0
SCALE
  5
41
102
{ACAD_REACTORS
330
3D
102
}
330
3D
100
AcDbScale
 70
     0
300
1:5
140
1.0
141
5.0
290
     0
  0
SCALE
  5
42
102
{ACAD_REACTORS
330
3D
102
}
330
3D
100
AcDbScale
 70
     0
300
1:8
140
1.0
141
8.0
290
     0
  0
SCALE
  5
43
102
{ACAD_REACTORS
330
3D
102
}
330
3D
100
AcDbScale
 70
     0
300
1:10
140
1.0
141
10.0
290
     0
  0
SCALE
  5
44
102
{ACAD_REACTORS
330
3D
102
}
330
3D
100
AcDbScale
 70
     0
300
1:16
140
1.0
141
16.0
290
     0
  0
SCALE
  5
45
102
{ACAD_REACTORS
330
3D
102
}
330
3D
100
AcDbScale
 70
     0
300
1:20
140
1.0
141
20.0
290
     0
  0
SCALE
  5
46
102
{ACAD_REACTORS
330
3D
102
}
330
3D
100
AcDbScale
 70
     0
300
1:30
140
1.0
141
30.0
290
     0
  0
SCALE
  5
47
102
{ACAD_REACTORS
330
3D
102
}
330
3D
100
AcDbScale
 70
     0
300
1:40
140
1.0
141
40.0
290
     0
  0
SCALE
  5
48
102
{ACAD_REACTORS
330
3D
102
}
330
3D
100
AcDbScale
 70
     0
300
1:50
140
1.0
141
50.0
290
     0
  0
SCALE
  5
49
102
{ACAD_REACTORS
330
3D
102
}
330
3D
100
AcDbScale
 70
     0
300
1:100
140
1.0
141
100.0
290
     0
  0
SCALE
  5
4A
102
{ACAD_REACTORS
330
3D
102
}
330
3D
100
AcDbScale
 70
     0
300
2:1
140
2.0
141
1.0
290
     0
  0
SCALE
  5
4B
102
{ACAD_REACTORS
330
3D
102
}
330
3D
100
AcDbScale
 70
     0
300
4:1
140
4.0
141
1.0
290
     0
  0
SCALE
  5
4C
102
{ACAD_REACTORS
330
3D
102
}
330
3D
100
AcDbScale
 70
     0
300
8:1
140
8.0
141
1.0
290
     0
  0
SCALE
  5
4D
102
{ACAD_REACTORS
330
3D
102
}
330
3D
100
AcDbScale
 70
     0
300
10:1
140
10.0
141
1.0
290
     0
  0
SCALE
  5
4E
102
{ACAD_REACTORS
330
3D
102
}
330
3D
100
AcDbScale
 70
     0
300
100:1
140
100.0
141
1.0
290
     0
  0
SCALE
  5
4F
102
{ACAD_REACTORS
330
3D
102
}
330
3D
100
AcDbScale
 70
     0
300
1/128" = 1'-0"
140
0.0078125
141
12.0
290
     0
  0
SCALE
  5
50
102
{ACAD_REACTORS
330
3D
102
}
330
3D
100
AcDbScale
 70
     0
300
1/64" = 1'-0"
140
0.015625
141
12.0
290
     0
  0
SCALE
  5
51
102
{ACAD_REACTORS
330
3D
102
}
330
3D
100
AcDbScale
 70
     0
300
1/32" = 1'-0"
140
0.03125
141
12.0
290
     0
  0
SCALE
  5
52
102
{ACAD_REACTORS
330
3D
102
}
330
3D
100
AcDbScale
 70
     0
300
1/16" = 1'-0"
140
0.0625
141
12.0
290
     0
  0
SCALE
  5
53
102
{ACAD_REACTORS
330
3D
102
}
330
3D
100
AcDbScale
 70
     0
300
3/32" = 1'-0"
140
0.09375
141
12.0
290
     0
  0
SCALE
  5
54
102
{ACAD_REACTORS
330
3D
102
}
330
3D
100
AcDbScale
 70
     0
300
1/8" = 1'-0"
140
0.125
141
12.0
290
     0
  0
SCALE
  5
55
102
{ACAD_REACTORS
330
3D
102
}
330
3D
100
AcDbScale
 70
     0
300
3/16" = 1'-0"
140
0.1875
141
12.0
290
     0
  0
SCALE
  5
56
102
{ACAD_REACTORS
330
3D
102
}
330
3D
100
AcDbScale
 70
     0
300
1/4" = 1'-0"
140
0.25
141
12.0
290
     0
  0
SCALE
  5
57
102
{ACAD_REACTORS
330
3D
102
}
330
3D
100
AcDbScale
 70
     0
300
3/8" = 1'-0"
140
0.375
141
12.0
290
     0
  0
SCALE
  5
58
102
{ACAD_REACTORS
330
3D
102
}
330
3D
100
AcDbScale
 70
     0
300
1/2" = 1'-0"
140
0.5
141
12.0
290
     0
  0
SCALE
  5
59
102
{ACAD_REACTORS
330
3D
102
}
330
3D
100
AcDbScale
 70
     0
300
3/4" = 1'-0"
140
0.75
141
12.0
290
     0
  0
SCALE
  5
5A
102
{ACAD_REACTORS
330
3D
102
}
330
3D
100
AcDbScale
 70
     0
300
1" = 1'-0"
140
1.0
141
12.0
290
     0
  0
SCALE
  5
5B
102
{ACAD_REACTORS
330
3D
102
}
330
3D
100
AcDbScale
 70
     0
300
1-1/2" = 1'-0"
140
1.5
141
12.0
290
     0
  0
SCALE
  5
5C
102
{ACAD_REACTORS
330
3D
102
}
330
3D
100
AcDbScale
 70
     0
300
3" = 1'-0"
140
3.0
141
12.0
290
     0
  0
SCALE
  5
5D
102
{ACAD_REACTORS
330
3D
102
}
330
3D
100
AcDbScale
 70
     0
300
6" = 1'-0"
140
6.0
141
12.0
290
     0
  0
SCALE
  5
5E
102
{ACAD_REACTORS
330
3D
102
}
330
3D
100
AcDbScale
 70
     0
300
1'-0" = 1'-0"
140
12.0
141
12.0
290
     0
  0
TABLESTYLE
  5
70
102
{ACAD_XDICTIONARY
360
8A3
102
}
102
{ACAD_REACTORS
330
6F
102
}
330
6F
100
AcDbTableStyle
  3
Standard
 70
     0
 71
     0
 40
0.06
 41
0.06
280
     0
281
     0
  7
Standard
140
0.18
170
     2
 62
     0
 63
     7
283
     0
274
    -2
284
     1
 64
     0
275
    -2
285
     1
 65
     0
276
    -2
286
     1
 66
     0
277
    -2
287
     1
 67
     0
278
    -2
288
     1
 68
     0
279
    -2
289
     1
 69
     0
  7
Standard
140
0.25
170
     5
 62
     0
 63
     7
283
     0
274
    -2
284
     1
 64
     0
275
    -2
285
     1
 65
     0
276
    -2
286
     1
 66
     0
277
    -2
287
     1
 67
     0
278
    -2
288
     1
 68
     0
279
    -2
289
     1
 69
     0
  7
Standard
140
0.18
170
     5
 62
     0
 63
     7
283
     0
274
    -2
284
     1
 64
     0
275
    -2
285
     1
 65
     0
276
    -2
286
     1
 66
     0
277
    -2
287
     1
 67
     0
278
    -2
288
     1
 68
     0
279
    -2
289
     1
 69
     0
  0
VISUALSTYLE
  5
2F
102
{ACAD_XDICTIONARY
360
AA8
102
}
102
{ACAD_REACTORS
330
29
102
}
330
29
100
AcDbVisualStyle
  2
2dWireframe
 70
     4
 71
     0
 72
     2
 73
     0
 90
        0
 40
-0.6
 41
-30.0
 62
     5
 63
     7
 74
     1
 91
        4
 64
     7
 65
   257
 75
     1
175
     1
 42
1.0
 92
        0
 66
   257
 43
1.0
 76
     1
 77
     6
 78
     2
 67
     7
 79
     5
170
     0
171
     0
290
     0
174
     0
 93
        1
 44
0.0
173
     0
291
     0
 45
0.0
1001
ACAD
1000
AcDbSavedByObjectVersion
1070
     0
  0
VISUALSTYLE
  5
31
102
{ACAD_XDICTIONARY
360
AAC
102
}
102
{ACAD_REACTORS
330
29
102
}
330
29
100
AcDbVisualStyle
  2
3D Hidden
 70
     6
 71
     1
 72
     2
 73
     2
 90
        0
 40
-0.6
 41
-30.0
 62
     5
 63
     7
 74
     2
 91
        2
 64
     7
 65
   257
 75
     2
175
     1
 42
179.0
 92
        0
 66
   257
 43
1.0
 76
     1
 77
     6
 78
     2
 67
     7
 79
     3
170
     0
171
     0
290
     0
174
     0
 93
        1
 44
0.0
173
     0
291
     0
 45
0.0
1001
ACAD
1000
AcDbSavedByObjectVersion
1070
     0
  0
VISUALSTYLE
  5
30
102
{ACAD_XDICTIONARY
360
AAA
102
}
102
{ACAD_REACTORS
330
29
102
}
330
29
100
AcDbVisualStyle
  2
3dWireframe
 70
     5
 71
     0
 72
     2
 73
     0
 90
        0
 40
-0.6
 41
-30.0
 62
     5
 63
     7
 74
     1
 91
        4
 64
     7
 65
   257
 75
     1
175
     1
 42
1.0
 92
        0
 66
   257
 43
1.0
 76
     1
 77
     6
 78
     2
 67
     7
 79
     5
170
     0
171
     0
290
     0
174
     0
 93
        1
 44
0.0
173
     0
291
     0
 45
0.0
1001
ACAD
1000
AcDbSavedByObjectVersion
1070
     0
  0
VISUALSTYLE
  5
2E
102
{ACAD_XDICTIONARY
360
AA6
102
}
102
{ACAD_REACTORS
330
29
102
}
330
29
100
AcDbVisualStyle
  2
Basic
 70
     7
 71
     1
 72
     0
 73
     1
 90
        0
 40
-0.6
 41
-30.0
 62
     5
 63
     7
 74
     0
 91
        4
 64
     7
 65
   257
 75
     1
175
     1
 42
1.0
 92
        8
 66
     7
 43
1.0
 76
     1
 77
     6
 78
     2
 67
     7
 79
     5
170
     0
171
     0
290
     0
174
     0
 93
        1
 44
0.0
173
     0
291
     1
 45
0.0
1001
ACAD
1000
AcDbSavedByObjectVersion
1070
     0
  0
VISUALSTYLE
  5
35
102
{ACAD_XDICTIONARY
360
AB4
102
}
102
{ACAD_REACTORS
330
29
102
}
330
29
100
AcDbVisualStyle
  2
Brighten
 70
    12
 71
     2
 72
     2
 73
     0
 90
        0
 40
-0.6
 41
-30.0
 62
     5
 63
     7
 74
     1
 91
        4
 64
     7
 65
   257
 75
     1
175
     1
 42
1.0
 92
        8
 66
     7
 43
1.0
 76
     1
 77
     6
 78
     2
 67
     7
 79
     5
170
     0
171
     0
290
     0
174
     0
 93
        1
 44
50.0
173
     0
291
     1
 45
0.0
1001
ACAD
1000
AcDbSavedByObjectVersion
1070
     0
  0
VISUALSTYLE
  5
39
102
{ACAD_XDICTIONARY
360
ABC
102
}
102
{ACAD_REACTORS
330
29
102
}
330
29
100
AcDbVisualStyle
  2
ColorChange
 70
    16
 71
     2
 72
     2
 73
     3
 90
        0
 40
-0.6
 41
-30.0
 62
     5
 63
     8
 74
     1
 91
        4
 64
     7
 65
   257
 75
     1
175
     1
 42
1.0
 92
        8
 66
     8
 43
1.0
 76
     1
 77
     6
 78
     2
 67
     7
 79
     5
170
     0
171
     0
290
     0
174
     0
 93
        1
 44
0.0
173
     0
291
     1
 45
0.0
1001
ACAD
1000
AcDbSavedByObjectVersion
1070
     0
  0
VISUALSTYLE
  5
32
102
{ACAD_XDICTIONARY
360
AAE
102
}
102
{ACAD_REACTORS
330
29
102
}
330
29
100
AcDbVisualStyle
  2
Conceptual
 70
     9
 71
     3
 72
     2
 73
     0
 90
        0
 40
-0.6
 41
-30.0
 62
     5
 63
     7
 74
     2
 91
        2
 64
     7
 65
   257
 75
     1
175
     1
 42
179.0
 92
        8
 66
     7
 43
1.0
 76
     1
 77
     6
 78
     2
 67
     7
 79
     3
170
     0
171
     0
290
     0
174
     0
 93
        1
 44
0.0
173
     0
291
     0
 45
0.0
1001
ACAD
1000
AcDbSavedByObjectVersion
1070
     0
  0
VISUALSTYLE
  5
34
102
{ACAD_XDICTIONARY
360
AB2
102
}
102
{ACAD_REACTORS
330
29
102
}
330
29
100
AcDbVisualStyle
  2
Dim
 70
    11
 71
     2
 72
     2
 73
     0
 90
        0
 40
-0.6
 41
-30.0
 62
     5
 63
     7
 74
     1
 91
        4
 64
     7
 65
   257
 75
     1
175
     1
 42
1.0
 92
        8
 66
     7
 43
1.0
 76
     1
 77
     6
 78
     2
 67
     7
 79
     5
170
     0
171
     0
290
     0
174
     0
 93
        1
 44
-50.0
173
     0
291
     1
 45
0.0
1001
ACAD
1000
AcDbSavedByObjectVersion
1070
     0
  0
VISUALSTYLE
  5
3C
102
{ACAD_XDICTIONARY
360
AC2
102
}
102
{ACAD_REACTORS
330
29
102
}
330
29
100
AcDbVisualStyle
  2
EdgeColorOff
 70
    22
 71
     2
 72
     2
 73
     0
 90
        0
 40
-0.6
 41
-30.0
 62
     5
 63
     7
 74
     1
 91
        4
 64
     7
 65
   257
 75
     1
175
     1
 42
1.0
 92
        8
 66
     7
 43
1.0
 76
     1
 77
     6
 78
     2
 67
     7
 79
     5
170
     0
171
     0
290
     0
174
     0
 93
        1
 44
0.0
173
     0
291
     1
 45
0.0
1001
ACAD
1000
AcDbSavedByObjectVersion
1070
     0
  0
VISUALSTYLE
  5
38
102
{ACAD_XDICTIONARY
360
ABA
102
}
102
{ACAD_REACTORS
330
29
102
}
330
29
100
AcDbVisualStyle
  2
Facepattern
 70
    15
 71
     2
 72
     2
 73
     0
 90
        0
 40
-0.6
 41
-30.0
 62
     5
 63
     7
 74
     1
 91
        4
 64
     7
 65
   257
 75
     1
175
     1
 42
1.0
 92
        8
 66
     7
 43
1.0
 76
     1
 77
     6
 78
     2
 67
     7
 79
     5
170
     0
171
     0
290
     0
174
     0
 93
        1
 44
0.0
173
     0
291
     1
 45
0.0
1001
ACAD
1000
AcDbSavedByObjectVersion
1070
     0
  0
VISUALSTYLE
  5
2A
102
{ACAD_XDICTIONARY
360
A9E
102
}
102
{ACAD_REACTORS
330
29
102
}
330
29
100
AcDbVisualStyle
  2
Flat
 70
     0
 71
     2
 72
     1
 73
     1
 90
        2
 40
-0.6
 41
30.0
 62
     5
 63
     7
 74
     0
 91
        4
 64
     7
 65
   257
 75
     1
175
     1
 42
1.0
 92
        8
 66
     7
 43
1.0
 76
     1
 77
     6
 78
     2
 67
     7
 79
     5
170
     0
171
     0
290
     0
174
     0
 93
       13
 44
0.0
173
     0
291
     1
 45
0.0
1001
ACAD
1000
AcDbSavedByObjectVersion
1070
     0
  0
VISUALSTYLE
  5
2B
102
{ACAD_XDICTIONARY
360
AA0
102
}
102
{ACAD_REACTORS
330
29
102
}
330
29
100
AcDbVisualStyle
  2
FlatWithEdges
 70
     1
 71
     2
 72
     1
 73
     1
 90
        2
 40
-0.6
 41
30.0
 62
     5
 63
     7
 74
     1
 91
        4
 64
     7
 65
   257
 75
     1
175
     1
 42
1.0
 92
        0
 66
   257
 43
1.0
 76
     1
 77
     6
 78
     2
 67
     7
 79
     5
170
     0
171
     0
290
     0
174
     0
 93
       13
 44
0.0
173
     0
291
     1
 45
0.0
1001
ACAD
1000
AcDbSavedByObjectVersion
1070
     0
  0
VISUALSTYLE
  5
2C
102
{ACAD_XDICTIONARY
360
AA2
102
}
102
{ACAD_REACTORS
330
29
102
}
330
29
100
AcDbVisualStyle
  2
Gouraud
 70
     2
 71
     2
 72
     2
 73
     1
 90
        2
 40
-0.6
 41
30.0
 62
     5
 63
     7
 74
     0
 91
        4
 64
     7
 65
   257
 75
     1
175
     1
 42
1.0
 92
        0
 66
     7
 43
1.0
 76
     1
 77
     6
 78
     2
 67
     7
 79
     5
170
     0
171
     0
290
     0
174
     0
 93
       13
 44
0.0
173
     0
291
     1
 45
0.0
1001
ACAD
1000
AcDbSavedByObjectVersion
1070
     0
  0
VISUALSTYLE
  5
2D
102
{ACAD_XDICTIONARY
360
AA4
102
}
102
{ACAD_REACTORS
330
29
102
}
330
29
100
AcDbVisualStyle
  2
GouraudWithEdges
 70
     3
 71
     2
 72
     2
 73
     1
 90
        2
 40
-0.6
 41
30.0
 62
     5
 63
     7
 74
     1
 91
        4
 64
     7
 65
   257
 75
     1
175
     1
 42
1.0
 92
        0
 66
   257
 43
1.0
 76
     1
 77
     6
 78
     2
 67
     7
 79
     5
170
     0
171
     0
290
     0
174
     0
 93
       13
 44
0.0
173
     0
291
     1
 45
0.0
1001
ACAD
1000
AcDbSavedByObjectVersion
1070
     0
  0
VISUALSTYLE
  5
3A
102
{ACAD_XDICTIONARY
360
ABE
102
}
102
{ACAD_REACTORS
330
29
102
}
330
29
100
AcDbVisualStyle
  2
JitterOff
 70
    20
 71
     2
 72
     2
 73
     0
 90
        0
 40
-0.6
 41
-30.0
 62
     5
 63
     7
 74
     1
 91
        4
 64
     7
 65
   257
 75
     1
175
     1
 42
1.0
 92
       10
 66
     7
 43
1.0
 76
     1
 77
     6
 78
     2
 67
     7
 79
     5
170
     0
171
     0
290
     0
174
     0
 93
        1
 44
0.0
173
     0
291
     1
 45
0.0
1001
ACAD
1000
AcDbSavedByObjectVersion
1070
     0
  0
VISUALSTYLE
  5
37
102
{ACAD_XDICTIONARY
360
AB8
102
}
102
{ACAD_REACTORS
330
29
102
}
330
29
100
AcDbVisualStyle
  2
Linepattern
 70
    14
 71
     2
 72
     2
 73
     0
 90
        0
 40
-0.6
 41
-30.0
 62
     5
 63
     7
 74
     1
 91
        4
 64
     7
 65
   257
 75
     7
175
     7
 42
1.0
 92
        8
 66
     7
 43
1.0
 76
     1
 77
     6
 78
     2
 67
     7
 79
     5
170
     0
171
     0
290
     0
174
     0
 93
        1
 44
0.0
173
     0
291
     1
 45
0.0
1001
ACAD
1000
AcDbSavedByObjectVersion
1070
     0
  0
VISUALSTYLE
  5
3B
102
{ACAD_XDICTIONARY
360
AC0
102
}
102
{ACAD_REACTORS
330
29
102
}
330
29
100
AcDbVisualStyle
  2
OverhangOff
 70
    21
 71
     2
 72
     2
 73
     0
 90
        0
 40
-0.6
 41
-30.0
 62
     5
 63
     7
 74
     1
 91
        4
 64
     7
 65
   257
 75
     1
175
     1
 42
1.0
 92
        9
 66
     7
 43
1.0
 76
     1
 77
     6
 78
     2
 67
     7
 79
     5
170
     0
171
     0
290
     0
174
     0
 93
        1
 44
0.0
173
     0
291
     1
 45
0.0
1001
ACAD
1000
AcDbSavedByObjectVersion
1070
     0
  0
VISUALSTYLE
  5
33
102
{ACAD_XDICTIONARY
360
AB0
102
}
102
{ACAD_REACTORS
330
29
102
}
330
29
100
AcDbVisualStyle
  2
Realistic
 70
     8
 71
     2
 72
     2
 73
     0
 90
        0
 40
-0.6
 41
-30.0
 62
     5
 63
     7
 74
     1
 91
        0
 64
     7
 65
   257
 75
     1
175
     1
 42
1.0
 92
        8
 66
     8
 43
1.0
 76
     1
 77
     6
 78
     2
 67
     7
 79
     5
170
     0
171
     0
290
     0
174
     0
 93
       13
 44
0.0
173
     0
291
     0
 45
0.0
1001
ACAD
1000
AcDbSavedByObjectVersion
1070
     0
  0
VISUALSTYLE
  5
36
102
{ACAD_XDICTIONARY
360
AB6
102
}
102
{ACAD_REACTORS
330
29
102
}
330
29
100
AcDbVisualStyle
  2
Thicken
 70
    13
 71
     2
 72
     2
 73
     0
 90
        0
 40
-0.6
 41
-30.0
 62
     5
 63
     7
 74
     1
 91
        4
 64
     7
 65
   257
 75
     1
175
     1
 42
1.0
 92
       12
 66
     7
 43
1.0
 76
     1
 77
     6
 78
     2
 67
     7
 79
     5
170
     0
171
     0
290
     0
174
     0
 93
        1
 44
0.0
173
     0
291
     1
 45
0.0
1001
ACAD
1000
AcDbSavedByObjectVersion
1070
     0
  0
DICTIONARYVAR
  5
9A6
102
{ACAD_REACTORS
330
9A2
102
}
330
9A2
100
DictionaryVariables
280
     0
  1
1:1
  0
DICTIONARYVAR
  5
9A4
102
{ACAD_REACTORS
330
9A2
102
}
330
9A2
100
DictionaryVariables
280
     0
  1
STANDARD
  0
DICTIONARYVAR
  5
9A3
102
{ACAD_REACTORS
330
9A2
102
}
330
9A2
100
DictionaryVariables
280
     0
  1
STANDARD
  0
DICTIONARYVAR
  5
9AD
102
{ACAD_REACTORS
330
9A2
102
}
330
9A2
100
DictionaryVariables
280
     0
  1
1
  0
DICTIONARYVAR
  5
9AC
102
{ACAD_REACTORS
330
9A2
102
}
330
9A2
100
DictionaryVariables
280
     0
  1
1
  0
DICTIONARYVAR
  5
9AB
102
{ACAD_REACTORS
330
9A2
102
}
330
9A2
100
DictionaryVariables
280
     0
  1
0
  0
DICTIONARYVAR
  5
9A8
102
{ACAD_REACTORS
330
9A2
102
}
330
9A2
100
DictionaryVariables
280
     0
  1
0
  0
DICTIONARYVAR
  5
9A9
102
{ACAD_REACTORS
330
9A2
102
}
330
9A2
100
DictionaryVariables
280
     0
  1
0
  0
DICTIONARYVAR
  5
9A7
102
{ACAD_REACTORS
330
9A2
102
}
330
9A2
100
DictionaryVariables
280
     0
  1
2
  0
DICTIONARYVAR
  5
9A5
102
{ACAD_REACTORS
330
9A2
102
}
330
9A2
100
DictionaryVariables
280
     0
  1
1
  0
DICTIONARYVAR
  5
9AA
102
{ACAD_REACTORS
330
9A2
102
}
330
9A2
100
DictionaryVariables
280
     0
  1
127
  0
DICTIONARYVAR
  5
A5B
102
{ACAD_REACTORS
330
9A2
102
}
330
9A2
100
DictionaryVariables
280
     0
  1
2
  0
DICTIONARY
  5
A20
102
{ACAD_REACTORS
330
A14
102
}
330
A14
100
AcDbDictionary
281
     1
  0
DICTIONARY
  5
AC5
330
76
100
AcDbDictionary
280
     1
281
     1
  3
ACAD_XREC_ROUNDTRIP
360
AC6
  0
DICTIONARY
  5
AC9
330
7E
100
AcDbDictionary
280
     1
281
     1
  3
ACAD_XREC_ROUNDTRIP
360
ACA
  0
DICTIONARY
  5
AC7
330
7A
100
AcDbDictionary
280
     1
281
     1
  3
ACAD_XREC_ROUNDTRIP
360
AC8
  0
DICTIONARY
  5
1A
330
19
100
AcDbDictionary
280
     1
281
     1
  3
ACAD_XREC_ROUNDTRIP
360
A9C
  3
BUMPTILE
360
1C
  3
DIFFUSETILE
360
1B
  3
OPACITYTILE
360
1F
  3
REFLECTIONTILE
360
1E
  3
REFRACTIONTILE
360
20
  3
SPECULARTILE
360
1D
  0
DICTIONARY
  5
12
330
11
100
AcDbDictionary
280
     1
281
     1
  3
ACAD_XREC_ROUNDTRIP
360
A9B
  3
BUMPTILE
360
14
  3
DIFFUSETILE
360
13
  3
OPACITYTILE
360
17
  3
REFLECTIONTILE
360
16
  3
REFRACTIONTILE
360
18
  3
SPECULARTILE
360
15
  0
DICTIONARY
  5
22
330
21
100
AcDbDictionary
280
     1
281
     1
  3
ACAD_XREC_ROUNDTRIP
360
A9D
  3
BUMPTILE
360
24
  3
DIFFUSETILE
360
23
  3
OPACITYTILE
360
27
  3
REFLECTIONTILE
360
26
  3
REFRACTIONTILE
360
28
  3
SPECULARTILE
360
25
  0
DICTIONARY
  5
8A3
330
70
100
AcDbDictionary
280
     1
281
     1
  3
ACAD_ROUNDTRIP_2008_TABLESTYLE_CELLSTYLEMAP
360
A5C
  3
ACAD_XREC_ROUNDTRIP
360
AC4
  0
DICTIONARY
  5
AA8
330
2F
100
AcDbDictionary
280
     1
281
     1
  3
ACAD_XREC_ROUNDTRIP
360
AA9
  0
DICTIONARY
  5
AAC
330
31
100
AcDbDictionary
280
     1
281
     1
  3
ACAD_XREC_ROUNDTRIP
360
AAD
  0
DICTIONARY
  5
AAA
330
30
100
AcDbDictionary
280
     1
281
     1
  3
ACAD_XREC_ROUNDTRIP
360
AAB
  0
DICTIONARY
  5
AA6
330
2E
100
AcDbDictionary
280
     1
281
     1
  3
ACAD_XREC_ROUNDTRIP
360
AA7
  0
DICTIONARY
  5
AB4
330
35
100
AcDbDictionary
280
     1
281
     1
  3
ACAD_XREC_ROUNDTRIP
360
AB5
  0
DICTIONARY
  5
ABC
330
39
100
AcDbDictionary
280
     1
281
     1
  3
ACAD_XREC_ROUNDTRIP
360
ABD
  0
DICTIONARY
  5
AAE
330
32
100
AcDbDictionary
280
     1
281
     1
  3
ACAD_XREC_ROUNDTRIP
360
AAF
  0
DICTIONARY
  5
AB2
330
34
100
AcDbDictionary
280
     1
281
     1
  3
ACAD_XREC_ROUNDTRIP
360
AB3
  0
DICTIONARY
  5
AC2
330
3C
100
AcDbDictionary
280
     1
281
     1
  3
ACAD_XREC_ROUNDTRIP
360
AC3
  0
DICTIONARY
  5
ABA
330
38
100
AcDbDictionary
280
     1
281
     1
  3
ACAD_XREC_ROUNDTRIP
360
ABB
  0
DICTIONARY
  5
A9E
330
2A
100
AcDbDictionary
280
     1
281
     1
  3
ACAD_XREC_ROUNDTRIP
360
A9F
  0
DICTIONARY
  5
AA0
330
2B
100
AcDbDictionary
280
     1
281
     1
  3
ACAD_XREC_ROUNDTRIP
360
AA1
  0
DICTIONARY
  5
AA2
330
2C
100
AcDbDictionary
280
     1
281
     1
  3
ACAD_XREC_ROUNDTRIP
360
AA3
  0
DICTIONARY
  5
AA4
330
2D
100
AcDbDictionary
280
     1
281
     1
  3
ACAD_XREC_ROUNDTRIP
360
AA5
  0
DICTIONARY
  5
ABE
330
3A
100
AcDbDictionary
280
     1
281
     1
  3
ACAD_XREC_ROUNDTRIP
360
ABF
  0
DICTIONARY
  5
AB8
330
37
100
AcDbDictionary
280
     1
281
     1
  3
ACAD_XREC_ROUNDTRIP
360
AB9
  0
DICTIONARY
  5
AC0
330
3B
100
AcDbDictionary
280
     1
281
     1
  3
ACAD_XREC_ROUNDTRIP
360
AC1
  0
DICTIONARY
  5
AB0
330
33
100
AcDbDictionary
280
     1
281
     1
  3
ACAD_XREC_ROUNDTRIP
360
AB1
  0
DICTIONARY
  5
AB6
330
36
100
AcDbDictionary
280
     1
281
     1
  3
ACAD_XREC_ROUNDTRIP
360
AB7
  0
XRECORD
  5
AC6
102
{ACAD_REACTORS
330
AC5
102
}
330
AC5
100
AcDbXrecord
280
     1
102
SHADEPLOT
 70
     0
102
SHADEPLOTRESLEVEL
 70
     2
102
SHADEPLOTCUSTOMDPI
 70
   300
  0
XRECORD
  5
ACA
102
{ACAD_REACTORS
330
AC9
102
}
330
AC9
100
AcDbXrecord
280
     1
102
SHADEPLOT
 70
     0
102
SHADEPLOTRESLEVEL
 70
     2
102
SHADEPLOTCUSTOMDPI
 70
   300
  0
XRECORD
  5
AC8
102
{ACAD_REACTORS
330
AC7
102
}
330
AC7
100
AcDbXrecord
280
     1
102
SHADEPLOT
 70
     0
102
SHADEPLOTRESLEVEL
 70
     2
102
SHADEPLOTCUSTOMDPI
 70
   300
  0
XRECORD
  5
A9C
102
{ACAD_REACTORS
330
1A
102
}
330
1A
100
AcDbXrecord
280
     1
102
MATERIAL
148
0.0
149
0.0
149
0.0
 93
        0
 94
      127
282
     0
 72
     0
 77
     0
171
     0
175
     0
179
     0
273
     0
  0
XRECORD
  5
1C
102
{ACAD_REACTORS
330
1A
102
}
330
1A
100
AcDbXrecord
280
     1
270
     1
271
     1
  0
XRECORD
  5
1B
102
{ACAD_REACTORS
330
1A
102
}
330
1A
100
AcDbXrecord
280
     1
270
     1
271
     1
  0
XRECORD
  5
1F
102
{ACAD_REACTORS
330
1A
102
}
330
1A
100
AcDbXrecord
280
     1
270
     1
271
     1
  0
XRECORD
  5
1E
102
{ACAD_REACTORS
330
1A
102
}
330
1A
100
AcDbXrecord
280
     1
270
     1
271
     1
  0
XRECORD
  5
20
102
{ACAD_REACTORS
330
1A
102
}
330
1A
100
AcDbXrecord
280
     1
270
     1
271
     1
  0
XRECORD
  5
1D
102
{ACAD_REACTORS
330
1A
102
}
330
1A
100
AcDbXrecord
280
     1
270
     1
271
     1
  0
XRECORD
  5
A9B
102
{ACAD_REACTORS
330
12
102
}
330
12
100
AcDbXrecord
280
     1
102
MATERIAL
148
0.0
149
0.0
149
0.0
 93
        0
 94
      127
282
     0
 72
     0
 77
     0
171
     0
175
     0
179
     0
273
     0
  0
XRECORD
  5
14
102
{ACAD_REACTORS
330
12
102
}
330
12
100
AcDbXrecord
280
     1
270
     1
271
     1
  0
XRECORD
  5
13
102
{ACAD_REACTORS
330
12
102
}
330
12
100
AcDbXrecord
280
     1
270
     1
271
     1
  0
XRECORD
  5
17
102
{ACAD_REACTORS
330
12
102
}
330
12
100
AcDbXrecord
280
     1
270
     1
271
     1
  0
XRECORD
  5
16
102
{ACAD_REACTORS
330
12
102
}
330
12
100
AcDbXrecord
280
     1
270
     1
271
     1
  0
XRECORD
  5
18
102
{ACAD_REACTORS
330
12
102
}
330
12
100
AcDbXrecord
280
     1
270
     1
271
     1
  0
XRECORD
  5
15
102
{ACAD_REACTORS
330
12
102
}
330
12
100
AcDbXrecord
280
     1
270
     1
271
     1
  0
XRECORD
  5
A9D
102
{ACAD_REACTORS
330
22
102
}
330
22
100
AcDbXrecord
280
     1
102
MATERIAL
148
0.0
149
0.0
149
0.0
 93
        0
 94
      127
282
     0
 72
     0
 77
     0
171
     0
175
     0
179
     0
273
     0
  0
XRECORD
  5
24
102
{ACAD_REACTORS
330
22
102
}
330
22
100
AcDbXrecord
280
     1
270
     1
271
     1
  0
XRECORD
  5
23
102
{ACAD_REACTORS
330
22
102
}
330
22
100
AcDbXrecord
280
     1
270
     1
271
     1
  0
XRECORD
  5
27
102
{ACAD_REACTORS
330
22
102
}
330
22
100
AcDbXrecord
280
     1
270
     1
271
     1
  0
XRECORD
  5
26
102
{ACAD_REACTORS
330
22
102
}
330
22
100
AcDbXrecord
280
     1
270
     1
271
     1
  0
XRECORD
  5
28
102
{ACAD_REACTORS
330
22
102
}
330
22
100
AcDbXrecord
280
     1
270
     1
271
     1
  0
XRECORD
  5
25
102
{ACAD_REACTORS
330
22
102
}
330
22
100
AcDbXrecord
280
     1
270
     1
271
     1
  0
CELLSTYLEMAP
  5
A5C
102
{ACAD_REACTORS
330
8A3
102
}
330
8A3
100
AcDbCellStyleMap
 90
        3
300
CELLSTYLE
  1
TABLEFORMAT_BEGIN
 90
        5
170
     1
 91
        0
 92
    32768
 62
   257
 93
        1
300
CONTENTFORMAT
  1
CONTENTFORMAT_BEGIN
 90
        0
 91
        0
 92
      512
 93
        0
300

 40
0.0
140
1.0
 94
        5
 62
     0
340
60
144
0.25
309
CONTENTFORMAT_END
171
     0
 94
        0
309
TABLEFORMAT_END
  1
CELLSTYLE_BEGIN
 90
        1
 91
        1
300
_TITLE
309
CELLSTYLE_END
300
CELLSTYLE
  1
TABLEFORMAT_BEGIN
 90
        5
170
     1
 91
        0
 92
        0
 62
   257
 93
        1
300
CONTENTFORMAT
  1
CONTENTFORMAT_BEGIN
 90
        0
 91
        0
 92
      512
 93
        0
300

 40
0.0
140
1.0
 94
        5
 62
     0
340
60
144
0.18
309
CONTENTFORMAT_END
171
     0
 94
        0
309
TABLEFORMAT_END
  1
CELLSTYLE_BEGIN
 90
        2
 91
        1
300
_HEADER
309
CELLSTYLE_END
300
CELLSTYLE
  1
TABLEFORMAT_BEGIN
 90
        5
170
     1
 91
        0
 92
        0
 62
   257
 93
        1
300
CONTENTFORMAT
  1
CONTENTFORMAT_BEGIN
 90
        0
 91
        0
 92
      512
 93
        0
300

 40
0.0
140
1.0
 94
        2
 62
     0
340
60
144
0.18
309
CONTENTFORMAT_END
171
     0
 94
        0
309
TABLEFORMAT_END
  1
CELLSTYLE_BEGIN
 90
        3
 91
        2
300
_DATA
309
CELLSTYLE_END
  0
XRECORD
  5
AC4
102
{ACAD_REACTORS
330
8A3
102
}
330
8A3
100
AcDbXrecord
280
     1
102
ACAD_ROUNDTRIP_PRE2007_TABLESTYLE
 90
      512
 91
        0
  1

 92
      512
 93
        0
  2

 94
      512
 95
        0
  3

  0
XRECORD
  5
AA9
102
{ACAD_REACTORS
330
AA8
102
}
330
AA8
100
AcDbXrecord
280
     1
102
RTVSPropertyOp0
 70
     1
102
RTVSPropertyOp1
 70
     1
102
RTVSPropertyOp2
 70
     1
102
RTVSPropertyOp3
 70
     1
102
RTVSPropertyOp4
 70
     1
102
RTVSPropertyOp5
 70
     1
102
RTVSPropertyOp6
 70
     1
102
RTVSPropertyOp7
 70
     1
102
RTVSPropertyOp8
 70
     1
102
RTVSPropertyOp9
 70
     1
102
RTVSPropertyOp10
 70
     1
102
RTVSPropertyOp11
 70
     1
102
RTVSPropertyOp12
 70
     1
102
RTVSPropertyOp13
 70
     1
102
RTVSPropertyOp14
 70
     1
102
RTVSPropertyOp15
 70
     1
102
RTVSPropertyOp16
 70
     1
102
RTVSPropertyOp17
 70
     1
102
RTVSPropertyOp18
 70
     1
102
RTVSPropertyOp19
 70
     1
102
RTVSPropertyOp20
 70
     1
102
RTVSPropertyOp21
 70
     1
102
RTVSPropertyOp22
 70
     1
102
RTVSPropertyOp23
 70
     1
102
RTVSPropertyOp24
 70
     1
102
RTVSPropertyOp25
 70
     1
102
RTVSPropertyOp26
 70
     1
102
RTVSPropertyOp27
 70
     1
  0
XRECORD
  5
AAD
102
{ACAD_REACTORS
330
AAC
102
}
330
AAC
100
AcDbXrecord
280
     1
102
RTVSPropertyOp0
 70
     1
102
RTVSPropertyOp1
 70
     1
102
RTVSPropertyOp2
 70
     1
102
RTVSPropertyOp3
 70
     1
102
RTVSPropertyOp4
 70
     1
102
RTVSPropertyOp5
 70
     1
102
RTVSPropertyOp6
 70
     1
102
RTVSPropertyOp7
 70
     1
102
RTVSPropertyOp8
 70
     1
102
RTVSPropertyOp9
 70
     1
102
RTVSPropertyOp10
 70
     1
102
RTVSPropertyOp11
 70
     1
102
RTVSPropertyOp12
 70
     1
102
RTVSPropertyOp13
 70
     1
102
RTVSPropertyOp14
 70
     1
102
RTVSPropertyOp15
 70
     1
102
RTVSPropertyOp16
 70
     1
102
RTVSPropertyOp17
 70
     1
102
RTVSPropertyOp18
 70
     1
102
RTVSPropertyOp19
 70
     1
102
RTVSPropertyOp20
 70
     1
102
RTVSPropertyOp21
 70
     1
102
RTVSPropertyOp22
 70
     1
102
RTVSPropertyOp23
 70
     1
102
RTVSPropertyOp24
 70
     1
102
RTVSPropertyOp25
 70
     1
102
RTVSPropertyOp26
 70
     1
102
RTVSPropertyOp27
 70
     1
  0
XRECORD
  5
AAB
102
{ACAD_REACTORS
330
AAA
102
}
330
AAA
100
AcDbXrecord
280
     1
102
RTVSPropertyOp0
 70
     1
102
RTVSPropertyOp1
 70
     1
102
RTVSPropertyOp2
 70
     1
102
RTVSPropertyOp3
 70
     1
102
RTVSPropertyOp4
 70
     1
102
RTVSPropertyOp5
 70
     1
102
RTVSPropertyOp6
 70
     1
102
RTVSPropertyOp7
 70
     1
102
RTVSPropertyOp8
 70
     1
102
RTVSPropertyOp9
 70
     1
102
RTVSPropertyOp10
 70
     1
102
RTVSPropertyOp11
 70
     1
102
RTVSPropertyOp12
 70
     1
102
RTVSPropertyOp13
 70
     1
102
RTVSPropertyOp14
 70
     1
102
RTVSPropertyOp15
 70
     1
102
RTVSPropertyOp16
 70
     1
102
RTVSPropertyOp17
 70
     1
102
RTVSPropertyOp18
 70
     1
102
RTVSPropertyOp19
 70
     1
102
RTVSPropertyOp20
 70
     1
102
RTVSPropertyOp21
 70
     1
102
RTVSPropertyOp22
 70
     1
102
RTVSPropertyOp23
 70
     1
102
RTVSPropertyOp24
 70
     1
102
RTVSPropertyOp25
 70
     1
102
RTVSPropertyOp26
 70
     1
102
RTVSPropertyOp27
 70
     1
  0
XRECORD
  5
AA7
102
{ACAD_REACTORS
330
AA6
102
}
330
AA6
100
AcDbXrecord
280
     1
102
RTVSPropertyOp0
 70
     1
102
RTVSPropertyOp1
 70
     1
102
RTVSPropertyOp2
 70
     1
102
RTVSPropertyOp3
 70
     1
102
RTVSPropertyOp4
 70
     1
102
RTVSPropertyOp5
 70
     1
102
RTVSPropertyOp6
 70
     1
102
RTVSPropertyOp7
 70
     1
102
RTVSPropertyOp8
 70
     1
102
RTVSPropertyOp9
 70
     1
102
RTVSPropertyOp10
 70
     1
102
RTVSPropertyOp11
 70
     1
102
RTVSPropertyOp12
 70
     1
102
RTVSPropertyOp13
 70
     1
102
RTVSPropertyOp14
 70
     1
102
RTVSPropertyOp15
 70
     1
102
RTVSPropertyOp16
 70
     1
102
RTVSPropertyOp17
 70
     1
102
RTVSPropertyOp18
 70
     1
102
RTVSPropertyOp19
 70
     1
102
RTVSPropertyOp20
 70
     1
102
RTVSPropertyOp21
 70
     1
102
RTVSPropertyOp22
 70
     1
102
RTVSPropertyOp23
 70
     1
102
RTVSPropertyOp24
 70
     1
102
RTVSPropertyOp25
 70
     1
102
RTVSPropertyOp26
 70
     1
102
RTVSPropertyOp27
 70
     1
  0
XRECORD
  5
AB5
102
{ACAD_REACTORS
330
AB4
102
}
330
AB4
100
AcDbXrecord
280
     1
102
RTVSPropertyOp0
 70
     1
102
RTVSPropertyOp1
 70
     1
102
RTVSPropertyOp2
 70
     1
102
RTVSPropertyOp3
 70
     1
102
RTVSPropertyOp4
 70
     1
102
RTVSPropertyOp5
 70
     1
102
RTVSPropertyOp6
 70
     1
102
RTVSPropertyOp7
 70
     1
102
RTVSPropertyOp8
 70
     1
102
RTVSPropertyOp9
 70
     1
102
RTVSPropertyOp10
 70
     1
102
RTVSPropertyOp11
 70
     1
102
RTVSPropertyOp12
 70
     1
102
RTVSPropertyOp13
 70
     1
102
RTVSPropertyOp14
 70
     1
102
RTVSPropertyOp15
 70
     1
102
RTVSPropertyOp16
 70
     1
102
RTVSPropertyOp17
 70
     1
102
RTVSPropertyOp18
 70
     1
102
RTVSPropertyOp19
 70
     1
102
RTVSPropertyOp20
 70
     1
102
RTVSPropertyOp21
 70
     1
102
RTVSPropertyOp22
 70
     1
102
RTVSPropertyOp23
 70
     1
102
RTVSPropertyOp24
 70
     1
102
RTVSPropertyOp25
 70
     1
102
RTVSPropertyOp26
 70
     1
102
RTVSPropertyOp27
 70
     1
  0
XRECORD
  5
ABD
102
{ACAD_REACTORS
330
ABC
102
}
330
ABC
100
AcDbXrecord
280
     1
102
RTVSPropertyOp0
 70
     1
102
RTVSPropertyOp1
 70
     1
102
RTVSPropertyOp2
 70
     1
102
RTVSPropertyOp3
 70
     1
102
RTVSPropertyOp4
 70
     1
102
RTVSPropertyOp5
 70
     1
102
RTVSPropertyOp6
 70
     1
102
RTVSPropertyOp7
 70
     1
102
RTVSPropertyOp8
 70
     1
102
RTVSPropertyOp9
 70
     1
102
RTVSPropertyOp10
 70
     1
102
RTVSPropertyOp11
 70
     1
102
RTVSPropertyOp12
 70
     1
102
RTVSPropertyOp13
 70
     1
102
RTVSPropertyOp14
 70
     1
102
RTVSPropertyOp15
 70
     1
102
RTVSPropertyOp16
 70
     1
102
RTVSPropertyOp17
 70
     1
102
RTVSPropertyOp18
 70
     1
102
RTVSPropertyOp19
 70
     1
102
RTVSPropertyOp20
 70
     1
102
RTVSPropertyOp21
 70
     1
102
RTVSPropertyOp22
 70
     1
102
RTVSPropertyOp23
 70
     1
102
RTVSPropertyOp24
 70
     1
102
RTVSPropertyOp25
 70
     1
102
RTVSPropertyOp26
 70
     1
102
RTVSPropertyOp27
 70
     1
  0
XRECORD
  5
AAF
102
{ACAD_REACTORS
330
AAE
102
}
330
AAE
100
AcDbXrecord
280
     1
102
RTVSPropertyOp0
 70
     1
102
RTVSPropertyOp1
 70
     1
102
RTVSPropertyOp2
 70
     1
102
RTVSPropertyOp3
 70
     1
102
RTVSPropertyOp4
 70
     1
102
RTVSPropertyOp5
 70
     1
102
RTVSPropertyOp6
 70
     1
102
RTVSPropertyOp7
 70
     1
102
RTVSPropertyOp8
 70
     1
102
RTVSPropertyOp9
 70
     1
102
RTVSPropertyOp10
 70
     1
102
RTVSPropertyOp11
 70
     1
102
RTVSPropertyOp12
 70
     1
102
RTVSPropertyOp13
 70
     1
102
RTVSPropertyOp14
 70
     1
102
RTVSPropertyOp15
 70
     1
102
RTVSPropertyOp16
 70
     1
102
RTVSPropertyOp17
 70
     1
102
RTVSPropertyOp18
 70
     1
102
RTVSPropertyOp19
 70
     1
102
RTVSPropertyOp20
 70
     1
102
RTVSPropertyOp21
 70
     1
102
RTVSPropertyOp22
 70
     1
102
RTVSPropertyOp23
 70
     1
102
RTVSPropertyOp24
 70
     1
102
RTVSPropertyOp25
 70
     1
102
RTVSPropertyOp26
 70
     1
102
RTVSPropertyOp27
 70
     1
  0
XRECORD
  5
AB3
102
{ACAD_REACTORS
330
AB2
102
}
330
AB2
100
AcDbXrecord
280
     1
102
RTVSPropertyOp0
 70
     1
102
RTVSPropertyOp1
 70
     1
102
RTVSPropertyOp2
 70
     1
102
RTVSPropertyOp3
 70
     1
102
RTVSPropertyOp4
 70
     1
102
RTVSPropertyOp5
 70
     1
102
RTVSPropertyOp6
 70
     1
102
RTVSPropertyOp7
 70
     1
102
RTVSPropertyOp8
 70
     1
102
RTVSPropertyOp9
 70
     1
102
RTVSPropertyOp10
 70
     1
102
RTVSPropertyOp11
 70
     1
102
RTVSPropertyOp12
 70
     1
102
RTVSPropertyOp13
 70
     1
102
RTVSPropertyOp14
 70
     1
102
RTVSPropertyOp15
 70
     1
102
RTVSPropertyOp16
 70
     1
102
RTVSPropertyOp17
 70
     1
102
RTVSPropertyOp18
 70
     1
102
RTVSPropertyOp19
 70
     1
102
RTVSPropertyOp20
 70
     1
102
RTVSPropertyOp21
 70
     1
102
RTVSPropertyOp22
 70
     1
102
RTVSPropertyOp23
 70
     1
102
RTVSPropertyOp24
 70
     1
102
RTVSPropertyOp25
 70
     1
102
RTVSPropertyOp26
 70
     1
102
RTVSPropertyOp27
 70
     1
  0
XRECORD
  5
AC3
102
{ACAD_REACTORS
330
AC2
102
}
330
AC2
100
AcDbXrecord
280
     1
102
RTVSPropertyOp0
 70
     0
102
RTVSPropertyOp1
 70
     0
102
RTVSPropertyOp2
 70
     0
102
RTVSPropertyOp3
 70
     0
102
RTVSPropertyOp4
 70
     0
102
RTVSPropertyOp5
 70
     0
102
RTVSPropertyOp6
 70
     0
102
RTVSPropertyOp7
 70
     0
102
RTVSPropertyOp8
 70
     0
102
RTVSPropertyOp9
 70
     0
102
RTVSPropertyOp10
 70
     0
102
RTVSPropertyOp11
 70
     0
102
RTVSPropertyOp12
 70
     0
102
RTVSPropertyOp13
 70
     0
102
RTVSPropertyOp14
 70
     2
102
RTVSPropertyOp15
 70
     0
102
RTVSPropertyOp16
 70
     0
102
RTVSPropertyOp17
 70
     0
102
RTVSPropertyOp18
 70
     0
102
RTVSPropertyOp19
 70
     0
102
RTVSPropertyOp20
 70
     0
102
RTVSPropertyOp21
 70
     0
102
RTVSPropertyOp22
 70
     0
102
RTVSPropertyOp23
 70
     0
102
RTVSPropertyOp24
 70
     0
102
RTVSPropertyOp25
 70
     0
102
RTVSPropertyOp26
 70
     0
102
RTVSPropertyOp27
 70
     0
  0
XRECORD
  5
ABB
102
{ACAD_REACTORS
330
ABA
102
}
330
ABA
100
AcDbXrecord
280
     1
102
RTVSPropertyOp0
 70
     1
102
RTVSPropertyOp1
 70
     1
102
RTVSPropertyOp2
 70
     1
102
RTVSPropertyOp3
 70
     1
102
RTVSPropertyOp4
 70
     1
102
RTVSPropertyOp5
 70
     1
102
RTVSPropertyOp6
 70
     1
102
RTVSPropertyOp7
 70
     1
102
RTVSPropertyOp8
 70
     1
102
RTVSPropertyOp9
 70
     1
102
RTVSPropertyOp10
 70
     1
102
RTVSPropertyOp11
 70
     1
102
RTVSPropertyOp12
 70
     1
102
RTVSPropertyOp13
 70
     1
102
RTVSPropertyOp14
 70
     1
102
RTVSPropertyOp15
 70
     1
102
RTVSPropertyOp16
 70
     1
102
RTVSPropertyOp17
 70
     1
102
RTVSPropertyOp18
 70
     1
102
RTVSPropertyOp19
 70
     1
102
RTVSPropertyOp20
 70
     1
102
RTVSPropertyOp21
 70
     1
102
RTVSPropertyOp22
 70
     1
102
RTVSPropertyOp23
 70
     1
102
RTVSPropertyOp24
 70
     1
102
RTVSPropertyOp25
 70
     1
102
RTVSPropertyOp26
 70
     1
102
RTVSPropertyOp27
 70
     1
  0
XRECORD
  5
A9F
102
{ACAD_REACTORS
330
A9E
102
}
330
A9E
100
AcDbXrecord
280
     1
102
RTVSPropertyOp0
 70
     1
102
RTVSPropertyOp1
 70
     1
102
RTVSPropertyOp2
 70
     1
102
RTVSPropertyOp3
 70
     1
102
RTVSPropertyOp4
 70
     1
102
RTVSPropertyOp5
 70
     1
102
RTVSPropertyOp6
 70
     1
102
RTVSPropertyOp7
 70
     1
102
RTVSPropertyOp8
 70
     1
102
RTVSPropertyOp9
 70
     1
102
RTVSPropertyOp10
 70
     1
102
RTVSPropertyOp11
 70
     1
102
RTVSPropertyOp12
 70
     1
102
RTVSPropertyOp13
 70
     1
102
RTVSPropertyOp14
 70
     1
102
RTVSPropertyOp15
 70
     1
102
RTVSPropertyOp16
 70
     1
102
RTVSPropertyOp17
 70
     1
102
RTVSPropertyOp18
 70
     1
102
RTVSPropertyOp19
 70
     1
102
RTVSPropertyOp20
 70
     1
102
RTVSPropertyOp21
 70
     1
102
RTVSPropertyOp22
 70
     1
102
RTVSPropertyOp23
 70
     1
102
RTVSPropertyOp24
 70
     1
102
RTVSPropertyOp25
 70
     1
102
RTVSPropertyOp26
 70
     1
102
RTVSPropertyOp27
 70
     1
  0
XRECORD
  5
AA1
102
{ACAD_REACTORS
330
AA0
102
}
330
AA0
100
AcDbXrecord
280
     1
102
RTVSPropertyOp0
 70
     1
102
RTVSPropertyOp1
 70
     1
102
RTVSPropertyOp2
 70
     1
102
RTVSPropertyOp3
 70
     1
102
RTVSPropertyOp4
 70
     1
102
RTVSPropertyOp5
 70
     1
102
RTVSPropertyOp6
 70
     1
102
RTVSPropertyOp7
 70
     1
102
RTVSPropertyOp8
 70
     1
102
RTVSPropertyOp9
 70
     1
102
RTVSPropertyOp10
 70
     1
102
RTVSPropertyOp11
 70
     1
102
RTVSPropertyOp12
 70
     1
102
RTVSPropertyOp13
 70
     1
102
RTVSPropertyOp14
 70
     1
102
RTVSPropertyOp15
 70
     1
102
RTVSPropertyOp16
 70
     1
102
RTVSPropertyOp17
 70
     1
102
RTVSPropertyOp18
 70
     1
102
RTVSPropertyOp19
 70
     1
102
RTVSPropertyOp20
 70
     1
102
RTVSPropertyOp21
 70
     1
102
RTVSPropertyOp22
 70
     1
102
RTVSPropertyOp23
 70
     1
102
RTVSPropertyOp24
 70
     1
102
RTVSPropertyOp25
 70
     1
102
RTVSPropertyOp26
 70
     1
102
RTVSPropertyOp27
 70
     1
  0
XRECORD
  5
AA3
102
{ACAD_REACTORS
330
AA2
102
}
330
AA2
100
AcDbXrecord
280
     1
102
RTVSPropertyOp0
 70
     1
102
RTVSPropertyOp1
 70
     1
102
RTVSPropertyOp2
 70
     1
102
RTVSPropertyOp3
 70
     1
102
RTVSPropertyOp4
 70
     1
102
RTVSPropertyOp5
 70
     1
102
RTVSPropertyOp6
 70
     1
102
RTVSPropertyOp7
 70
     1
102
RTVSPropertyOp8
 70
     1
102
RTVSPropertyOp9
 70
     1
102
RTVSPropertyOp10
 70
     1
102
RTVSPropertyOp11
 70
     1
102
RTVSPropertyOp12
 70
     1
102
RTVSPropertyOp13
 70
     1
102
RTVSPropertyOp14
 70
     1
102
RTVSPropertyOp15
 70
     1
102
RTVSPropertyOp16
 70
     1
102
RTVSPropertyOp17
 70
     1
102
RTVSPropertyOp18
 70
     1
102
RTVSPropertyOp19
 70
     1
102
RTVSPropertyOp20
 70
     1
102
RTVSPropertyOp21
 70
     1
102
RTVSPropertyOp22
 70
     1
102
RTVSPropertyOp23
 70
     1
102
RTVSPropertyOp24
 70
     1
102
RTVSPropertyOp25
 70
     1
102
RTVSPropertyOp26
 70
     1
102
RTVSPropertyOp27
 70
     1
  0
XRECORD
  5
AA5
102
{ACAD_REACTORS
330
AA4
102
}
330
AA4
100
AcDbXrecord
280
     1
102
RTVSPropertyOp0
 70
     1
102
RTVSPropertyOp1
 70
     1
102
RTVSPropertyOp2
 70
     1
102
RTVSPropertyOp3
 70
     1
102
RTVSPropertyOp4
 70
     1
102
RTVSPropertyOp5
 70
     1
102
RTVSPropertyOp6
 70
     1
102
RTVSPropertyOp7
 70
     1
102
RTVSPropertyOp8
 70
     1
102
RTVSPropertyOp9
 70
     1
102
RTVSPropertyOp10
 70
     1
102
RTVSPropertyOp11
 70
     1
102
RTVSPropertyOp12
 70
     1
102
RTVSPropertyOp13
 70
     1
102
RTVSPropertyOp14
 70
     1
102
RTVSPropertyOp15
 70
     1
102
RTVSPropertyOp16
 70
     1
102
RTVSPropertyOp17
 70
     1
102
RTVSPropertyOp18
 70
     1
102
RTVSPropertyOp19
 70
     1
102
RTVSPropertyOp20
 70
     1
102
RTVSPropertyOp21
 70
     1
102
RTVSPropertyOp22
 70
     1
102
RTVSPropertyOp23
 70
     1
102
RTVSPropertyOp24
 70
     1
102
RTVSPropertyOp25
 70
     1
102
RTVSPropertyOp26
 70
     1
102
RTVSPropertyOp27
 70
     1
  0
XRECORD
  5
ABF
102
{ACAD_REACTORS
330
ABE
102
}
330
ABE
100
AcDbXrecord
280
     1
102
RTVSPropertyOp0
 70
     0
102
RTVSPropertyOp1
 70
     0
102
RTVSPropertyOp2
 70
     0
102
RTVSPropertyOp3
 70
     0
102
RTVSPropertyOp4
 70
     0
102
RTVSPropertyOp5
 70
     0
102
RTVSPropertyOp6
 70
     0
102
RTVSPropertyOp7
 70
     0
102
RTVSPropertyOp8
 70
     0
102
RTVSPropertyOp9
 70
     0
102
RTVSPropertyOp10
 70
     0
102
RTVSPropertyOp11
 70
     0
102
RTVSPropertyOp12
 70
     0
102
RTVSPropertyOp13
 70
     0
102
RTVSPropertyOp14
 70
     2
102
RTVSPropertyOp15
 70
     0
102
RTVSPropertyOp16
 70
     0
102
RTVSPropertyOp17
 70
     0
102
RTVSPropertyOp18
 70
     0
102
RTVSPropertyOp19
 70
     0
102
RTVSPropertyOp20
 70
     0
102
RTVSPropertyOp21
 70
     0
102
RTVSPropertyOp22
 70
     0
102
RTVSPropertyOp23
 70
     0
102
RTVSPropertyOp24
 70
     0
102
RTVSPropertyOp25
 70
     0
102
RTVSPropertyOp26
 70
     0
102
RTVSPropertyOp27
 70
     0
  0
XRECORD
  5
AB9
102
{ACAD_REACTORS
330
AB8
102
}
330
AB8
100
AcDbXrecord
280
     1
102
RTVSPropertyOp0
 70
     1
102
RTVSPropertyOp1
 70
     1
102
RTVSPropertyOp2
 70
     1
102
RTVSPropertyOp3
 70
     1
102
RTVSPropertyOp4
 70
     1
102
RTVSPropertyOp5
 70
     1
102
RTVSPropertyOp6
 70
     1
102
RTVSPropertyOp7
 70
     1
102
RTVSPropertyOp8
 70
     1
102
RTVSPropertyOp9
 70
     1
102
RTVSPropertyOp10
 70
     1
102
RTVSPropertyOp11
 70
     1
102
RTVSPropertyOp12
 70
     1
102
RTVSPropertyOp13
 70
     1
102
RTVSPropertyOp14
 70
     1
102
RTVSPropertyOp15
 70
     1
102
RTVSPropertyOp16
 70
     1
102
RTVSPropertyOp17
 70
     1
102
RTVSPropertyOp18
 70
     1
102
RTVSPropertyOp19
 70
     1
102
RTVSPropertyOp20
 70
     1
102
RTVSPropertyOp21
 70
     1
102
RTVSPropertyOp22
 70
     1
102
RTVSPropertyOp23
 70
     1
102
RTVSPropertyOp24
 70
     1
102
RTVSPropertyOp25
 70
     1
102
RTVSPropertyOp26
 70
     1
102
RTVSPropertyOp27
 70
     1
  0
XRECORD
  5
AC1
102
{ACAD_REACTORS
330
AC0
102
}
330
AC0
100
AcDbXrecord
280
     1
102
RTVSPropertyOp0
 70
     0
102
RTVSPropertyOp1
 70
     0
102
RTVSPropertyOp2
 70
     0
102
RTVSPropertyOp3
 70
     0
102
RTVSPropertyOp4
 70
     0
102
RTVSPropertyOp5
 70
     0
102
RTVSPropertyOp6
 70
     0
102
RTVSPropertyOp7
 70
     0
102
RTVSPropertyOp8
 70
     0
102
RTVSPropertyOp9
 70
     0
102
RTVSPropertyOp10
 70
     0
102
RTVSPropertyOp11
 70
     0
102
RTVSPropertyOp12
 70
     0
102
RTVSPropertyOp13
 70
     0
102
RTVSPropertyOp14
 70
     2
102
RTVSPropertyOp15
 70
     0
102
RTVSPropertyOp16
 70
     0
102
RTVSPropertyOp17
 70
     0
102
RTVSPropertyOp18
 70
     0
102
RTVSPropertyOp19
 70
     0
102
RTVSPropertyOp20
 70
     0
102
RTVSPropertyOp21
 70
     0
102
RTVSPropertyOp22
 70
     0
102
RTVSPropertyOp23
 70
     0
102
RTVSPropertyOp24
 70
     0
102
RTVSPropertyOp25
 70
     0
102
RTVSPropertyOp26
 70
     0
102
RTVSPropertyOp27
 70
     0
  0
XRECORD
  5
AB1
102
{ACAD_REACTORS
330
AB0
102
}
330
AB0
100
AcDbXrecord
280
     1
102
RTVSPropertyOp0
 70
     1
102
RTVSPropertyOp1
 70
     1
102
RTVSPropertyOp2
 70
     1
102
RTVSPropertyOp3
 70
     1
102
RTVSPropertyOp4
 70
     1
102
RTVSPropertyOp5
 70
     1
102
RTVSPropertyOp6
 70
     1
102
RTVSPropertyOp7
 70
     1
102
RTVSPropertyOp8
 70
     1
102
RTVSPropertyOp9
 70
     1
102
RTVSPropertyOp10
 70
     1
102
RTVSPropertyOp11
 70
     1
102
RTVSPropertyOp12
 70
     1
102
RTVSPropertyOp13
 70
     1
102
RTVSPropertyOp14
 70
     1
102
RTVSPropertyOp15
 70
     1
102
RTVSPropertyOp16
 70
     1
102
RTVSPropertyOp17
 70
     1
102
RTVSPropertyOp18
 70
     1
102
RTVSPropertyOp19
 70
     1
102
RTVSPropertyOp20
 70
     1
102
RTVSPropertyOp21
 70
     1
102
RTVSPropertyOp22
 70
     1
102
RTVSPropertyOp23
 70
     1
102
RTVSPropertyOp24
 70
     1
102
RTVSPropertyOp25
 70
     1
102
RTVSPropertyOp26
 70
     1
102
RTVSPropertyOp27
 70
     1
  0
XRECORD
  5
AB7
102
{ACAD_REACTORS
330
AB6
102
}
330
AB6
100
AcDbXrecord
280
     1
102
RTVSPropertyOp0
 70
     1
102
RTVSPropertyOp1
 70
     1
102
RTVSPropertyOp2
 70
     1
102
RTVSPropertyOp3
 70
     1
102
RTVSPropertyOp4
 70
     1
102
RTVSPropertyOp5
 70
     1
102
RTVSPropertyOp6
 70
     1
102
RTVSPropertyOp7
 70
     1
102
RTVSPropertyOp8
 70
     1
102
RTVSPropertyOp9
 70
     1
102
RTVSPropertyOp10
 70
     1
102
RTVSPropertyOp11
 70
     1
102
RTVSPropertyOp12
 70
     1
102
RTVSPropertyOp13
 70
     1
102
RTVSPropertyOp14
 70
     1
102
RTVSPropertyOp15
 70
     1
102
RTVSPropertyOp16
 70
     1
102
RTVSPropertyOp17
 70
     1
102
RTVSPropertyOp18
 70
     1
102
RTVSPropertyOp19
 70
     1
102
RTVSPropertyOp20
 70
     1
102
RTVSPropertyOp21
 70
     1
102
RTVSPropertyOp22
 70
     1
102
RTVSPropertyOp23
 70
     1
102
RTVSPropertyOp24
 70
     1
102
RTVSPropertyOp25
 70
     1
102
RTVSPropertyOp26
 70
     1
102
RTVSPropertyOp27
 70
     1
  0
ENDSEC
  0
EOF
